osu file format v5

[General]
AudioFilename: oath of soul.mp3
AudioLeadIn: 0
PreviewTime: 60749
Countdown: 1
SampleSet: Normal
StackLeniency: 0.7
Mode: 1
LetterboxInBreaks: 0

[Editor]
Bookmarks: 26141,38298,45992
DistanceSpacing: 0.5
BeatDivisor: 8
GridSize: 32

[Metadata]
Title:Oath of Soul
Artist:SOUND HOLIC
Creator:Tamix
Version:Taiko Normal
Source:nico
Tags:touhou

[Difficulty]
HPDrainRate:6
CircleSize:5
OverallDifficulty:6
SliderMultiplier:2
SliderTickRate:1

[Events]
//Background and Video events
0,0,"background.jpg"
Video,0,"oath of soul.avi"
//Break Periods
2,83908,109087
2,156594,164323
//Storyboard Layer 0 (Background)
//Storyboard Layer 1 (Fail)
//Storyboard Layer 2 (Pass)
//Storyboard Layer 3 (Foreground)
//Storyboard Sound Samples
//Background Colour Transformations
3,100,163,162,255

[TimingPoints]
35,408.163265306122,4,1,0,100,1,0
24830,1000,4,1,0,100,1,0
26080,408.163265306122,4,1,0,100,1,0
43605,571.428571428571,4,1,0,100,1,0
45890,408.163265306122,4,1,0,100,1,0
67318,571.428571428571,4,1,0,100,1,0
68440,408.163265306122,4,1,0,100,1,0
70174,204.081632653061,4,1,0,100,1,0
70582,408.163265306122,4,1,0,100,1,0
77113,571.428571428571,4,1,0,100,1,0
78337,408.163265306122,4,1,0,100,1,0
109969,408.163265306122,4,1,0,100,1,0
111397,408.163265306122,4,1,0,100,1,0
117928,571.428571428571,4,1,0,100,1,0
119152,408.163265306122,4,1,0,100,1,0
120784,204.081632653061,4,1,0,100,1,0
121294,408.163265306122,4,1,0,100,1,0
127723,571.428571428571,4,1,0,100,1,0
128947,408.163265306122,4,1,0,100,1,0
137518,571.428571428571,4,1,0,100,1,0
138742,408.163265306122,4,1,0,100,1,0
140374,204.081632653061,4,1,0,100,1,0
140884,408.163265306122,4,1,0,100,1,0
147313,571.428571428571,4,1,0,100,1,0
148537,408.163265306122,4,1,0,100,1,0
166445,571.428571428571,4,1,0,100,1,0

[Colours]
Combo1 : 255,150,0
Combo2 : 40,205,31
Combo3 : 45,88,228
Combo4 : 200,38,38

[HitObjects]
224,192,17994,5,0
288,192,18147,1,8
224,192,18300,1,0
288,192,18453,1,8
224,192,18606,1,0
288,192,18759,1,8
288,128,18934,1,4
224,32,20137,5,4
352,32,20443,1,0
416,64,20647,1,8
352,96,20851,1,0
416,128,21055,1,8
352,160,21259,1,0
416,192,21463,1,8
352,224,21667,1,0
416,256,21871,1,8
352,288,22075,2,2,B|320:384|192:224|192:224,1,200
160,64,22892,5,4
352,64,23300,1,12
256,64,23708,1,0
160,128,23912,1,8
96,192,24116,1,0
224,192,24320,1,8
352,192,24524,1,0
361,256,24728,1,8
361,321,24955,1,0
32,160,26590,5,0
72,97,26896,1,8
135,57,27202,1,4
184,58,27406,1,4
309,213,28222,5,0
269,276,28528,1,8
206,316,28835,1,12
157,315,29039,1,12
31,159,29855,5,0
71,96,30161,1,8
134,56,30467,1,0
224,64,30671,1,8
320,64,30977,1,8
256,192,31284,1,4
256,192,31488,1,4
256,192,31692,1,12
256,192,31896,1,12
32,64,33122,5,4
128,64,33530,1,0
160,96,33732,1,8
192,64,33938,1,0
224,96,34140,1,8
256,64,34345,1,0
288,96,34548,1,8
320,64,34753,1,0
352,96,34956,1,8
384,64,35161,1,0
448,256,35977,5,4
352,256,36385,1,12
256,256,36793,1,0
256,256,36997,1,8
192,256,37201,1,0
192,256,37405,1,8
128,256,37610,1,0
128,256,37814,1,8
64,256,38018,1,0
32,160,39651,5,0
72,97,39957,1,8
135,57,40264,1,0
184,58,40468,1,0
309,213,41284,5,0
269,276,41590,1,8
206,316,41896,1,0
157,315,42100,1,0
32,160,42916,5,0
72,97,43222,1,8
135,57,43528,1,8
185,58,43676,2,2,B|318:58,2,112.5
185,58,44523,2,0,B|185:169,1,75
185,133,44931,2,0,B|218:238|318:276|427:291,1,300
193,192,46604,6,8,B|224:99|288:99|322:197,1,200
256,192,47216,1,8
193,192,48236,6,8,B|224:285|288:285|322:187,1,200
256,192,48848,1,8
205,96,49461,6,2,B|333:96,1,100
306,287,50277,2,2,B|178:287,1,100
96,192,50889,1,4
96,192,51094,1,4
128,320,51502,5,2
224,320,51910,1,8
320,320,52318,1,2
384,320,52522,6,8,B|424:264|384:193,5,100
368,155,53900,5,8
320,128,54104,1,8
275,105,54308,1,8
169,64,54767,2,0,B|34:64|34:191|34:192,2,200
224,64,55787,6,8,B|352:64,1,100
416,192,56604,1,8
320,256,57012,1,8
256,256,57318,2,0,B|160:256,2,50
256,192,57624,12,0,59869
64,64,60889,5,8
160,64,61298,1,8
224,64,61502,1,8
288,64,61706,1,8
384,64,62114,1,10
384,160,62522,1,8
288,160,62930,1,8
224,160,63134,1,8
160,160,63338,1,8
64,160,63747,1,10
64,256,64155,1,8
160,256,64563,1,8
224,256,64767,1,8
288,256,64971,1,8
384,256,65379,1,10
384,256,65787,1,10
372,95,66400,5,8
328,70,66604,1,8
282,49,66808,1,8
232,48,67012,1,8
185,65,67216,1,8
146,97,67420,2,0,B|225:160|289:160|374:96,1,250
448,192,68644,5,0
352,192,69052,1,8
448,192,69460,1,0
352,192,69868,1,8
256,192,70225,2,10,B|32:192,1,200
64,320,70685,5,8
160,320,71093,1,8
224,320,71297,1,8
288,320,71501,1,8
384,320,71909,1,10
384,224,72317,1,8
288,224,72726,1,8
224,224,72930,1,8
160,224,73134,1,8
64,224,73542,1,10
64,128,73950,1,8
160,128,74358,1,8
224,128,74562,1,8
288,128,74766,1,8
384,128,75160,1,10
384,128,75583,1,10
372,289,76195,5,8
328,314,76399,1,8
282,335,76603,1,8
232,336,76807,1,8
185,319,77011,1,8
146,287,77215,2,0,B|225:224|289:224|374:288,1,250
160,96,78417,5,0
256,128,78825,1,8
352,128,79233,1,0
320,224,79626,2,8,B|160:224,1,150
170,224,80239,1,0
256,192,80481,12,0,83645
320,224,110071,6,0,B|384:224,2,50,0|0|0
256,224,110479,5,0
192,224,110683,6,0,B|128:224,2,50,0|0|0
141,224,111092,6,0,B|205:224,2,50,0|0|0
64,64,111500,5,8
160,64,111908,1,8
224,64,112112,1,8
288,64,112316,1,8
384,64,112724,1,10
384,160,113132,1,8
288,160,113541,1,8
224,160,113745,1,8
160,160,113949,1,8
64,160,114357,1,10
64,256,114765,1,8
160,256,115173,1,8
224,256,115377,1,8
288,256,115581,1,8
384,256,115988,1,10
384,256,116398,1,10
372,95,117010,5,8
328,70,117214,1,8
282,49,117418,1,8
232,48,117622,1,8
185,65,117826,1,8
146,97,118054,2,0,B|225:160|289:160|374:96,1,250
448,192,119255,5,0
352,192,119663,1,8
448,192,120071,1,0
352,192,120479,1,8
256,192,120784,2,10,B|32:192,1,200
64,320,121294,5,8
160,320,121702,1,8
224,320,121906,1,8
288,320,122110,1,8
384,320,122518,1,10
384,224,122926,1,8
288,224,123334,1,8
224,224,123538,1,8
160,224,123742,1,8
64,224,124151,1,10
64,128,124559,1,8
160,128,124967,1,8
224,128,125171,1,8
288,128,125375,1,8
384,128,125783,1,10
384,128,126191,1,10
372,289,126804,5,8
328,314,127008,1,8
282,335,127212,1,8
232,336,127416,1,8
185,319,127620,1,8
146,287,127849,2,0,B|225:224|289:224|374:288,1,250
160,96,129051,5,0
256,128,129459,1,8
352,128,129867,1,0
320,224,130260,2,8,B|160:224,1,150
96,160,130873,1,0
64,64,131092,5,8
160,64,131500,1,8
224,64,131704,1,8
288,64,131908,1,8
384,64,132316,1,10
384,160,132724,1,8
288,160,133133,1,8
224,160,133337,1,8
160,160,133541,1,8
64,160,133949,1,10
64,256,134357,1,8
160,256,134765,1,8
224,256,134969,1,8
288,256,135173,1,8
384,256,135579,1,10
384,256,135990,1,10
372,95,136602,5,8
328,70,136806,1,8
282,49,137010,1,8
232,48,137214,1,8
185,65,137418,1,8
146,97,137646,2,0,B|225:160|289:160|374:96,1,250
448,192,138847,5,0
352,192,139255,1,8
448,192,139663,1,0
352,192,140071,1,8
256,192,140374,2,10,B|32:192,1,200
64,320,140911,5,8
160,320,141292,1,8
224,320,141496,1,8
288,320,141700,1,8
384,320,142108,1,10
384,224,142516,1,8
288,224,142924,1,8
224,224,143128,1,8
160,224,143332,1,8
64,224,143741,1,10
64,128,144149,1,8
160,128,144557,1,8
224,128,144761,1,8
288,128,144965,1,8
384,128,145373,1,10
384,128,145781,1,10
372,289,146394,5,8
328,314,146598,1,8
282,335,146802,1,8
232,336,147006,1,8
185,319,147210,1,8
146,287,147455,2,0,B|225:224|289:224|374:288,1,250
160,96,148643,5,0
256,128,149051,1,8
352,128,149459,1,0
320,224,149852,2,8,B|160:224,1,150
170,224,150465,1,0
256,192,150707,12,0,156394
256,192,165373,6,8,B|256:64,1,100
256,192,165730,6,8,B|128:192,1,100
256,192,166088,6,8,B|256:320,1,100
256,192,166496,6,4,B|416:192|480:352,1,275
