osu file format v9

[General]
AudioFilename: SOUND HOLIC - Earthquake Super Shock.mp3
AudioLeadIn: 3000
PreviewTime: 50415
Countdown: 0
SampleSet: Soft
StackLeniency: 0.7
Mode: 0
LetterboxInBreaks: 1

[Editor]
Bookmarks: 24808,41197,78186,94386,116329,138957,148643,158757,170586,182929
DistanceSpacing: 1
BeatDivisor: 4
GridSize: 8

[Metadata]
Title:Earthquake Super Shock
Artist:SOUND HOLIC
Creator:Nekoo[]
Version:Hard
Source:Touhou
Tags:Hinanawi Tenshi Nana Takahashi

[Difficulty]
HPDrainRate:6
CircleSize:4
OverallDifficulty:6
ApproachRate:7
SliderMultiplier:1.6
SliderTickRate:1

[Events]
//Background and Video events
0,0,"BGEqss.jpg"
//Break Periods
2,4157,5800
2,9643,11286
2,15129,16772
2,20614,22257
2,26099,27743
2,91929,93572
2,138557,148429
//Storyboard Layer 0 (Background)
//Storyboard Layer 1 (Fail)
//Storyboard Layer 2 (Pass)
//Storyboard Layer 3 (Foreground)
//Storyboard Sound Samples
//Background Colour Transformations
3,100,163,162,255

[TimingPoints]
1215,342.857142857143,4,2,0,70,1,0
6529,-100,4,1,1,50,0,0
12015,-100,4,2,0,70,0,0
28472,-100,4,1,1,70,0,0
61557,-100,4,1,1,70,0,1
80757,-100,4,1,1,70,0,0
116415,-100,4,1,1,70,0,1
135615,-100,4,1,1,70,0,0
149157,-200,4,2,0,70,0,0
160129,-100,4,2,0,70,0,0
168443,-100,4,1,1,70,0,0
182243,-100,4,1,1,70,0,1
206929,-100,4,1,1,70,0,0

[Colours]
Combo1 : 198,102,190
Combo2 : 116,69,167
Combo3 : 94,125,234

[HitObjects]
104,192,1215,1,6
112,200,1300,2,0,B|184:256,1,80,0|2
280,312,1729,2,0,B|328:320|360:304|384:264,2,120,2|2|2
304,232,2415,1,0
368,184,2586,5,6
376,176,2672,2,0,B|448:120,1,80,0|2
328,80,3100,2,0,B|280:88|248:72|224:32,2,120,2|2|2
328,80,3786,1,2
328,80,3957,1,6
96,120,6700,6,0,B|96:176,1,40,12|0
96,240,6957,2,0,B|112:280|144:304|192:304,2,120
208,208,7729,2,0,B|288:192,1,80
256,120,8072,6,0,B|288:64,1,40,12|0
352,64,8329,2,0,B|391:47|431:52|465:86,2,120
376,184,9100,2,0,B|392:264,1,80
391,262,9443,1,12
64,192,12186,5,6
72,200,12272,2,0,B|104:224|152:224,1,80,0|2
152,224,12529,2,0,B|200:208|240:232,1,80,0|2
240,232,12786,2,0,B|288:248|336:224,1,80,0|2
328,224,13043,2,0,B|368:200|416:208,1,80,0|2
416,208,13300,2,0,B|448:240,2,40,0|2|0
416,200,13557,5,6
416,192,13643,2,0,B|416:112,1,80,0|2
408,104,13900,2,0,B|368:80|320:96,1,80,0|2
328,96,14157,2,0,B|296:128|248:112,1,80,0|2
248,112,14415,2,0,B|200:96|152:120,1,80,0|2
160,120,14672,2,0,B|128:152,3,40,0|2|0|6
408,80,17672,5,6
404,87,17757,2,0,B|356:159,1,80,0|2
288,248,18186,2,0,B|256:288|216:296|176:288,2,120,2|2|2
216,208,18872,1,2
144,168,19043,6,0,B|96:136,1,40,6|0
24,56,19386,2,0,B|144:56,2,120,2|2|0
24,136,20072,2,0,B|24:184,4,40,2|0|2|0|6
256,312,23157,5,6
256,304,23243,2,0,B|256:216,1,80,0|2
144,256,23672,1,2
144,136,23929,1,2
256,88,24186,2,0,B|256:144,5,40,2|0|2|0|6|0
376,136,24872,5,2
376,256,25129,1,2
256,224,25386,1,0
256,224,25557,2,0,B|256:280,4,40,2|0|2|0|6
56,64,28643,6,0,B|88:88,1,40,12|0
88,208,28986,2,0,B|88:328,2,120
160,248,29672,2,0,B|192:272,5,40,8|0|8|0|12|0
288,336,30357,6,0,B|328:360|328:360|400:360,2,120
352,280,31043,2,0,B|408:280,4,40,8|0|8|0|12
408,48,31900,6,0,B|392:88,2,40,8|0|8
472,96,32243,2,0,B|480:136,2,40,8|0|8
408,48,32586,1,0
328,48,32757,6,0,B|280:32,3,40,8|0|0|0
290,35,33100,2,0,B|248:48,3,40
251,46,33443,2,0,B|208:32,3,40
213,33,33786,2,0,B|176:48,3,40
176,47,34129,6,0,B|136:32,1,40,12|0
48,112,34472,2,0,B|48:232,2,120
120,136,35157,2,0,B|160:151,5,40,8|0|8|0|12|0
272,192,35843,6,0,B|304:232|344:240|384:232,2,120
272,112,36529,2,0,B|272:64,4,40,8|0|8|0|12
40,40,37386,5,8
40,40,37557,1,0
40,40,37729,1,8
192,88,38072,2,0,B|272:112,1,80,8|8
304,184,38415,2,0,B|384:160,1,80,0|8
380,161,38929,1,8
224,168,39272,1,8
56,224,39615,5,12
96,296,39786,1,8
160,248,39957,1,0
240,264,40129,1,8
312,296,40300,2,0,B|384:336,1,80,8|0
408,256,40643,2,0,B|464:224|464:224|464:112,1,160,8|0
464,128,41500,1,8
232,72,42015,1,8
56,88,42357,6,0,B|64:136|24:160,1,80,12|8
104,192,42700,2,0,B|80:232|112:272,1,80,0|8
168,320,43043,2,0,B|208:368|264:368|304:320,1,160,8|8
236,276,43557,1,8
264,200,43729,6,0,B|288:120,1,80,12|0
368,136,44072,2,0,B|440:88,1,80,8|0
464,168,44415,2,0,B|464:296,2,120,8|8|8
464,88,45100,5,12
464,168,45272,1,8
464,88,45443,1,0
392,48,45615,1,8
312,48,45786,2,0,B|200:48,1,80,8|0
160,80,46129,2,0,B|125:113|125:113|57:112|57:112|17:151,2,160,8|0|0
160,80,46986,1,8
80,216,47329,2,0,B|256:216,1,160,8|0
304,168,47843,6,0,B|368:112,1,80,12|8
424,168,48186,2,0,B|504:168,1,80,0|8
472,240,48529,2,0,B|432:296|432:296|328:296,1,160,0|0
264,296,49043,5,8
112,248,49386,1,8
64,96,49729,1,8
136,128,49900,2,0,B|184:152,8,40,8|0|0|0|0|0|0|0|12
272,48,50929,5,0
432,72,51272,1,8
480,224,51615,1,0
400,360,51957,1,8
128,192,52643,6,0,B|176:176|176:128,1,80,8|8
256,136,52986,2,0,B|296:112|336:128,1,80,0|8
336,208,53329,2,0,B|397:197|425:148|404:90,2,160,12|0|8
336,208,54357,1,0
336,208,54700,1,8
16,192,55386,2,0,B|56:192,8,40,0|0|0|0|0|0|0|0|12
112,64,56415,5,0
256,128,56757,1,8
400,64,57100,1,0
440,128,57272,2,0,B|488:184|408:224|456:280,1,160,8|0
454,278,57786,1,0
304,336,58129,2,0,B|144:336,1,160,8|8
144,336,58643,1,0
144,336,58815,5,12
24,40,59500,1,12
256,264,60186,6,0,B|280:208|232:176|264:128,2,120,12|12|12
256,264,60872,1,4
320,312,61043,2,0,B|480:312,1,160
512,240,61557,6,2,B|352:240,1,160,6|8
376,160,62072,2,2,B|208:160,1,160,2|0
136,160,62586,1,10
64,128,62757,1,0
32,56,62929,1,2
32,216,63272,1,8
152,320,63615,6,0,B|200:320|232:352,1,80,2|2
272,280,63957,2,0,B|320:280|344:240,1,80,8|2
416,219,64300,2,2,B|385:164|330:154|282:193,2,160,6|8|2
416,56,65329,2,0,B|385:110|330:120|282:81,2,160,8|2|8
416,56,66357,1,0
200,80,66700,6,0,B|120:80,1,80,10|0
64,136,67043,2,2,B|96:192|40:240|64:296,2,160,6|8|0
192,240,68072,2,0,B|256:288,1,80,10|0
304,224,68415,2,2,B|360:264|360:264|464:264,2,160,2|10|2
304,224,69443,1,10
264,72,69786,6,0,B|392:176|392:176|480:176,2,240,4|4|12
240,152,70986,2,0,B|184:104|184:104|96:104,1,160
72,176,71500,6,0,B|158:176|158:176|214:224,1,160,8|0
56,264,72186,2,0,B|136:264,1,80,8|0
192,320,72529,6,2,B|240:360|240:360|344:360,3,160,6|8|2|8
416,216,73900,2,2,B|381:249|381:249|313:248|313:248|273:287,1,160,2|8
281,278,74415,1,2
280,40,74929,1,10
144,120,75272,6,2,B|144:280,1,160,2|8
72,320,75786,2,2,B|72:152,1,160,2|0
72,80,76300,1,10
144,40,76472,1,0
216,80,76643,2,2,B|272:112|272:112|376:112,2,160,2|8|2
256,232,77672,5,10
256,312,77843,1,0
323,268,78015,2,2,B|282:219|227:218|186:265,1,160,6|8
186,346,78529,2,2,B|186:178,1,160,2|0
112,152,79043,2,2,B|112:312,2,160,10|6|10
256,72,80072,1,2
392,152,80415,1,8
392,152,80586,1,2
256,192,80757,12,12,83500
120,192,84015,6,0,B|48:96,2,120,0|0|8
144,272,84700,1,8
224,288,84872,6,0,B|280:296,1,40,12|0
344,304,85129,1,0
424,216,85386,2,0,B|456:192|472:152|464:104,2,120,0|0|8
416,216,85986,2,0,B|368:232,3,40,0|8|0|12
176,96,86757,6,0,B|176:40,2,40,8|0|8
120,152,87100,2,0,B|88:112,2,40,8|0|8
168,216,87443,1,0
248,216,87615,6,0,B|288:216,3,40,8|0|0|0
288,216,87957,2,0,B|320:176,3,40
312,184,88300,2,0,B|352:184,3,40
352,184,88643,2,0,B|384:224,3,40
376,216,88986,6,0,B|376:264,1,40,12|0
336,328,89243,1,0
216,328,89500,2,0,B|96:328,2,120,0|0|8
200,248,90186,1,8
200,168,90357,5,12
208,160,90443,2,0,B|248:136|240:80,1,80
352,48,90872,2,0,B|368:88|416:104|456:96,2,120,0|0|8
352,48,91557,1,8
352,48,91729,1,12
40,48,94472,6,0,B|40:128,1,80,12|8
120,112,94815,2,0,B|184:168,1,80,0|8
120,216,95157,2,0,B|120:304,1,80,8|0
200,288,95500,2,0,B|256:336|256:336|352:336,1,160,8|0
342,336,96357,1,8
464,232,96700,2,0,B|296:232,1,160,8|0
224,232,97215,5,12
224,152,97386,1,8
288,104,97557,1,0
368,104,97729,1,8
328,32,97900,2,0,B|168:32,1,160,8|8
168,32,98415,1,8
104,80,98586,6,0,B|80:120|32:120,1,80,12|0
72,192,98929,2,0,B|56:272,1,80,8|0
120,320,99272,2,0,B|144:200,2,120,8|8|8
200,320,99957,5,12
256,264,100129,1,8
328,304,100300,1,0
408,288,100472,1,8
328,304,100643,1,8
408,288,100815,1,0
464,232,100986,2,0,B|512:184|512:184|512:80,1,160,8|0
512,91,101843,1,8
512,91,102186,1,8
280,40,102700,6,0,B|248:80|200:64,1,80,12|8
208,144,103043,2,0,B|160:160|144:208,1,80,0|8
76,228,103386,2,0,B|110:281|165:289|211:247,1,160,8|0
211,247,103900,5,8
360,304,104243,1,8
448,176,104586,1,8
472,96,104757,2,0,B|480:56,8,40,8|0|0|0|0|0|0|0|12
312,72,105786,6,0,B|136:72,1,160,0|8
24,168,106472,2,0,B|184:168,1,160,0|8
456,336,107500,6,0,B|456:248,1,80,8|8
376,280,107843,2,0,B|312:224,1,80,0|8
256,280,108186,2,0,B|96:280,1,160,12|0
176,136,108872,2,0,B|344:136,1,160,8|0
336,136,109557,1,8
56,296,110243,6,0,B|16:336|16:336,8,40,0|0|0|0|0|0|0|0|12
168,184,111272,1,0
280,296,111615,1,8
432,240,111957,1,0
432,240,112129,1,8
80,56,112986,6,0,B|128:88|128:88|240:88,1,160,8|8
230,88,113500,1,0
312,88,113672,5,12
104,328,114357,1,12
424,344,115043,6,0,B|384:304|384:304|320:304,2,120,12|12|12
424,344,115729,1,4
464,272,115900,2,0,B|464:112,1,160
408,56,116415,6,2,B|368:96|368:96|256:96,1,160,6|8
288,176,116929,2,2,B|120:176,1,160,2|0
48,176,117443,1,10
24,256,117615,1,0
88,304,117786,1,2
248,304,118129,1,8
400,264,118472,6,0,B|448:248|440:192,1,80,2|2
441,122,118815,2,0,B|447:77|399:61,1,80,8|2
320,56,119157,2,2,B|152:56,1,160,6|8
40,160,119843,2,2,B|200:160,2,160,2|8|2
480,352,121557,5,10
480,192,121900,2,2,B|432:240|432:240|336:240,1,160,6|8
339,240,122586,1,0
176,240,122929,2,2,B|96:240,2,80,10|0|2
192,80,123615,2,2,B|232:120|296:120|336:80,1,160,10|2
336,80,124300,1,10
256,216,124643,6,0,B|296:264|208:312|256:368,1,160,4|8
328,328,125157,2,0,B|488:328,1,160,4|0
464,248,125672,1,12
464,248,125843,2,0,B|304:248,1,160
328,168,126357,6,0,B|168:168,2,160,8|0|8
328,168,127215,1,0
328,168,127386,5,6
216,56,127729,1,8
152,200,128072,1,2
16,288,128415,1,8
168,320,128757,2,2,B|336:320,1,160,2|8
328,320,129272,1,2
464,120,129786,5,10
320,48,130129,2,2,B|285:81|285:81|217:80|217:80|177:119,1,160,2|8
144,40,130643,2,2,B|32:160,1,160,2|0
104,200,131157,2,2,B|40:264,1,80,10|0
88,328,131500,2,2,B|200:208,1,160,2|8
232,288,132015,2,2,B|296:224,1,80,2|2
256,72,132529,5,10
256,72,132700,1,0
188,115,132872,2,2,B|228:163|284:163|324:115,1,160,6|8
324,114,133386,1,2
188,311,133900,2,2,B|228:263|284:263|324:311,2,160,10|6|10
188,311,134757,1,0
120,264,134929,2,0,B|40:216,1,80,2|2
104,160,135272,2,0,B|88:72,1,80,8|2
256,192,135615,12,4,138357
64,152,149329,6,0,B|64:200,1,40,6|2
104,192,149672,2,0,B|136:224,1,40,0|2
160,192,150015,2,0,B|208:192,1,40,2|0
240,192,150357,1,2
296,248,150700,5,6
312,288,150872,1,2
352,304,151043,1,0
392,288,151215,1,2
408,248,151386,1,2
392,208,151557,1,0
408,168,151729,1,2
448,96,152072,6,0,B|472:48,2,40,6|2|0
416,72,152586,2,0,B|392:24,1,40,2|2
368,64,152929,2,0,B|328:56,1,40,0|2
248,64,153443,6,0,B|208:72,1,40,6|2
192,104,153786,2,0,B|152:136,1,40,0|2
176,168,154129,2,0,B|168:208,1,40,2|0
160,248,154472,1,2
96,296,154815,5,6
88,256,154986,2,0,B|80:216,1,40,2|0
40,216,155329,1,2
32,176,155500,2,0,B|24:136,1,40,2|0
16,96,155843,1,2
80,48,156186,5,6
112,72,156357,1,2
152,72,156529,1,0
184,48,156700,1,2
224,32,156872,1,2
264,32,157043,1,0
296,48,157215,1,2
256,192,157386,12,0,159957
40,344,160300,6,0,B|40:256,1,80,6|0
112,224,160643,2,0,B|152:152,1,80,2|0
232,160,160986,2,0,B|312:120,1,80,2|0
376,160,161329,2,0,B|464:160,1,80,2|0
456,240,161672,6,0,B|368:240,1,80,2|0
376,160,162015,2,0,B|304:120,1,80,2|0
232,160,162357,2,0,B|192:80,1,80,2|0
120,96,162700,2,0,B|120:8,1,80,2|0
39,16,163043,2,0,B|39:184,1,160,6|0
120,320,163729,2,0,B|120:152,1,160,6|0
272,208,164415,6,0,B|336:272,2,80,6|0|0
216,144,164929,2,0,B|152:80,2,80,0|6|0
296,120,165443,2,0,B|360:56,1,80,4|0
408,128,165786,6,0,B|432:168|480:176,1,80,6|0
432,248,166129,2,0,B|432:296|384:312,1,80,2|0
320,352,166472,2,0,B|296:312|248:312,1,80,2|0
208,248,166815,2,0,B|176:280|128:256,1,80,2|0
88,192,167157,6,0,B|40:120,1,80,2|0
88,56,167500,2,0,B|136:128,1,80,2|0
176,56,167843,2,0,B|224:128,1,80,2|0
304,112,168186,2,0,B|256:40,1,80,2|0
259,45,168529,5,8
440,312,169215,1,8
120,312,169900,2,0,B|152:288,3,40,8|0|0|0
152,288,170243,2,0,B|184:264,3,40
184,264,170586,2,0,B|152:240,3,40
152,240,170929,2,0,B|120:216,3,40
120,216,171272,6,0,B|56:168|56:168|120:120,1,160,12|0
272,168,171957,2,0,B|336:120|336:120|272:72,1,160,8|0
432,72,172643,1,8
432,320,173329,6,0,B|368:264,1,80,8|8
312,320,173672,2,0,B|216:320,1,80,0|8
160,288,174015,2,0,B|112:248|112:248|112:128,2,160,12|0|8
24,208,175043,2,0,B|24:48,1,160,0|8
344,40,176072,5,8
408,88,176243,1,8
344,40,176415,1,0
408,88,176586,1,8
448,160,176757,2,0,B|448:336,2,160,12|0|8
368,296,177786,1,0
368,296,177957,2,0,B|368:200|368:200|320:136,1,160,8|0
96,80,178815,6,0,B|136:128|192:128|232:80,1,160,8|8
232,79,179329,2,0,B|232:160,1,80,0|12
232,159,180186,1,12
232,159,180872,5,12
272,272,181129,1,12
384,240,181386,1,12
384,240,181557,1,4
384,160,181729,2,0,B|384:328,1,160
456,288,182243,6,2,B|456:128,1,160,6|8
432,48,182757,2,2,B|384:80|384:80|280:80,1,160,2|0
200,80,183272,1,10
152,144,183443,1,0
120,72,183615,1,2
120,232,183957,1,8
256,320,184300,6,0,B|256:232,1,80,2|2
328,272,184643,2,0,B|400:224,1,80,8|2
464,264,184986,2,2,B|464:104,1,160,6|8
328,16,185672,2,2,B|328:184,1,160,2|8
328,176,186357,1,2
48,48,187386,5,10
48,48,187729,2,2,B|48:216,1,160,6|8
120,248,188243,2,0,B|120:88,1,160
192,48,188757,6,0,B|192:136,1,80,10|0
272,104,189100,2,2,B|328:152|328:152|416:152,2,160,2|10|2
272,104,190129,1,10
368,232,190472,2,0,B|332:312|211:312|176:232,2,240,4|4|12
440,272,191672,2,0,B|408:328|352:360|296:360,1,160
232,359,192186,6,0,B|192:359|136:327|104:271,1,160,8|0
24,136,192872,2,0,B|48:176|96:176,1,80,8|0
96,96,193215,6,2,B|144:56|144:56|248:56,2,160,2|8|2
248,136,194243,2,0,B|296:176|296:176|400:176,1,160,8|2
393,176,195100,1,2
248,368,195615,5,10
248,208,195957,2,2,B|213:241|213:241|145:240|145:240|105:279,1,160,2|8
56,216,196472,2,2,B|184:96,1,160,2|0
96,72,196986,2,2,B|160:8,1,80,10|0
232,40,197329,2,2,B|288:80|288:80|392:80,1,160,2|8
448,120,197843,1,2
448,120,198015,2,2,B|448:288,1,160,2|10
384,328,198529,5,0
320,280,198700,2,2,B|280:328|224:328|184:280,1,160,6|8
184,360,199215,2,2,B|184:200,1,160,2|0
104,224,199729,2,2,B|104:64,2,160,10|6|10
200,96,200757,2,0,B|240:120|280:96,1,80,2|2
328,160,201100,2,0,B|360:128|400:128,1,80,8|2
256,192,201443,12,4,203500
128,192,203843,6,2,B|136:240|184:256,1,80,10|0
168,336,204186,2,2,B|230:338|267:296|259:234,1,160,6|8
208,176,204700,2,2,B|260:142|314:160|337:218,1,160,2|0
408,179,205215,2,2,B|433:235|409:286|348:301,2,160,10|6|10
360,112,206072,2,0,B|312:104|312:56,1,80,0|2
232,80,206415,2,0,B|184:64|152:96,1,80,2|8
156,91,206757,1,2
256,192,206929,12,4,209672
