osu file format v10

[General]
AudioFilename: drivemylife.mp3
AudioLeadIn: 0
PreviewTime: 96495
Countdown: 0
SampleSet: Normal
StackLeniency: 0.7
Mode: 0
LetterboxInBreaks: 0
EpilepsyWarning: 1

[Editor]
Bookmarks: 49789,61286,120208,131705,156136,179130,190627,202124,215058,227992,250986
DistanceSpacing: 1
BeatDivisor: 4
GridSize: 4

[Metadata]
Title:Drive My Life
TitleUnicode:Drive My Life
Artist:SOUND HOLIC
ArtistUnicode:SOUND HOLIC
Creator:Scorpiour
Version:TuEasy
Source:Touhou
Tags:tutuhaha Flower Firce777 sherrie__fay Regou ZUN Nana Takahashi Euro Beat Perfect Cherry Blossom Saigyouji Yuyuko PCB TH07 Border of Life
BeatmapID:178905
BeatmapSetID:57950

[Difficulty]
HPDrainRate:2
CircleSize:3
OverallDifficulty:2
ApproachRate:3
SliderMultiplier:1.12
SliderTickRate:2

[Events]
//Background and Video events
0,0,"bg.jpg"
//Break Periods
2,120408,130265
2,179330,189187
//Storyboard Layer 0 (Background)
//Storyboard Layer 1 (Fail)
//Storyboard Layer 2 (Pass)
//Storyboard Layer 3 (Foreground)
//Storyboard Sound Samples
//Background Colour Transformations
3,100,0,0,0

[TimingPoints]
38292,359.281437125748,4,1,1,100,1,0
49789,-100,4,1,1,70,0,0
97214,-100,4,1,2,75,0,1
120208,-100,4,1,1,70,0,0
156136,-100,4,1,2,75,0,1
179130,-100,4,1,1,70,0,0
202124,-100,4,1,2,70,0,0
212902,-100,4,1,1,70,0,0
227992,-100,4,1,2,75,0,1
250986,-100,4,1,1,70,0,0

[Colours]
Combo1 : 160,160,255
Combo2 : 255,128,255
Combo3 : 160,240,240
Combo4 : 255,192,255
SliderBorder : 210,210,210

[HitObjects]
180,76,49789,2,0,B|120:188,1,112,4|0,0:0|0:0,0:0:0
96,284,50507,2,0,B|184:248|264:312,1,168,8|0,0:0|0:0,0:0:0
364,280,51405,1,0,0:0:0
372,168,51765,2,0,B|240:168,1,112
160,216,52483,6,0,B|136:152|164:84|220:68,1,168
320,60,53381,2,0,B|492:60,2,168,8|0|0,0:0|0:0|0:0,0:0:0
256,152,54818,1,8,0:0:0
256,152,55178,1,0,0:0:0
160,96,55537,6,0,B|136:148|160:212,1,112,4|0,0:0|0:0,0:0:0
80,288,56256,2,0,B|156:344|240:284,1,168,8|0,0:0|0:0,0:0:0
328,224,57154,1,0,0:0:0
372,120,57513,2,0,B|240:120,1,112
168,184,58232,6,0,B|76:152|76:44,1,168
184,28,59130,2,0,B|368:28,1,168,8|0,0:0|0:0,0:0:0
256,292,60567,1,0,0:0:0
256,292,60926,1,0,0:0:0
144,308,61286,6,0,B|136:240|188:196|188:196|124:116,1,224,4|0,0:0|0:0,0:0:0
196,32,62363,1,8,0:0:0
284,104,62723,2,0,B|412:136|488:16,2,224,0|0|0,0:0|0:0|0:0,0:0:0
240,208,64519,2,0,B|156:300,2,112,8|0|8,0:0|0:0|0:0,0:0:0
296,304,65597,6,0,B|344:272|352:204|352:204|468:204,1,224,0|0,0:0|0:0,0:0:0
484,96,66675,1,8,0:0:0
372,80,67034,2,0,B|128:80,1,224,0|0,0:0|0:0,0:0:0
84,172,68112,1,8,0:0:0
48,280,68471,6,0,B|116:292|168:248,1,112,0|8,0:0|0:0,0:0:0
256,212,69190,1,0,0:0:0
256,212,69549,1,8,0:0:0
300,316,69908,6,0,B|360:280|360:220|360:220|428:208|436:136,2,224,0|8|0,0:0|0:0|0:0,0:0:0
188,332,71705,2,0,B|136:352|72:332,2,112,0|0|8,0:0|0:0|0:0,0:0:0
116,244,72783,6,0,B|56:208|44:136,1,112,4|8,0:0|0:0,0:0:0
104,60,73501,1,0,0:0:0
104,60,73860,1,8,0:0:0
168,152,74220,2,0,B|280:148|352:32,2,224,0|8|0,0:0|0:0|0:0,0:0:0
196,260,76016,6,0,B|256:260|312:216,2,112,8|0|8,0:0|0:0|0:0,0:0:0
256,356,77094,2,0,B|376:336|424:216,1,224,0|0,0:0|0:0,0:0:0
392,112,78172,1,8,0:0:0
300,44,78531,6,0,B|176:44,2,112,0|8|0,0:0|0:0|0:0,0:0:0
256,148,79609,1,8,0:0:0
212,252,79968,2,0,B|344:252,1,112,0|8,0:0|0:0,0:0:0
376,352,80687,2,0,B|496:352,1,112,0|8,0:0|0:0,0:0:0
456,244,81405,6,0,B|488:100|344:56,2,224,0|8|0,0:0|0:0|0:0,0:0:0
348,272,83202,1,8,0:0:0
256,208,83561,1,0,0:0:0
256,208,83920,1,8,0:0:0
192,300,84280,6,0,B|132:244|152:140,2,168,4|0|0,0:0|0:0|0:0,0:0:0
300,332,85717,2,0,B|364:328|396:280,1,112,0|8,0:0|0:0,0:0:0
452,184,86435,2,0,B|448:120|380:84,1,112,0|8,0:0|0:0,0:0:0
284,100,87154,6,0,B|232:24|120:32,2,168,0|4|0,0:0|0:0|0:0,0:0:0
196,168,88591,2,0,B|72:168,1,112,0|8,0:0|0:0,0:0:0
128,272,89309,2,0,B|256:272,1,112,0|8,0:0|0:0,0:0:0
320,352,90028,6,0,B|432:312|428:172,2,224,4|8|0,0:0|0:0|0:0,0:0:0
256,260,91824,1,8,0:0:0
152,216,92184,2,0,B|172:160|240:144,1,112,0|8,0:0|0:0,0:0:0
312,68,92902,6,0,B|360:148|472:144,2,168,0|0|8,0:0|0:0|0:0,0:0:0
204,32,94339,2,0,B|128:84|128:180,2,168,0|0|8,0:0|0:0|0:0,0:0:0
256,132,95777,1,4,0:0:0
256,132,97214,6,0,B|432:132,2,168,4|0|8,0:0|0:0|0:0,0:0:0
256,244,98651,2,0,B|80:244,2,168,0|0|8,0:0|0:0|0:0,0:0:0
304,348,100088,6,0,B|356:320|368:252,1,112,0|8,0:0|0:0,0:0:0
288,180,100806,2,0,B|224:116|256:20,2,168,0|0|8,0:0|0:0|0:0,0:0:0
336,208,102064,2,0,B|376:128|484:120,1,168,4|8,0:0|0:0,0:0:0
468,232,102962,6,0,B|428:312|332:318,2,168,0|0|8,0:0|0:0|0:0,0:0:0
471,121,104399,2,0,B|380:108|344:8,2,168,0|0|8,0:0|0:0|0:0,0:0:0
376,176,105836,6,0,B|256:176,1,112,0|8,0:0|0:0,0:0:0
152,188,106555,2,0,B|152:132|92:88,1,112,0|8,0:0|0:0,0:0:0
48,116,107094,2,0,B|-20:284,1,168,0|8,0:0|0:0,0:0:0
72,344,107992,2,0,B|136:344|180:292|180:296,1,112,0|8,0:0|0:0,0:0:0
180,188,108711,6,0,B|200:100|296:64,2,168,4|0|8,0:0|0:0|0:0,0:0:0
288,224,110148,2,0,B|468:224,2,168,0|0|8,0:0|0:0|0:0,0:0:0
204,300,111585,5,0,0:0:0
204,300,111944,1,8,0:0:0
112,236,112303,2,0,B|64:160|96:64,2,168,0|0|8,0:0|0:0|0:0,0:0:0
164,212,113561,2,0,B|208:136|316:136,1,168,0|8,0:0|0:0,0:0:0
356,236,114459,6,0,B|528:236,2,168,4|0|8,0:0|0:0|0:0,0:0:0
320,340,115896,2,0,B|240:288|256:180,2,168,0|0|8,0:0|0:0|0:0,0:0:0
208,340,117333,5,0,0:0:0
128,260,117693,1,8,0:0:0
108,148,118052,2,0,B|156:68|252:68,1,168
256,192,118681,12,4,120208,0:0:0
256,192,131705,5,4,0:0:0
256,192,132064,1,8,0:0:0
152,232,132423,2,0,B|132:172|168:116,1,112,0|8,0:0|0:0,0:0:0
264,72,133142,2,0,B|392:64|436:200,1,224
376,288,134220,1,8,0:0:0
284,352,134579,6,0,B|256:304|280:228,1,112,0|8,0:0|0:0,0:0:0
164,220,135297,2,0,B|152:128|48:84,2,168,0|0|8,0:0|0:0|0:0,0:0:0
236,132,136735,2,0,B|356:72|464:152,1,224
400,244,137812,5,8,0:0:0
304,304,138172,1,0,0:0:0
192,320,138531,1,8,0:0:0
84,296,138890,2,0,B|60:240|80:180,1,112,0|8,0:0|0:0,0:0:0
128,88,139609,2,0,B|188:160|300:144,2,168,0|0|8,0:0|0:0|0:0,0:0:0
232,48,141046,6,0,B|360:24|448:132,1,224
412,228,142124,1,8,0:0:0
348,320,142483,2,0,B|284:320,2,56,0|0|8,0:0|0:0|0:0,0:0:0
280,228,143202,6,0,B|252:136|140:120,1,168,4|0,0:0|0:0,0:0:0
64,188,144100,2,0,B|8:232,1,56,0|8,0:0|0:0,0:0:0
112,284,144639,2,0,B|172:384|316:352,2,224,0|0|4,0:0|0:0|0:0,0:0:0
160,124,146615,6,0,B|288:124,1,112,4|4,0:0|0:0,0:0:0
304,232,147333,2,0,B|392:276|480:216,1,168,0|8,0:0|0:0,0:0:0
436,116,148232,1,0,0:0:0
436,116,148591,1,8,0:0:0
344,52,148950,6,0,B|228:4|120:64,1,224,4|0,0:0|0:0,0:0:0
64,152,150028,1,8,0:0:0
84,260,150387,2,0,B|168:352,2,112,0|8|0,0:0|0:0|0:0,0:0:0
184,212,151465,1,8,0:0:0
276,276,151824,6,0,B|368:272|424:184,1,168
488,108,152723,2,0,B|428:68,1,56,0|8,0:0|0:0,0:0:0
256,192,153262,12,4,154699,0:0:0
256,252,156136,6,0,B|80:252,2,168,4|0|8,0:0|0:0|0:0,0:0:0
256,140,157573,2,0,B|432:140,2,168,0|0|8,0:0|0:0|0:0,0:0:0
208,36,159010,6,0,B|156:64|144:132,1,112,0|8,0:0|0:0,0:0:0
224,204,159729,2,0,B|288:268|256:364,2,168,0|0|8,0:0|0:0|0:0,0:0:0
176,176,160986,2,0,B|136:256|28:264,1,168,0|8,0:0|0:0,0:0:0
44,152,161884,6,0,B|84:72|180:66,2,168,4|0|8,0:0|0:0|0:0,0:0:0
41,263,163321,2,0,B|132:276|168:376,2,168,0|0|8,0:0|0:0|0:0,0:0:0
136,208,164759,6,0,B|256:208,1,112,0|8,0:0|0:0,0:0:0
360,196,165477,2,0,B|360:252|420:296,1,112,0|8,0:0|0:0,0:0:0
464,268,166016,2,0,B|532:100,1,168,0|8,0:0|0:0,0:0:0
440,40,166914,2,0,B|376:40|332:92,1,112,0|8,0:0|0:0,0:0:0
332,196,167633,6,0,B|312:284|216:320,2,168,4|0|8,0:0|0:0|0:0,0:0:0
224,160,169070,2,0,B|44:160,2,168,0|0|8,0:0|0:0|0:0,0:0:0
308,84,170507,5,0,0:0:0
308,84,170866,1,8,0:0:0
400,148,171226,2,0,B|448:224|416:320,2,168,0|0|8,0:0|0:0|0:0,0:0:0
348,172,172483,2,0,B|304:248|196:248,1,168,0|8,0:0|0:0,0:0:0
156,148,173381,6,0,B|-16:148,2,168,4|0|8,0:0|0:0|0:0,0:0:0
192,44,174818,2,0,B|272:96|256:204,2,168,0|0|8,0:0|0:0|0:0,0:0:0
304,44,176256,5,0,0:0:0
384,124,176615,1,8,0:0:0
404,236,176974,2,0,B|356:316|260:316,1,168
256,192,177603,12,4,179130,0:0:0
96,64,190627,6,0,B|56:108|64:180,1,112,4|0,0:0|0:0,0:0:0
60,280,191345,2,0,B|120:280,1,56
212,336,191884,2,0,B|308:336|356:224,1,168
256,180,192783,2,0,B|188:180,1,56
236,76,193321,6,0,B|300:24|412:56,1,168
432,156,194220,2,0,B|432:216,1,56
368,304,194759,2,0,B|192:300,1,168
108,236,195657,2,0,B|108:168,1,56
136,72,196196,6,0,B|216:72,1,56
248,168,196735,2,0,B|344:176|404:92,1,168
452,200,197633,2,0,B|452:272,1,56
368,332,198172,2,0,B|288:288|200:320,1,168
116,252,199070,6,0,B|44:252,1,56
84,144,199609,2,0,B|116:60|220:48,1,168
216,160,200507,2,0,B|268:228|376:216,1,168
436,128,201405,2,0,B|480:80,1,56
372,40,201944,6,0,B|312:40,1,56
256,136,202483,1,8,0:0:0
172,212,202842,2,0,B|120:288|16:296,1,168
48,184,203741,2,0,B|48:120,1,56,0|8,0:0|0:0,0:0:0
136,56,204280,2,0,B|136:124,1,56
240,152,204818,6,0,B|328:152|380:64,1,168,0|8,0:0|0:0,0:0:0
464,140,205717,2,0,B|464:208,1,56
420,300,206256,2,0,B|360:236|248:264,1,168
156,228,207154,2,0,B|76:228,1,56,8|0,0:0|0:0,0:0:0
104,116,207693,6,0,B|156:44|276:60,1,168,0|8,0:0|0:0,0:0:0
332,136,208591,2,0,B|400:136,1,56
376,248,209130,2,0,B|336:332|236:340,1,168,0|8,0:0|0:0,0:0:0
144,288,210028,2,0,B|72:288,1,56
48,184,210567,6,0,B|128:144|136:24,1,168,0|8,0:0|0:0,0:0:0
244,32,211465,2,0,B|316:32,1,56
300,144,212004,2,0,B|376:196|464:164,1,168
452,276,212902,2,0,B|408:328,1,56
256,192,213621,12,4,215058,0:0:0
256,192,215777,5,0,0:0:0
32,196,216495,2,0,B|28:64|164:8,1,224
356,88,217932,6,0,B|452:96|488:188,2,168,4|0|0,0:0|0:0|0:0,0:0:0
276,164,219369,2,0,B|192:260,1,112,0|8,0:0|0:0,0:0:0
184,360,220088,2,0,B|48:360,1,112,0|8,0:0|0:0,0:0:0
48,252,220806,6,0,B|28:128|144:48,1,224
172,164,221884,1,8,0:0:0
272,112,222244,2,0,B|392:160|496:76,1,224
396,16,223321,1,8,0:0:0
284,20,223681,2,0,B|116:20,2,168,0|0|8,0:0|0:0|0:0,0:0:0
256,192,225118,12,4,226555,0:0:0
256,252,227992,6,0,B|432:252,2,168,4|0|8,0:0|0:0|0:0,0:0:0
256,140,229429,2,0,B|80:140,2,168,0|0|8,0:0|0:0|0:0,0:0:0
304,36,230866,6,0,B|356:64|368:132,1,112,0|8,0:0|0:0,0:0:0
288,204,231585,2,0,B|224:268|256:364,2,168,0|0|8,0:0|0:0|0:0,0:0:0
336,176,232842,2,0,B|376:256|484:264,1,168,0|8,0:0|0:0,0:0:0
468,152,233741,6,0,B|428:72|332:66,2,168,4|0|8,0:0|0:0|0:0,0:0:0
471,263,235178,2,0,B|380:276|344:376,2,168,0|0|8,0:0|0:0|0:0,0:0:0
376,208,236615,6,0,B|256:208,1,112,0|8,0:0|0:0,0:0:0
152,196,237333,2,0,B|152:252|92:296,1,112,0|8,0:0|0:0,0:0:0
48,268,237872,2,0,B|-20:100,1,168,0|8,0:0|0:0,0:0:0
72,40,238771,2,0,B|136:40|180:92|180:88,1,112,0|8,0:0|0:0,0:0:0
180,196,239489,6,0,B|200:284|296:320,2,168,4|0|8,0:0|0:0|0:0,0:0:0
288,160,240926,2,0,B|468:160,2,168,0|0|8,0:0|0:0|0:0,0:0:0
204,84,242363,1,0,0:0:0
204,84,242723,1,8,0:0:0
112,148,243082,6,0,B|64:224|96:320,2,168,0|0|8,0:0|0:0|0:0,0:0:0
164,172,244339,2,0,B|208:248|316:248,1,168,0|8,0:0|0:0,0:0:0
356,148,245238,2,0,B|528:148,2,168,4|0|8,0:0|0:0|0:0,0:0:0
320,44,246675,2,0,B|240:96|256:204,2,168,0|0|8,0:0|0:0|0:0,0:0:0
208,44,248112,5,0,0:0:0
128,124,248471,1,8,0:0:0
108,236,248830,2,0,B|156:316|252:316,1,168
256,192,249459,12,4,250986,0:0:0
