osu file format v10

[General]
AudioFilename: drivemylife.mp3
AudioLeadIn: 0
PreviewTime: 96495
Countdown: 0
SampleSet: Normal
StackLeniency: 0.7
Mode: 0
LetterboxInBreaks: 0
EpilepsyWarning: 1

[Editor]
Bookmarks: 49789,61286,120208,131705,156136,179130,190627,202124,215058,227992,250986
DistanceSpacing: 1.4
BeatDivisor: 4
GridSize: 4

[Metadata]
Title:Drive My Life
TitleUnicode:Drive My Life
Artist:SOUND HOLIC
ArtistUnicode:SOUND HOLIC
Creator:Scorpiour
Version:Lunatic
Source:Touhou
Tags:tutuhaha Flower Firce777 sherrie__fay Regou ZUN Nana Takahashi Euro Beat Perfect Cherry Blossom Saigyouji Yuyuko PCB TH07 Border of Life
BeatmapID:184241
BeatmapSetID:57950

[Difficulty]
HPDrainRate:7
CircleSize:4
OverallDifficulty:8
ApproachRate:9
SliderMultiplier:1.92
SliderTickRate:2

[Events]
//Background and Video events
0,0,"bg.jpg"
//Break Periods
2,120408,130986
2,179330,189908
//Storyboard Layer 0 (Background)
//Storyboard Layer 1 (Fail)
//Storyboard Layer 2 (Pass)
//Storyboard Layer 3 (Foreground)
//Storyboard Sound Samples
//Background Colour Transformations
3,100,0,0,0

[TimingPoints]
38292,359.281437125748,4,1,1,100,1,0
95777,-100,4,1,1,53,0,0
95866,-100,4,1,1,56,0,0
95956,-100,4,1,1,58,0,0
96046,-100,4,1,1,61,0,0
96136,-100,4,1,1,64,0,0
96226,-100,4,1,1,67,0,0
96236,-100,4,1,1,70,0,0
96315,-100,4,1,1,73,0,0
96405,-100,4,1,1,76,0,0
96495,-100,4,1,1,79,0,0
96585,-100,4,1,1,82,0,0
96675,-100,4,1,1,85,0,0
96765,-100,4,1,1,88,0,0
96854,-100,4,1,1,91,0,0
96944,-100,4,1,1,94,0,0
97034,-100,4,1,1,97,0,0
97124,-100,4,1,1,100,0,0
97214,-100,4,1,2,100,0,1
120208,-100,4,1,1,100,0,0
154699,-100,4,1,1,53,0,0
154788,-100,4,1,1,56,0,0
154878,-100,4,1,1,58,0,0
154968,-100,4,1,1,61,0,0
155058,-100,4,1,1,64,0,0
155148,-100,4,1,1,67,0,0
155158,-100,4,1,1,70,0,0
155237,-100,4,1,1,73,0,0
155327,-100,4,1,1,76,0,0
155417,-100,4,1,1,79,0,0
155507,-100,4,1,1,82,0,0
155597,-100,4,1,1,85,0,0
155687,-100,4,1,1,88,0,0
155776,-100,4,1,1,91,0,0
155866,-100,4,1,1,94,0,0
155956,-100,4,1,1,97,0,0
156046,-100,4,1,1,100,0,0
156136,-100,4,1,2,100,0,1
179130,-100,4,1,1,100,0,0
202124,-133.333333333333,4,1,2,70,0,0
202842,-200,4,1,2,70,0,0
212902,-100,4,1,1,100,0,0
213621,-100,4,1,1,53,0,0
213710,-100,4,1,1,56,0,0
213800,-100,4,1,1,58,0,0
213890,-100,4,1,1,61,0,0
213980,-100,4,1,1,64,0,0
214070,-100,4,1,1,67,0,0
214080,-100,4,1,1,70,0,0
214159,-100,4,1,1,73,0,0
214249,-100,4,1,1,76,0,0
214339,-100,4,1,1,79,0,0
214429,-100,4,1,1,82,0,0
214519,-100,4,1,1,85,0,0
214609,-100,4,1,1,88,0,0
214698,-100,4,1,1,91,0,0
214788,-100,4,1,1,94,0,0
214878,-100,4,1,1,97,0,0
214968,-100,4,1,1,100,0,0
226555,-100,4,1,1,53,0,0
226644,-100,4,1,1,56,0,0
226734,-100,4,1,1,58,0,0
226824,-100,4,1,1,61,0,0
226914,-100,4,1,1,64,0,0
227004,-100,4,1,1,67,0,0
227014,-100,4,1,1,70,0,0
227093,-100,4,1,1,73,0,0
227183,-100,4,1,1,76,0,0
227273,-100,4,1,1,79,0,0
227363,-100,4,1,1,82,0,0
227453,-100,4,1,1,85,0,0
227543,-100,4,1,1,88,0,0
227632,-100,4,1,1,91,0,0
227722,-100,4,1,1,94,0,0
227812,-100,4,1,1,97,0,0
227902,-100,4,1,1,100,0,0
227992,-100,4,1,2,100,0,1
250986,-100,4,1,1,100,0,0

[Colours]
Combo1 : 160,160,255
Combo2 : 255,128,255
Combo3 : 160,240,240
Combo4 : 255,192,255
SliderBorder : 210,210,210

[HitObjects]
192,80,49789,6,0,B|152:32|60:32|20:80,2,192,4|8|0,0:0|0:0|0:0,0:0:0
264,168,50687,1,0,0:0:0
288,168,50777,1,0,0:0:0
312,168,50866,1,8,0:0:0
172,264,51046,1,0,0:0:0
440,256,51405,1,8,0:0:0
296,28,51765,1,0,0:0:0
312,296,52124,1,8,0:0:0
196,292,52303,1,0,0:0:0
48,192,52483,6,0,B|64:140|104:116|104:116|152:112|194:140,1,192,0|8,0:0|0:0,0:0:0
296,208,53022,1,8,0:0:0
396,136,53202,1,8,0:0:0
396,136,53291,1,0,0:0:0
396,136,53381,2,0,B|440:104|436:52,2,96,0|0|8,0:0|0:0|0:0,0:0:0
317,48,53920,2,0,B|252:48|208:124|235:189,2,192,0|8|0,0:0|0:0|0:0,0:0:0
415,106,54818,1,0,0:0:0
392,218,54998,1,0,0:0:0
392,218,55088,1,0,0:0:0
392,218,55178,1,0,0:0:0
279,230,55357,1,0,0:0:0
232,125,55537,6,0,B|292:106|368:116|411:162,2,192,4|8|0,0:0|0:0|0:0,0:0:0
124,176,56435,1,0,0:0:0
100,176,56525,1,0,0:0:0
76,176,56615,1,8,0:0:0
140,56,56794,2,0,B|188:20|276:20|321:58,1,192,0|8,0:0|0:0,0:0:0
440,256,57513,2,0,B|392:292|304:292|258:253,1,192,0|8,0:0|0:0,0:0:0
214,148,58052,1,0,0:0:0
322,110,58232,6,0,B|348:172|300:248|240:259,1,192,0|8,0:0|0:0,0:0:0
140,200,58771,2,0,B|92:188|44:199,1,96,8|0,0:0|0:0,0:0:0
88,308,59130,1,0,0:0:0
204,296,59309,1,0,0:0:0
224,284,59399,1,0,0:0:0
240,264,59489,1,8,0:0:0
348,224,59669,2,0,B|416:196|492:220|492:220|452:244,1,192
342,104,60387,2,0,B|314:62|313:18|313:18|222:86|256:192,1,288
256,340,61286,5,4,0:0:0
152,292,61465,1,0,0:0:0
152,292,61555,1,0,0:0:0
152,292,61645,2,0,B|112:256|116:206,1,96,8|0,0:0|0:0,0:0:0
232,216,62004,2,0,B|280:188|287:141,2,96,0|0|8,0:0|0:0|0:0,0:0:0
156,128,62543,2,0,B|104:140|64:112|64:112|76:60|125:43,1,192
256,40,63082,2,0,B|300:68|299:120,1,96,8|0,0:0|0:0,0:0:0
232,216,63441,2,0,B|201:277|257:357|318:353,1,192,0|8,0:0|0:0,0:0:0
428,316,63980,5,0,0:0:0
256,64,64339,1,0,0:0:0
359,13,64519,1,8,0:0:0
439,96,64699,1,0,0:0:0
384,197,64878,2,0,B|368:236|368:236|368:296,2,96,0|0|8,0:0|0:0|0:0,0:0:0
271,177,65417,6,0,B|232:132|148:120|94:156,1,192
16,240,65956,1,8,0:0:0
100,316,66136,1,0,0:0:0
180,232,66315,2,0,B|232:244|249:292,2,96,0|0|8,0:0|0:0|0:0,0:0:0
100,316,66854,1,0,0:0:0
94,155,67034,5,0,0:0:0
196,40,67214,1,0,0:0:0
244,184,67393,1,8,0:0:0
128,80,67573,1,0,0:0:0
280,96,67753,1,0,0:0:0
260,248,67932,1,0,0:0:0
108,232,68112,1,8,0:0:0
200,108,68291,1,0,0:0:0
336,180,68471,6,0,B|384:192|429:169,1,96
192,144,68830,1,8,0:0:0
344,140,69010,2,0,B|392:124|418:82,1,96
184,184,69369,1,0,0:0:0
316,108,69549,1,8,0:0:0
180,36,69729,6,0,B|116:8|48:28|48:28|36:92,1,192
36,240,70268,2,0,B|88:244|124:208,1,96,8|0,0:0|0:0,0:0:0
216,136,70627,1,0,0:0:0
330,139,70806,1,0,0:0:0
407,225,70986,1,8,0:0:0
402,338,71166,1,0,0:0:0
364,340,71525,5,0,0:0:0
324,344,71884,5,0,0:0:0
284,348,72244,5,0,0:0:0
184,328,72423,1,0,0:0:0
180,332,72513,1,0,0:0:0
176,336,72603,1,8,0:0:0
172,340,72693,1,0,0:0:0
168,344,72783,6,0,B|124:320|116:266,1,96,4|0,0:0|0:0,0:0:0
28,196,73142,2,0,B|70:169|120:190,1,96,8|0,0:0|0:0,0:0:0
228,148,73501,2,0,B|229:198|186:231,2,96,0|0|8,0:0|0:0|0:0,0:0:0
149,61,74040,2,0,B|180:8|284:8|314:62,1,192
344,172,74579,1,8,0:0:0
268,256,74759,1,0,0:0:0
356,328,74938,2,0,B|424:328|484:272|492:213,1,192,0|8,0:0|0:0,0:0:0
452,28,75477,6,0,B|384:28|324:84|316:143,1,192
400,220,76016,1,8,0:0:0
288,252,76196,1,0,0:0:0
204,172,76375,2,0,B|156:164|108:171,2,96,0|0|8,0:0|0:0|0:0,0:0:0
252,68,76914,2,0,B|204:48|116:48|63:68,1,192
16,176,77453,1,8,0:0:0
68,280,77633,1,0,0:0:0
180,260,77812,2,0,B|228:252|274:266,2,96,0|0|8,0:0|0:0|0:0,0:0:0
108,172,78351,1,8,0:0:0
164,72,78531,5,0,0:0:0
280,72,78711,1,0,0:0:0
340,172,78890,2,0,B|360:220|348:265,1,96,8|0,0:0|0:0,0:0:0
396,372,79250,2,0,B|344:365|310:332,1,96
196,320,79609,2,0,B|227:278|273:265,1,96,8|0,0:0|0:0,0:0:0
492,176,79968,5,0,0:0:0
416,308,80148,1,0,0:0:0
340,172,80327,1,8,0:0:0
416,172,80507,1,0,0:0:0
340,304,80687,1,0,0:0:0
264,168,80866,1,0,0:0:0
340,172,81046,1,8,0:0:0
460,76,81226,6,0,B|426:15|339:7|295:56,1,192
264,168,81765,2,0,B|252:216|198:231,1,96,8|0,0:0|0:0,0:0:0
112,152,82124,2,0,B|72:128|19:145,2,96,0|0|8,0:0|0:0|0:0,0:0:0
198,230,82663,5,0,0:0:0
228,252,83022,5,0,0:0:0
260,276,83381,6,0,B|320:316|404:288|422:229,1,192
320,180,83920,1,0,0:0:0
308,160,84010,1,0,0:0:0
288,144,84100,1,0,0:0:0
264,136,84190,1,0,0:0:0
240,136,84280,6,0,B|180:172|108:132|100:58,1,192,4|8,0:0|0:0,0:0:0
304,104,84818,2,0,B|302:34|373:-8|441:21,1,192
300,176,85357,2,0,B|332:220|299:264,1,96,8|0,0:0|0:0,0:0:0
208,340,85717,5,4,0:0:0
72,64,86076,1,8,0:0:0
380,84,86435,1,0,0:0:0
208,340,86794,1,8,0:0:0
72,64,87154,2,0,B|112:32|112:32|156:32,1,96,4|0,0:0|0:0,0:0:0
432,252,87693,2,0,B|376:296|376:296|232:296,1,192
140,296,88232,1,8,0:0:0
43,208,88411,6,0,B|68:152|152:124|208:152,1,192
252,260,88950,2,0,B|308:268|336:224,1,96,8|0,0:0|0:0,0:0:0
360,112,89309,1,0,0:0:0
264,44,89489,1,0,0:0:0
264,44,89579,1,0,0:0:0
264,44,89669,2,0,B|232:84|245:135,1,96,8|0,0:0|0:0,0:0:0
328,216,90028,6,0,B|404:228|456:176|456:176|452:244,1,192,4|8,0:0|0:0,0:0:0
388,330,90567,2,0,B|336:364|252:344|220:288,1,192
212,160,91106,1,8,0:0:0
104,232,91286,1,0,0:0:0
104,356,91465,5,4,0:0:0
264,44,91824,1,8,0:0:0
456,336,92184,1,0,0:0:0
104,356,92543,1,8,0:0:0
136,244,92723,5,0,0:0:0
136,244,92812,1,0,0:0:0
136,244,92902,2,0,B|208:168|313:190,1,192,0|8,0:0|0:0,0:0:0
392,272,93441,2,0,B|444:256|452:204,1,96
392,104,93800,2,0,B|400:52|452:36,2,96,0|8|0,0:0|0:0|0:0,0:0:0
312,188,94339,5,0,0:0:0
208,240,94519,2,0,B|160:256|112:240,2,96,0|8|0,0:0|0:0|0:0,0:0:0
312,188,95058,1,0,0:0:0
320,72,95238,1,0,0:0:0
320,72,95327,1,0,0:0:0
320,72,95417,2,0,B|272:56|225:71,1,96,8|0,0:0|0:0,0:0:0
140,112,95777,5,0,0:0:0
125,147,95866,1,8,0:0:0
119,185,95956,1,8,0:0:0
122,223,96046,1,0,0:0:0
134,259,96136,1,0,0:0:0
155,291,96226,1,8,0:0:0
183,317,96315,1,8,0:0:0
216,336,96405,1,0,0:0:0
253,347,96495,1,8,0:0:0
291,350,96585,1,8,0:0:0
330,346,96675,1,8,0:0:0
366,336,96765,1,8,0:0:0
401,319,96854,1,8,0:0:0
430,294,96944,1,8,0:0:0
453,263,97034,1,8,0:0:0
465,227,97124,1,8,0:0:0
465,189,97214,6,0,B|464:120|424:68|424:68|364:108,1,192,4|8,0:0|0:0,0:0:0
268,188,97753,1,0,0:0:0
208,304,97932,2,0,B|156:304|122:266,1,96
208,68,98291,2,0,B|260:68|293:105,1,96,8|0,0:0|0:0,0:0:0
352,248,98651,5,0,0:0:0
212,324,98830,1,0,0:0:0
192,292,98920,1,0,0:0:0
192,256,99010,1,8,0:0:0
132,120,99190,2,0,B|112:76|60:60,2,96
252,276,99729,2,0,B|296:248|301:197,1,96,8|0,0:0|0:0,0:0:0
376,20,100088,5,0,0:0:0
456,136,100268,1,0,0:0:0
480,136,100357,1,0,0:0:0
504,136,100447,1,8,0:0:0
312,192,100627,1,0,0:0:0
293,204,100717,1,0,0:0:0
269,212,100806,2,0,B|225:224|173:208,2,96,0|0|8,0:0|0:0|0:0,0:0:0
220,60,101345,6,0,B|166:26|82:50|52:105,1,192
60,240,101884,1,8,0:0:0
180,300,102064,1,0,0:0:0
300,240,102243,1,0,0:0:0
322,107,102423,1,0,0:0:0
322,107,102513,1,0,0:0:0
322,107,102603,2,0,B|368:92|417:107,1,96,8|0,0:0|0:0,0:0:0
228,216,102962,6,0,B|182:231|132:215,2,96,0|0|8,0:0|0:0|0:0,0:0:0
372,160,103501,1,0,0:0:0
312,16,103681,1,0,0:0:0
464,40,103860,1,0,0:0:0
464,40,103950,1,0,0:0:0
464,40,104040,2,0,B|488:88|480:133,1,96,8|0,0:0|0:0,0:0:0
376,264,104399,6,0,B|420:288|468:281,2,96,0|0|8,0:0|0:0|0:0,0:0:0
244,160,104938,2,0,B|212:100|128:88|79:136,1,192
48,276,105477,2,0,B|88:312|137:299,1,96,8|0,0:0|0:0,0:0:0
244,160,105836,6,0,B|292:140|337:158,1,96
340,336,106196,2,0,B|292:356|246:337,1,96,8|0,0:0|0:0,0:0:0
196,240,106555,2,0,B|244:220|289:238,2,96,0|0|8,0:0|0:0|0:0,0:0:0
112,344,107094,2,0,B|52:308|32:236|56:176,1,192
132,72,107633,1,8,0:0:0
248,12,107812,2,0,B|308:48|328:120|303:179,1,192
204,256,108351,1,8,0:0:0
228,285,108440,1,0,0:0:0
262,303,108530,1,0,0:0:0
299,309,108620,1,0,0:0:0
337,301,108711,6,0,B|388:288|415:249,2,96,4|0|8,0:0|0:0|0:0,0:0:0
264,124,109250,2,0,B|241:71|149:51|95:81,1,192
96,284,109789,2,0,B|136:316|185:308,1,96,8|0,0:0|0:0,0:0:0
292,220,110148,1,0,0:0:0
328,92,110327,1,0,0:0:0
216,36,110507,1,8,0:0:0
134,134,110687,2,0,B|164:196|224:224|293:220,1,192
424,180,111226,1,8,0:0:0
372,56,111405,1,0,0:0:0
244,96,111585,6,0,B|192:108|148:96,1,96
292,220,111944,2,0,B|344:208|388:220,1,96,8|0,0:0|0:0,0:0:0
340,344,112303,2,0,B|288:356|244:344,2,96,0|0|8,0:0|0:0|0:0,0:0:0
292,220,112842,6,0,B|244:204|192:220,1,96
88,104,113202,2,0,B|98:153|138:190,1,96,0|8,0:0|0:0,0:0:0
88,340,113561,2,0,B|125:306|138:253,1,96,0|0,0:0|0:0,0:0:0
204,144,113920,1,0,0:0:0
204,144,114010,1,0,0:0:0
204,144,114100,2,0,B|240:104|288:104,1,96,8|0,0:0|0:0,0:0:0
476,124,114459,6,0,B|480:72|452:32,2,96,4|0|8,0:0|0:0|0:0,0:0:0
442,306,114998,1,0,0:0:0
258,322,115178,1,0,0:0:0
188,155,115357,1,0,0:0:0
323,36,115537,1,8,0:0:0
336,192,115717,2,0,B|304:228|248:220,2,96
324,36,116256,1,8,0:0:0
170,36,116435,2,0,B|108:48|70:126|99:188,1,192
84,332,116974,2,0,B|140:336|174:307,1,96,8|0,0:0|0:0,0:0:0
216,180,117333,6,0,B|250:151|306:155,1,96
408,72,117693,2,0,B|415:116|384:162,1,96,8|0,0:0|0:0,0:0:0
404,292,118052,1,0,0:0:0
296,216,118232,1,0,0:0:0
280,84,118411,1,8,0:0:0
256,192,118591,12,4,120208,0:0:0
316,272,131705,6,0,B|368:280|407:251,1,96,4|0,0:0|0:0,0:0:0
332,164,132064,2,0,B|280:156|240:184,1,96,8|0,0:0|0:0,0:0:0
115,229,132423,1,0,0:0:0
204,306,132603,1,0,0:0:0
316,272,132783,1,8,0:0:0
254,78,132962,6,0,B|184:88|148:156|168:224,1,192
200,332,133501,1,8,0:0:0
312,304,133681,1,0,0:0:0
280,192,133860,2,0,B|328:128|392:128|392:128|420:184,1,192,0|8,0:0|0:0,0:0:0
364,284,134399,6,0,B|300:304|228:260|220:192,1,192
260,39,134938,1,8,0:0:0
320,187,135118,1,0,0:0:0
184,102,135297,1,0,0:0:0
343,91,135477,1,0,0:0:0
221,194,135657,1,8,0:0:0
103,91,135836,6,0,B|52:88|10:111|10:111|15:158|56:192,1,192
104,300,136375,2,0,B|159:299|191:266,1,96,8|0,0:0|0:0,0:0:0
300,220,136735,2,0,B|344:231|372:279,2,96,0|0|8,0:0|0:0|0:0,0:0:0
204,152,137274,1,0,0:0:0
272,52,137453,6,0,B|320:48|368:52,1,96,4|0,0:0|0:0,0:0:0
480,144,137812,2,0,B|432:148|384:144,1,96,8|0,0:0|0:0,0:0:0
272,236,138172,2,0,B|320:232|368:236,1,96
256,328,138531,2,0,B|208:332|160:328,1,96,8|0,0:0|0:0,0:0:0
50,177,138890,6,0,B|32:128|40:82,1,96
50,292,139250,1,8,0:0:0
160,140,139429,2,0,B|201:107|246:101,1,96
50,177,139789,1,0,0:0:0
116,272,139968,1,8,0:0:0
226,234,140148,2,0,B|268:184|340:164|400:180,1,192
336,276,140687,2,0,B|320:324|269:340,1,96,8|0,0:0|0:0,0:0:0
226,234,141046,1,0,0:0:0
228,119,141226,1,0,0:0:0
329,63,141405,1,8,0:0:0
427,123,141585,5,0,0:0:0
392,140,141944,5,8,0:0:0
360,159,142303,6,0,B|304:188|224:172|187:119,1,192,0|8,0:0|0:0,0:0:0
101,29,142842,1,0,0:0:0
77,33,142932,1,0,0:0:0
57,46,143022,1,0,0:0:0
43,65,143112,1,0,0:0:0
36,88,143202,6,0,B|28:160|92:204|92:204|147:192,1,192,4|8,0:0|0:0,0:0:0
268,164,143741,2,0,B|340:144|372:88|372:88|417:127,1,192
496,224,144280,2,0,B|464:260|408:252,1,96,8|0,0:0|0:0,0:0:0
316,340,144639,5,4,0:0:0
56,112,144998,1,8,0:0:0
384,4,145357,1,0,0:0:0
316,340,145717,1,8,0:0:0
56,112,146076,6,0,B|96:100|96:100|150:100,1,96,4|8,0:0|0:0,0:0:0
480,204,146615,2,0,B|432:228|432:228|388:204|388:204|299:204,1,192,0|8,0:0|0:0,0:0:0
299,204,147154,1,8,0:0:0
232,71,147333,2,0,B|164:84|128:152|151:220,1,192
132,332,147872,2,0,B|184:344|221:310,1,96,8|0,0:0|0:0,0:0:0
264,204,148232,1,0,0:0:0
372,244,148411,1,0,0:0:0
372,244,148501,1,0,0:0:0
372,244,148591,2,0,B|424:260|466:244,1,96,8|0,0:0|0:0,0:0:0
244,90,148950,6,0,B|300:36|376:56|376:56|393:102,1,192,4|8,0:0|0:0,0:0:0
264,204,149489,2,0,B|184:204|148:140|148:140|104:184,1,192
40,268,150028,2,0,B|72:304|128:296,1,96,8|0,0:0|0:0,0:0:0
240,316,150387,5,4,0:0:0
400,8,150747,1,8,0:0:0
56,28,151106,1,0,0:0:0
240,316,151465,1,8,0:0:0
156,220,151645,1,0,0:0:0
180,100,151824,6,0,B|244:73|320:109|332:173,1,192,0|8,0:0|0:0,0:0:0
444,224,152363,2,0,B|416:284|348:308|280:285,1,192
208,184,152902,1,8,0:0:0
104,112,153082,1,0,0:0:0
16,204,153262,2,0,B|24:256|66:280,1,96
204,304,153621,2,0,B|196:252|153:227,1,96,8|0,0:0|0:0,0:0:0
104,112,153980,1,0,0:0:0
220,60,154160,1,0,0:0:0
220,60,154250,1,0,0:0:0
220,60,154339,2,0,B|268:40|313:58,1,96,8|0,0:0|0:0,0:0:0
432,104,154699,5,0,0:0:0
438,141,154788,1,8,0:0:0
438,180,154878,1,8,0:0:0
430,217,154968,1,0,0:0:0
415,252,155058,1,0,0:0:0
392,283,155148,1,8,0:0:0
363,308,155237,1,8,0:0:0
330,327,155327,1,0,0:0:0
294,340,155417,1,8,0:0:0
256,347,155507,1,8,0:0:0
218,349,155597,1,8,0:0:0
180,346,155687,1,8,0:0:0
142,336,155776,1,8,0:0:0
108,320,155866,1,8,0:0:0
77,297,155956,1,8,0:0:0
52,268,156046,1,8,0:0:0
34,234,156136,6,0,B|12:168|36:108|36:108|112:120,1,192,4|8,0:0|0:0,0:0:0
220,176,156675,1,0,0:0:0
332,248,156854,2,0,B|382:259|426:235,1,96
396,68,157214,2,0,B|347:58|303:82,1,96,8|0,0:0|0:0,0:0:0
220,176,157573,2,0,B|188:216|204:268,2,96,0|0|8,0:0|0:0|0:0,0:0:0
116,76,158112,2,0,B|152:24|236:12|289:46,1,192
376,172,158651,2,0,B|432:176|460:136,1,96,8|0,0:0|0:0,0:0:0
352,12,159010,5,0,0:0:0
290,130,159190,1,0,0:0:0
385,225,159369,1,8,0:0:0
323,343,159549,1,0,0:0:0
190,322,159729,1,0,0:0:0
169,189,159908,1,0,0:0:0
176,152,159998,1,0,0:0:0
196,120,160088,1,8,0:0:0
312,32,160268,6,0,B|336:100|284:156|284:156|339:176,1,192
456,240,160806,1,8,0:0:0
368,340,160986,1,0,0:0:0
236,312,161166,1,0,0:0:0
324,212,161345,1,0,0:0:0
324,212,161435,1,0,0:0:0
324,212,161525,2,0,B|352:168|348:120,1,96,8|0,0:0|0:0,0:0:0
84,64,161884,6,0,B|56:108|60:156,2,96,4|0|8,0:0|0:0|0:0,0:0:0
180,204,162423,2,0,B|184:276|240:320|312:308,1,192
448,260,162962,1,8,0:0:0
336,168,163142,1,0,0:0:0
179,205,163321,2,0,B|164:252|176:300,2,96,0|0|8,0:0|0:0|0:0,0:0:0
220,52,163860,2,0,B|280:12|348:24|348:24|336:52|339:81,1,192
312,228,164399,2,0,B|332:276|383:286,1,96,8|0,0:0|0:0,0:0:0
448,172,164759,5,0,0:0:0
339,81,164938,1,0,0:0:0
204,132,165118,1,8,0:0:0
176,272,165297,1,0,0:0:0
280,368,165477,2,0,B|328:376|380:356,2,96,0|0|8,0:0|0:0|0:0,0:0:0
312,228,166016,2,0,B|284:176|192:152|141:171,1,192
48,268,166555,1,8,0:0:0
184,264,166735,2,0,B|236:236|260:144|240:93,1,192
84,48,167274,1,8,0:0:0
68,84,167363,1,0,0:0:0
64,124,167453,1,0,0:0:0
68,164,167543,1,0,0:0:0
80,200,167633,6,0,B|108:248|156:251,2,96,4|0|8,0:0|0:0|0:0,0:0:0
188,116,168172,2,0,B|220:48|292:40|292:40|341:70,1,192
496,196,168711,2,0,B|448:216|400:196,1,96,8|0,0:0|0:0,0:0:0
256,212,169070,2,0,B|216:241|210:293,2,96,0|0|8,0:0|0:0|0:0,0:0:0
320,80,169609,2,0,B|272:24|200:32|200:32|152:72,1,192
40,184,170148,2,0,B|56:236|106:248,1,96,8|0,0:0|0:0,0:0:0
236,336,170507,6,0,B|284:348|332:336,1,96
484,192,170866,2,0,B|436:180|388:192,1,96,8|0,0:0|0:0,0:0:0
262,230,171226,1,0,0:0:0
136,181,171405,1,0,0:0:0
240,96,171585,1,8,0:0:0
366,145,171765,1,0,0:0:0
387,278,171944,5,0,0:0:0
283,362,172124,1,0,0:0:0
283,362,172214,1,0,0:0:0
283,362,172303,2,0,B|231:355|193:328,1,96,8|0,0:0|0:0,0:0:0
79,258,172663,1,0,0:0:0
84,219,172753,1,0,0:0:0
97,183,172842,1,0,0:0:0
115,149,172932,1,0,0:0:0
140,120,173022,1,8,0:0:0
170,96,173112,1,0,0:0:0
206,82,173202,1,0,0:0:0
243,77,173291,1,0,0:0:0
281,82,173381,6,0,B|332:96|376:84,2,96,4|0|8,0:0|0:0|0:0,0:0:0
184,188,173920,2,0,B|184:264|232:312|232:312|287:305,1,192
380,196,174459,1,8,0:0:0
480,92,174639,2,0,B|440:44|352:36|304:72,1,192
200,176,175178,1,8,0:0:0
112,292,175357,2,0,B|46:269|22:181|44:131,1,192
188,32,175896,2,0,B|228:68|216:120,1,96,8|0,0:0|0:0,0:0:0
180,264,176256,5,0,0:0:0
280,168,176435,1,0,0:0:0
280,168,176525,1,0,0:0:0
280,168,176615,2,0,B|332:152|376:168,1,96,8|0,0:0|0:0,0:0:0
320,300,176974,1,0,0:0:0
180,264,177154,1,0,0:0:0
144,124,177333,1,8,0:0:0
256,192,177513,12,4,179130,0:0:0
255,58,190627,5,0,0:0:0
140,258,190806,1,0,0:0:0
371,258,190986,1,0,0:0:0
198,158,191166,1,8,0:0:0
313,158,191345,1,0,0:0:0
256,258,191525,1,0,0:0:0
24,58,191884,6,0,B|96:24|160:52|160:52|180:112,1,192,8|0,0:0|0:0,0:0:0
212,232,192423,1,0,0:0:0
335,283,192603,1,8,0:0:0
423,182,192782,1,0,0:0:0
353,66,192962,2,0,B|304:32|204:64|196:125,1,192
76,64,193501,5,8,0:0:0
196,124,193681,1,0,0:0:0
316,184,193860,1,0,0:0:0
436,124,194040,1,8,0:0:0
316,184,194220,1,0,0:0:0
196,240,194399,1,0,0:0:0
196,240,194759,6,0,B|208:296|248:320|248:320|296:308|328:272,1,192
436,124,195297,1,0,0:0:0
324,48,195477,1,8,0:0:0
324,48,195567,1,0,0:0:0
324,48,195657,1,0,0:0:0
192,32,195836,2,0,B|144:24|100:48|100:48|104:96|152:125,1,192
344,248,196375,5,0,0:0:0
152,232,196555,1,0,0:0:0
312,128,196735,1,0,0:0:0
244,308,196914,1,8,0:0:0
192,124,197094,1,0,0:0:0
344,248,197274,1,0,0:0:0
488,120,197633,6,0,B|456:52|392:32|392:32|337:52,1,192
172,100,198172,1,0,0:0:0
312,160,198351,1,8,0:0:0
188,252,198531,1,0,0:0:0
48,188,198711,2,0,B|84:172|144:172|140:208|200:208|234:187,1,192
412,132,199250,6,0,B|408:84|412:36,1,96,8|0,0:0|0:0,0:0:0
304,240,199609,2,0,B|300:292|304:336,1,96,8|0,0:0|0:0,0:0:0
196,132,199968,2,0,B|200:84|196:36,1,96
88,240,200327,1,8,0:0:0
88,240,200507,6,0,B|88:292|128:324|128:324|172:292|171:242,1,192
180,88,201046,1,8,0:0:0
326,43,201226,1,0,0:0:0
439,147,201405,1,0,0:0:0
404,297,201585,1,0,0:0:0
257,342,201765,1,8,0:0:0
236,332,201854,1,0,0:0:0
216,320,201944,1,0,0:0:0
196,308,202034,1,0,0:0:0
176,296,202124,6,0,B|120:256|120:256|87:188,1,144.000005493164,4|8,0:0|0:0,0:0:0
392,76,202842,2,0,B|400:124|400:124|383:168,1,96,0|8,0:0|0:0,0:0:0
168,96,203561,2,0,B|132:68|132:68|84:56,1,96,0|8,0:0|0:0,0:0:0
304,240,204280,2,0,B|275:278,1,48
396,208,204639,2,0,B|424:169,1,48,8|0,0:0|0:0,0:0:0
420,308,204998,5,0,0:0:0
92,308,205357,1,8,0:0:0
420,160,205717,1,0,0:0:0
92,160,206076,2,0,B|120:164|138:152,1,48,8|0,0:0|0:0,0:0:0
256,36,206435,5,0,0:0:0
468,192,206794,1,8,0:0:0
256,348,207154,1,0,0:0:0
44,192,207513,1,8,0:0:0
92,160,207693,1,0,0:0:0
140,128,207872,6,0,B|148:80|140:32,1,96,0|8,0:0|0:0,0:0:0
256,248,208591,2,0,B|248:296|256:344,1,96,0|8,0:0|0:0,0:0:0
268,120,209130,1,0,0:0:0
380,52,209309,2,0,B|428:60|476:52,1,96,0|8,0:0|0:0,0:0:0
352,248,210028,2,0,B|304:240|256:248,1,96,0|8,0:0|0:0,0:0:0
128,284,210567,1,0,0:0:0
172,152,210747,6,0,B|144:104,2,48,0|0|8,0:0|0:0|0:0,0:0:0
304,120,211286,2,0,B|340:88,2,48
412,200,211824,2,0,B|468:200,1,48,8|0,0:0|0:0,0:0:0
336,320,212184,1,0,0:0:0
296,296,212363,1,0,0:0:0
256,272,212543,1,8,0:0:0
216,248,212723,1,0,0:0:0
172,224,212902,2,0,B|172:276,3,48,8|0|0|0,0:0|0:0|0:0|0:0,0:0:0
92,152,213262,2,0,B|20:152,3,48
132,52,213621,5,0,0:0:0
168,38,213711,1,8,0:0:0
205,31,213800,1,8,0:0:0
243,31,213890,1,0,0:0:0
280,37,213980,1,0,0:0:0
315,51,214070,1,8,0:0:0
345,73,214160,1,8,0:0:0
370,101,214250,1,0,0:0:0
387,134,214339,1,8,0:0:0
398,170,214429,1,8,0:0:0
399,208,214519,1,8,0:0:0
396,246,214609,1,8,0:0:0
381,281,214699,1,8,0:0:0
358,312,214789,1,8,0:0:0
329,337,214878,1,8,0:0:0
293,350,214968,1,8,0:0:0
254,355,215058,5,4,0:0:0
172,120,215417,1,8,0:0:0
60,172,215597,2,0,B|84:232|160:260|221:234,1,192
292,132,216136,2,0,B|319:85|373:95,1,96,8|0,0:0|0:0,0:0:0
456,188,216495,5,0,0:0:0
152,20,216854,1,8,0:0:0
160,368,217214,1,0,0:0:0
456,188,217573,2,0,B|404:188|404:188|366:209,1,96,8|0,0:0|0:0,0:0:0
324,328,217932,6,0,B|256:328|256:328|231:314,1,96,4|0,0:0|0:0,0:0:0
72,92,218471,2,0,B|148:88|192:24|192:24|192:72,1,192
192,200,219010,1,8,0:0:0
192,324,219190,6,0,B|264:328|320:260|316:204,1,192
206,29,219729,2,0,B|180:76|202:121,1,96,8|0,0:0|0:0,0:0:0
348,84,220088,1,0,0:0:0
456,188,220268,1,0,0:0:0
456,188,220357,1,0,0:0:0
456,188,220447,2,0,B|428:232|375:231,1,96,8|0,0:0|0:0,0:0:0
232,184,220806,6,0,B|192:120|120:108|120:108|88:156,1,192,4|8,0:0|0:0,0:0:0
208,280,221345,2,0,B|248:344|320:356|320:356|352:308,1,192,0|0,0:0|0:0,0:0:0
384,128,221884,2,0,B|344:164|351:214,1,96,8|0,0:0|0:0,0:0:0
384,344,222244,5,4,0:0:0
336,0,222603,1,8,0:0:0
64,216,222962,1,0,0:0:0
384,344,223321,2,0,B|376:280|376:280|356:255,1,96,8|0,0:0|0:0,0:0:0
256,136,223681,5,0,0:0:0
160,256,223860,1,0,0:0:0
160,256,223950,1,0,0:0:0
160,256,224040,2,0,B|112:236|94:189,1,96,8|0,0:0|0:0,0:0:0
140,52,224399,1,0,0:0:0
256,136,224579,2,0,B|304:144|352:136,2,96
120,192,225118,6,0,B|68:200|24:191,1,96
232,280,225477,2,0,B|280:272|328:280,1,96,8|0,0:0|0:0,0:0:0
452,332,225836,1,0,0:0:0
496,204,226016,1,0,0:0:0
496,204,226106,1,0,0:0:0
496,204,226196,2,0,B|504:152|489:109,1,96,8|0,0:0|0:0,0:0:0
392,60,226555,5,0,0:0:0
356,45,226644,1,8,0:0:0
319,35,226734,1,8,0:0:0
281,29,226824,1,0,0:0:0
243,27,226914,1,0,0:0:0
204,31,227004,1,8,0:0:0
167,39,227093,1,8,0:0:0
131,53,227183,1,0,0:0:0
99,74,227273,1,8,0:0:0
71,100,227363,1,8,0:0:0
48,131,227453,1,8,0:0:0
33,166,227543,1,8,0:0:0
24,203,227632,1,8,0:0:0
22,241,227722,1,8,0:0:0
26,280,227812,1,8,0:0:0
37,317,227902,1,8,0:0:0
60,348,227992,6,0,B|107:365|154:349,2,96,4|0|8,0:0|0:0|0:0,0:0:0
116,224,228531,2,0,B|145:171|232:144|284:174,1,192
356,288,229070,2,0,B|408:304|444:267,1,96,8|0,0:0|0:0,0:0:0
408,136,229429,2,0,B|412:84|460:60,2,96,0|0|8,0:0|0:0|0:0,0:0:0
356,288,229968,2,8,B|288:280|240:224|241:155,1,192,0|0,0:0|0:0,0:0:0
304,32,230507,2,0,B|256:8|210:23,1,96,8|0,0:0|0:0,0:0:0
76,40,230866,5,0,0:0:0
76,40,231046,1,0,0:0:0
76,208,231226,1,8,0:0:0
76,208,231405,1,0,0:0:0
181,123,231585,1,0,0:0:0
287,205,231765,1,0,0:0:0
320,228,231854,1,0,0:0:0
328,264,231944,1,8,0:0:0
162,256,232124,6,0,B|140:188|168:116|256:84,1,192
360,4,232663,2,0,B|404:32|396:86,1,96,8|0,0:0|0:0,0:0:0
300,200,233022,1,0,0:0:0
162,256,233202,1,0,0:0:0
162,256,233291,1,0,0:0:0
162,256,233381,2,0,B|112:268|66:256,1,96,8|0,0:0|0:0,0:0:0
68,84,233741,6,0,B|118:72|164:84,2,96,0|0|8,0:0|0:0|0:0,0:0:0
32,216,234280,2,0,B|40:284|104:324|173:314,1,192
212,184,234818,2,0,B|244:139|292:139,1,96,8|0,0:0|0:0,0:0:0
464,172,235178,1,0,0:0:0
305,246,235357,1,0,0:0:0
390,93,235537,1,8,0:0:0
410,270,235717,2,0,B|396:332|324:372|257:345,1,192
96,232,236256,2,0,B|116:180|164:169,1,96,8|0,0:0|0:0,0:0:0
305,246,236615,6,0,B|356:260|398:235,1,96
372,56,236974,2,0,B|321:42|278:66,1,96,8|0,0:0|0:0,0:0:0
244,164,237333,2,0,B|295:178|337:153,2,96,0|0|8,0:0|0:0|0:0,0:0:0
104,115,237872,2,0,B|83:179|99:247|162:281,1,192
244,164,238411,1,8,0:0:0
325,46,238591,2,0,B|387:80|403:148|383:212,1,192
336,340,239130,1,8,0:0:0
300,332,239220,1,0,0:0:0
268,312,239309,1,0,0:0:0
240,284,239399,1,0,0:0:0
216,252,239489,6,0,B|184:216|129:211,2,96,4|0|8,0:0|0:0|0:0,0:0:0
360,216,240028,2,0,B|408:208|440:168|440:168|408:128|357:120,1,192
240,56,240567,2,0,B|192:48|144:56,1,96,8|0,0:0|0:0,0:0:0
128,172,240926,5,0,0:0:0
276,216,241106,1,0,0:0:0
228,364,241286,1,8,0:0:0
80,320,241465,2,0,B|116:264|196:252|250:291,1,192
404,284,242004,2,0,B|444:248|452:203,1,96,8|0,0:0|0:0,0:0:0
488,52,242363,6,0,B|436:35|393:50,1,96
305,150,242723,2,0,B|256:160|210:152,1,96,8|0,0:0|0:0,0:0:0
140,40,243082,1,0,0:0:0
24,108,243262,1,0,0:0:0
24,108,243351,1,0,0:0:0
24,108,243441,1,8,0:0:0
96,220,243621,1,0,0:0:0
210,152,243800,5,0,0:0:0
343,137,243980,1,0,0:0:0
343,137,244070,1,0,0:0:0
343,137,244160,2,0,B|392:120|437:130,1,96,8|0,0:0|0:0,0:0:0
397,260,244519,1,0,0:0:0
298,350,244699,2,0,B|292:300,2,48,0|0|8,0:0|0:0|0:0,0:0:0
181,282,245058,1,0,0:0:0
210,152,245238,5,4,0:0:0
56,208,245417,1,0,0:0:0
180,312,245597,1,8,0:0:0
210,152,245777,2,0,B|236:92|312:64|373:89,1,192
468,212,246315,1,8,0:0:0
347,308,246495,2,0,B|276:308|232:260|231:184,1,192
288,44,247034,1,8,0:0:0
332,188,247214,2,0,B|331:263|287:311|215:311,1,192
92,224,247753,2,0,B|120:180|169:172,1,96,8|0,0:0|0:0,0:0:0
380,119,248112,6,0,B|424:104|424:104|473:104,1,96
131,119,248471,2,0,B|88:104|88:104|38:104,1,96,8|0,0:0|0:0,0:0:0
131,264,248830,1,0,0:0:0
380,263,249010,1,0,0:0:0
255,48,249190,1,8,0:0:0
256,192,249369,12,4,250986,0:0:0
