osu file format v13

[General]
AudioFilename: Jewelpet Happiness OP2Run With U.mp3
AudioLeadIn: 0
PreviewTime: -1
Countdown: 0
SampleSet: None
StackLeniency: 0.7
Mode: 0
LetterboxInBreaks: 1
WidescreenStoryboard: 1

[Editor]
DistanceSpacing: 0.8
BeatDivisor: 4
GridSize: 4
TimelineZoom: 1

[Metadata]
Title:Run With U
TitleUnicode:Run With U
Artist:SONIC GROOVE
ArtistUnicode:SONIC GROOVE
Creator:LuCy200131
Version:Normal
Source:Jewelpet
Tags:Jewelpet
BeatmapID:500696
BeatmapSetID:212873

[Difficulty]
HPDrainRate:4
CircleSize:4
OverallDifficulty:3
ApproachRate:5
SliderMultiplier:1.4
SliderTickRate:1

[Events]
//Background and Video events
Video,0,"Jewelpet Happiness - Run With U.avi"
0,0,"1010173_145286405664425_602073446_n.jpg",0,0
//Break Periods
//Storyboard Layer 0 (Background)
//Storyboard Layer 1 (Fail)
//Storyboard Layer 2 (Pass)
//Storyboard Layer 3 (Foreground)
//Storyboard Sound Samples
//Background Colour Transformations
3,100,163,162,255

[TimingPoints]
0,461.538461538462,4,1,1,49,1,0
115,-98.0392156862745,4,1,1,49,0,0
6923,-100,4,1,1,49,0,1
9692,-100,4,1,1,49,0,0
10153,-100,4,1,1,49,0,1
13024,-100,4,1,1,49,0,0
37615,-100,4,1,1,49,0,1
43677,-100,4,1,1,49,0,0
50884,-100,4,1,1,49,0,1
56212,-100,4,1,1,49,0,0
62769,-100,4,1,1,49,0,1
68460,-100,4,1,1,49,0,0
83307,-100,4,1,1,49,0,1

[HitObjects]
200,192,5423,6,0,L|328:192,2,105,0|0|0,0:0|0:0|0:0,0:0:0:0:
196,272,6461,2,0,L|196:312,1,35,0|4,0:0|0:0,0:0:0:0:
44,56,6923,6,0,B|88:72|88:72|68:92,1,70,0|0,0:0|0:0,0:0:0:0:
136,128,7500,1,0,0:0:0:0:
136,128,7730,1,0,0:0:0:0:
136,128,7961,1,0,0:0:0:0:
136,212,8423,2,0,B|152:244|152:244|112:264,2,70,0|0|0,0:0|0:0|0:0,0:0:0:0:
232,216,9230,5,0,0:0:0:0:
232,216,9461,1,0,0:0:0:0:
232,216,9692,1,0,0:0:0:0:
336,220,9923,2,0,B|376:208|376:208|324:168,2,105,0|0|0,0:0|0:0|0:0,0:0:0:0:
280,276,10961,5,0,0:0:0:0:
280,276,11192,1,0,0:0:0:0:
280,276,11423,1,0,0:0:0:0:
208,216,11653,2,0,B|176:240|176:240|204:264,2,70,0|0|0,0:0|0:0|0:0,0:0:0:0:
256,184,12461,5,0,0:0:0:0:
256,184,13038,1,8,0:0:0:0:
256,184,13846,1,8,0:0:0:0:
328,196,14076,2,0,B|376:184|376:184|296:128,2,140,0|0|0,0:0|0:0|0:0,0:0:0:0:
240,212,15461,5,0,0:0:0:0:
240,212,15692,1,0,0:0:0:0:
240,212,15923,1,0,0:0:0:0:
240,212,16500,1,8,0:0:0:0:
136,212,17076,6,0,B|80:196|80:196|172:136,2,140,0|0|0,0:0|0:0|0:0,0:0:0:0:
156,272,18461,2,0,B|192:304|296:280|296:280|240:220,1,210
251,232,19500,1,0,0:0:0:0:
251,232,19846,2,0,B|160:232|160:232|220:160,1,175,0|8,0:0|0:0,0:0:0:0:
213,167,20769,1,0,0:0:0:0:
216,172,21115,2,0,B|168:232|168:232|272:204,1,175,0|0,0:0|0:0,0:0:0:0:
252,192,22153,5,8,0:0:0:0:
252,192,22615,1,8,0:0:0:0:
252,192,23423,6,0,P|288:260|344:204,1,175
360,152,24461,1,0,0:0:0:0:
308,76,25038,2,0,P|248:80|216:168,1,140
228,228,25961,5,12,0:0:0:0:
288,264,26423,2,0,B|332:328|332:328|396:308|392:200|392:200|356:192,2,245,0|0|0,0:0|0:0|0:0,0:0:0:0:
224,228,28269,2,0,B|112:308|112:308|168:324,1,175
208,320,29192,5,0,0:0:0:0:
200,320,29538,2,0,B|288:328|320:268|320:268|276:248,2,175,0|0|0,0:0|0:0|0:0,0:0:0:0:
208,320,31038,1,8,0:0:0:0:
96,36,31730,6,0,B|140:64|140:64|84:88|84:88|148:116|148:116|80:148,1,245,8|0,0:0|0:0,0:0:0:0:
91,146,32884,1,4,0:0:0:0:
176,212,33230,2,0,B|236:172|236:172|232:244|232:244|332:192,1,245,0|0,0:0|0:0,0:0:0:0:
321,197,34384,5,0,0:0:0:0:
400,192,34730,2,0,B|448:168|448:168|400:252|400:252|484:236,2,210,0|0|0,0:0|0:0|0:0,0:0:0:0:
256,192,36346,12,0,37731,0:0:0:0:
200,104,38076,6,0,L|224:132,2,35,0|8|0,0:0|0:0|0:0,0:0:0:0:
248,184,38653,1,0,0:0:0:0:
248,184,38884,1,0,0:0:0:0:
248,184,39115,2,0,B|292:232|292:232|300:108,2,175,0|0|0,0:0|0:0|0:0,0:0:0:0:
248,184,40615,1,0,0:0:0:0:
248,184,40846,1,0,0:0:0:0:
248,184,41076,1,8,0:0:0:0:
248,184,41538,5,8,0:0:0:0:
248,184,41884,2,0,B|296:236|296:236|340:224|320:128,2,175,0|0|0,0:0|0:0|0:0,0:0:0:0:
248,184,43269,1,0,0:0:0:0:
164,252,43846,2,0,B|200:272|200:272|248:244,9,70,8|8|8|8|8|8|8|8|8|0,0:0|0:0|0:0|0:0|0:0|0:0|0:0|0:0|0:0|0:0,0:0:0:0:
224,257,46153,1,8,0:0:0:0:
224,257,46384,1,8,0:0:0:0:
224,257,46615,1,8,0:0:0:0:
328,272,46961,6,0,P|404:300|412:288,5,105,0|0|0|0|0|0,0:0|0:0|0:0|0:0|0:0|0:0,0:0:0:0:
405,298,48923,1,0,0:0:0:0:
405,298,49269,1,0,0:0:0:0:
405,298,49500,1,0,0:0:0:0:
405,298,50076,1,8,0:0:0:0:
405,298,50307,1,4,0:0:0:0:
405,298,50538,1,8,0:0:0:0:
405,298,50884,6,0,P|424:200|368:144,1,175,0|0,0:0|0:0,0:0:0:0:
378,148,51692,1,0,0:0:0:0:
378,148,51923,1,0,0:0:0:0:
378,148,52153,1,0,0:0:0:0:
378,148,52500,2,0,B|328:168|336:220|336:220|276:208,1,140
288,216,53423,1,12,0:0:0:0:
288,216,53653,1,0,0:0:0:0:
296,104,54000,6,0,L|344:104,3,35,0|4|8|4,0:0|0:0|0:0|0:0,0:0:0:0:
296,108,54576,1,0,0:0:0:0:
296,108,54807,1,0,0:0:0:0:
248,56,55038,2,0,B|216:128|164:96|128:204,1,175
160,136,56076,2,0,P|184:172|240:148,3,105,0|0|0|0,0:0|0:0|0:0|0:0,0:0:0:0:
236,156,57346,1,0,0:0:0:0:
236,156,57576,1,0,0:0:0:0:
236,156,57807,1,0,0:0:0:0:
236,156,58038,2,0,L|276:116,4,35,0|0|0|0|8,0:0|0:0|0:0|0:0|0:0,0:0:0:0:
160,308,59192,6,0,P|236:328|316:296,3,140,0|0|0|0,0:0|0:0|0:0|0:0,0:0:0:0:
300,312,60807,1,0,0:0:0:0:
300,312,61038,1,0,0:0:0:0:
288,208,61384,2,0,L|348:208,4,35,0|0|0|0|0,0:0|0:0|0:0|0:0|0:0,0:0:0:0:
252,188,62307,5,0,0:0:0:0:
252,188,62769,1,0,0:0:0:0:
176,68,63230,6,0,P|208:88|312:56,2,140,0|0|0,0:0|0:0|0:0,0:0:0:0:
172,148,64615,5,0,0:0:0:0:
172,148,64846,1,0,0:0:0:0:
172,148,65076,1,0,0:0:0:0:
136,224,65423,2,0,L|240:224,2,105,0|0|0,0:0|0:0|0:0,0:0:0:0:
72,248,66346,6,0,L|72:288,1,35,0|0,0:0|0:0,0:0:0:0:
144,252,66923,1,0,0:0:0:0:
216,252,67269,2,0,L|216:312,1,35,0|0,0:0|0:0,0:0:0:0:
304,252,67730,6,0,B|360:244|388:184|388:184|364:160|364:160|336:172,3,175,0|0|0|0,0:0|0:0|0:0|0:0,0:0:0:0:
338,171,69692,1,0,0:0:0:0:
338,171,69923,1,0,0:0:0:0:
338,171,70153,1,0,0:0:0:0:
338,171,70384,1,0,0:0:0:0:
338,171,70615,1,0,0:0:0:0:
344,96,70846,2,0,L|416:96,2,70,0|0|0,0:0|0:0|0:0,0:0:0:0:
248,76,71653,2,0,L|152:160,5,105,0|0|0|0|0|0,0:0|0:0|0:0|0:0|0:0|0:0,0:0:0:0:
232,180,73730,2,0,L|308:184,2,70,0|0|0,0:0|0:0|0:0,0:0:0:0:
92,56,74653,5,0,0:0:0:0:
92,56,74884,1,0,0:0:0:0:
168,56,75230,2,0,L|244:56,1,70,0|0,0:0|0:0,0:0:0:0:
320,56,75807,1,0,0:0:0:0:
320,56,76038,1,0,0:0:0:0:
404,56,76269,2,0,L|404:136,1,70
404,224,76846,2,0,L|320:224,2,70,0|0|0,0:0|0:0|0:0,0:0:0:0:
404,144,77653,5,0,0:0:0:0:
404,144,77884,1,0,0:0:0:0:
408,60,78230,2,0,L|344:60,1,70
256,64,78923,1,0,0:0:0:0:
256,64,79153,1,0,0:0:0:0:
160,60,79500,2,0,L|88:60,1,70
64,152,79961,2,0,B|60:240|60:228,3,70,0|0|0|0,0:0|0:0|0:0|0:0,0:0:0:0:
64,328,81000,5,0,0:0:0:0:
64,328,81230,1,0,0:0:0:0:
152,332,81576,2,0,L|216:328,1,35
248,332,82038,1,0,0:0:0:0:
248,332,82269,1,0,0:0:0:0:
336,332,82615,2,0,L|412:328,3,70,0|0|0|0,0:0|0:0|0:0|0:0,0:0:0:0:
256,192,83653,12,0,87000,0:0:0:0:
