osu file format v13

[General]
AudioFilename: Jewelpet Happiness OP2Run With U.mp3
AudioLeadIn: 0
PreviewTime: -1
Countdown: 0
SampleSet: Normal
StackLeniency: 0.7
Mode: 0
LetterboxInBreaks: 1
WidescreenStoryboard: 1

[Editor]
DistanceSpacing: 0.6
BeatDivisor: 4
GridSize: 4
TimelineZoom: 1

[Metadata]
Title:Run With U
TitleUnicode:Run With U
Artist:SONIC GROOVE
ArtistUnicode:SONIC GROOVE
Creator:LuCy200131
Version:Hard
Source:Jewelpet
Tags:Jewelpet
BeatmapID:507630
BeatmapSetID:212873

[Difficulty]
HPDrainRate:4
CircleSize:4
OverallDifficulty:3
ApproachRate:5
SliderMultiplier:1.4
SliderTickRate:1

[Events]
//Background and Video events
Video,0,"Jewelpet Happiness - Run With U.avi"
0,0,"1010173_145286405664425_602073446_n.jpg",0,0
//Break Periods
//Storyboard Layer 0 (Background)
//Storyboard Layer 1 (Fail)
//Storyboard Layer 2 (Pass)
//Storyboard Layer 3 (Foreground)
//Storyboard Sound Samples
//Background Colour Transformations
3,100,163,162,255

[TimingPoints]
0,461.538461538462,4,1,1,49,1,0
115,-98.0392156862745,4,1,1,49,0,0
5307,-200,4,1,1,49,0,0
6000,-100,4,1,1,49,0,0
6923,-66.6666666666667,4,1,1,49,0,1
9692,-100,4,1,1,49,0,0
10038,-66.6666666666667,4,1,1,49,0,0
10153,-66.6666666666667,4,1,1,49,0,1
13024,-100,4,1,1,49,0,0
19269,-57.1428571428571,4,1,1,49,0,0
20462,-100,4,1,1,49,0,0
22153,-57.1428571428571,4,1,1,49,0,0
23307,-100,4,1,1,49,0,0
28961,-57.1428571428571,4,1,1,49,0,0
29538,-66.6666666666667,4,1,1,49,0,0
31615,-66.6666666666667,4,1,1,49,0,0
31961,-66.6666666666667,4,1,1,49,0,0
37615,-66.6666666666667,4,1,1,49,0,1
43677,-100,4,1,1,49,0,0
50884,-100,4,1,1,49,0,1
56212,-100,4,1,1,49,0,0
62769,-100,4,1,1,49,0,0
63230,-66.6666666666667,4,1,1,49,0,1
68460,-100,4,1,1,49,0,0
81097,-57.1428571428571,4,1,1,49,0,0
82846,-100,4,1,1,49,0,0
82846,-100,4,1,1,49,0,0
83538,-100,4,1,1,49,0,1
86958,-100,4,1,1,49,0,0

[HitObjects]
252,188,4846,5,8,0:0:0:0:
276,168,4961,1,8,0:0:0:0:
308,148,5076,1,0,0:0:0:0:
340,136,5307,2,8,L|420:136,2,71.400000435791,8|8|8,0:0|0:0|0:0,0:0:0:0:
256,136,6576,5,0,0:0:0:0:
172,88,6807,6,0,P|104:56|56:68,1,105,0|0,0:0|0:0,0:0:0:0:
168,176,7384,2,0,B|128:160|64:168|36:224,1,140
188,280,8076,2,0,B|144:264|116:272|72:348,1,140
77,338,8653,1,0,0:0:0:0:
128,340,8884,1,0,0:0:0:0:
164,340,9115,1,0,0:0:0:0:
200,344,9346,1,0,0:0:0:0:
240,348,9576,1,0,0:0:0:0:
432,344,10038,6,0,B|464:328|496:280|500:224,1,140
352,272,10500,2,0,B|412:252|424:216|436:148,1,157.500006008148
272,212,11192,2,0,B|332:208|352:164|376:104,1,157.500006008148
220,148,11769,2,0,B|276:144|288:108|324:28,1,157.500006008148
328,36,12346,1,0,0:0:0:0:
292,28,12461,1,0,0:0:0:0:
264,28,12576,1,0,0:0:0:0:
236,24,12692,1,0,0:0:0:0:
208,24,12807,1,0,0:0:0:0:
256,192,13038,5,8,0:0:0:0:
96,28,13500,6,0,B|64:72|72:96|152:52,1,105
420,40,14076,2,0,L|412:148,2,105,0|0|0,0:0|0:0|0:0,0:0:0:0:
248,80,15230,5,0,0:0:0:0:
248,272,15576,1,0,0:0:0:0:
408,188,15923,1,0,0:0:0:0:
140,180,16269,2,0,L|88:180,2,35,0|0|0,0:0|0:0|0:0,0:0:0:0:
140,180,16961,5,0,0:0:0:0:
176,152,17192,1,0,0:0:0:0:
208,132,17423,1,0,0:0:0:0:
240,116,17653,1,0,0:0:0:0:
264,104,17884,1,0,0:0:0:0:
264,104,18115,2,0,B|288:248|288:248|348:144|392:220,1,280,0|0,0:0|0:0,0:0:0:0:
380,208,19269,5,0,0:0:0:0:
416,184,19384,1,0,0:0:0:0:
444,160,19500,1,0,0:0:0:0:
456,132,19615,1,0,0:0:0:0:
444,96,19730,1,0,0:0:0:0:
444,96,19961,2,0,B|392:56|400:32|400:32|360:56|360:56|340:68|312:32,1,175
319,41,20423,1,0,0:0:0:0:
288,40,20538,1,0,0:0:0:0:
256,192,20769,5,0,0:0:0:0:
52,332,21115,5,0,0:0:0:0:
56,284,21230,1,0,0:0:0:0:
72,248,21346,1,0,0:0:0:0:
92,228,21461,1,0,0:0:0:0:
180,48,22153,6,0,L|304:48,1,105,8|4,0:0|0:0,0:0:0:0:
264,340,22961,2,0,L|148:344,2,61.2500005841255,8|0|4,0:0|0:0|0:0,0:0:0:0:
160,188,23423,6,0,P|156:152|184:128,1,70
304,224,23884,2,0,P|360:212|356:160,1,105
248,32,24461,5,0,0:0:0:0:
252,192,24807,1,0,0:0:0:0:
368,104,25153,1,0,0:0:0:0:
144,116,25500,1,0,0:0:0:0:
252,116,25846,1,0,0:0:0:0:
252,116,26076,1,0,0:0:0:0:
252,116,26307,2,0,B|288:176|344:160|352:184,1,105,0|0,0:0|0:0,0:0:0:0:
80,128,27000,6,0,L|80:184,1,35
256,176,27346,2,0,L|256:108,1,35,0|0,0:0|0:0,0:0:0:0:
472,128,27692,2,0,L|472:184,3,35,0|0|0|0,0:0|0:0|0:0|0:0,0:0:0:0:
464,200,28153,1,0,0:0:0:0:
436,224,28269,1,0,0:0:0:0:
412,248,28384,1,0,0:0:0:0:
384,260,28500,1,0,0:0:0:0:
344,264,28615,1,0,0:0:0:0:
304,248,28961,2,0,B|272:184|272:184|348:160|348:160|300:72,2,245,0|0|0,0:0|0:0|0:0,0:0:0:0:
180,172,30115,6,0,L|232:172,1,52.5000020027161,0|0,0:0|0:0,0:0:0:0:
300,144,30576,1,0,0:0:0:0:
336,132,30692,1,0,0:0:0:0:
356,124,30807,1,0,0:0:0:0:
384,104,30923,1,0,0:0:0:0:
412,88,31038,1,0,0:0:0:0:
440,72,31153,1,0,0:0:0:0:
468,64,31269,1,0,0:0:0:0:
48,108,31730,6,0,B|48:168|48:168|84:168,1,78.7500030040742,0|0,0:0|0:0,0:0:0:0:
144,104,32192,2,0,B|148:168|148:168|124:172,1,78.7500030040742,0|0,0:0|0:0,0:0:0:0:
96,136,32538,1,12,0:0:0:0:
204,188,33230,2,0,B|200:240|200:240|256:244,1,105.000004005432,0|0,0:0|0:0,0:0:0:0:
324,196,33692,2,0,B|324:256|324:256|272:256,1,105.000004005432,0|0,0:0|0:0,0:0:0:0:
256,216,34153,1,12,0:0:0:0:
44,128,34500,2,0,B|36:192|36:192|88:196,1,105.000004005432
160,132,35076,2,0,B|160:208|160:208|120:208,1,105.000004005432
100,160,35653,1,12,0:0:0:0:
256,192,36000,12,0,37615,0:0:0:0:
88,48,37961,5,0,0:0:0:0:
120,48,38076,1,0,0:0:0:0:
144,48,38192,1,0,0:0:0:0:
184,56,38307,2,0,B|244:56|244:56|244:108,1,105.000004005432
404,152,38884,6,0,L|404:224,1,52.5000020027161,0|0,0:0|0:0,0:0:0:0:
116,136,39230,2,0,L|116:200,1,52.5000020027161
316,152,39576,2,0,L|312:208,1,52.5000020027161
216,144,39923,2,0,L|212:320,2,157.500006008148,0|0|0,0:0|0:0|0:0,0:0:0:0:
264,144,40961,1,0,0:0:0:0:
300,144,41076,1,0,0:0:0:0:
332,80,41423,1,0,0:0:0:0:
332,80,41538,1,0,0:0:0:0:
332,80,41653,1,0,0:0:0:0:
332,80,41769,1,0,0:0:0:0:
332,80,41884,2,0,B|268:80|248:36|248:36|216:96|216:96|160:52,2,210.000008010865,0|0|0,0:0|0:0|0:0,0:0:0:0:
256,192,43153,5,0,0:0:0:0:
252,188,43269,1,0,0:0:0:0:
256,192,43384,1,0,0:0:0:0:
256,192,43500,1,0,0:0:0:0:
256,192,43615,1,0,0:0:0:0:
256,192,43730,2,0,L|376:192,5,105,0|0|0|0|0|0,0:0|0:0|0:0|0:0|0:0|0:0,0:0:0:0:
252,68,45807,5,0,0:0:0:0:
252,68,46038,1,0,0:0:0:0:
256,184,46384,6,0,L|408:184,4,140,0|0|0|0|0,0:0|0:0|0:0|0:0|0:0,0:0:0:0:
256,76,48461,1,0,0:0:0:0:
256,76,48692,1,0,0:0:0:0:
256,76,48923,1,0,0:0:0:0:
256,76,49153,1,0,0:0:0:0:
256,76,49384,1,0,0:0:0:0:
256,76,49615,1,0,0:0:0:0:
252,176,49961,6,0,L|292:176,2,35,0|8|0,0:0|0:0|0:0,0:0:0:0:
252,176,50423,2,0,L|192:180,2,35,0|8|4,0:0|0:0|0:0,0:0:0:0:
60,64,50884,5,0,0:0:0:0:
96,64,51000,1,0,0:0:0:0:
128,64,51115,2,0,B|204:64|204:64|200:100|200:100|232:100,3,140,0|0|0|0,0:0|0:0|0:0|0:0,0:0:0:0:
324,96,52730,5,0,0:0:0:0:
324,96,52846,1,0,0:0:0:0:
64,168,53076,6,0,L|64:232,1,35
440,172,53423,2,0,L|440:224,1,35
168,236,53769,2,0,L|168:176,1,35
356,256,54115,2,0,L|356:188,1,35
268,148,54461,2,0,L|264:292,3,140,0|0|0|0,0:0|0:0|0:0|0:0,0:0:0:0:
196,196,56307,6,0,L|348:192,4,140,0|0|0|0|0,0:0|0:0|0:0|0:0|0:0,0:0:0:0:
256,64,58500,1,0,0:0:0:0:
256,64,58730,1,0,0:0:0:0:
200,196,59076,2,0,L|352:192,4,140,0|0|0|0|0,0:0|0:0|0:0|0:0|0:0,0:0:0:0:
252,76,61269,1,0,0:0:0:0:
252,76,61500,1,0,0:0:0:0:
252,180,62423,5,0,0:0:0:0:
436,188,62769,1,0,0:0:0:0:
440,240,62884,1,0,0:0:0:0:
440,280,63000,1,0,0:0:0:0:
444,332,63230,2,0,B|392:328|392:328|376:280|376:280|332:280,2,140,0|0|0,0:0|0:0|0:0,0:0:0:0:
96,256,64153,6,0,P|56:216|88:176,1,105.000004005432
200,244,64615,2,0,P|156:208|172:168,1,105.000004005432
292,220,64961,2,0,P|240:144|288:32,2,210.000008010865,0|2|2,0:0|0:0|0:0,0:0:0:0:
80,232,66461,2,0,P|36:192|64:152,1,105.000004005432
448,224,66923,2,0,P|500:192|468:132,1,105.000004005432
340,224,67500,2,0,P|376:176|368:116,1,105.000004005432
176,232,67961,2,0,P|152:176|184:84,4,157.500006008148,0|0|0|0|0,0:0|0:0|0:0|0:0|0:0,0:0:0:0:
376,176,69923,5,0,0:0:0:0:
376,176,70615,1,0,0:0:0:0:
376,176,71076,1,0,0:0:0:0:
104,248,71538,2,0,P|64:208|96:124,4,140,0|0|0|0|0,0:0|0:0|0:0|0:0|0:0,0:0:0:0:
356,136,73846,1,0,0:0:0:0:
356,136,74307,1,0,0:0:0:0:
416,232,74653,6,0,P|384:288|332:304,1,105
284,192,75230,2,0,P|244:248|196:264,1,105
188,136,75807,2,0,P|156:172|72:172,2,105,0|0|0,0:0|0:0|0:0,0:0:0:0:
224,32,76615,2,0,L|284:32,5,35,0|0|0|0|0|0,0:0|0:0|0:0|0:0|0:0|0:0,0:0:0:0:
328,80,77769,6,0,P|392:56|444:88,1,105
340,188,78346,2,0,P|380:160|456:216,1,140
340,296,79038,2,0,P|384:272|440:304,2,105,0|0|0,0:0|0:0|0:0,0:0:0:0:
224,280,79961,2,0,L|224:328,6,35,0|0|0|0|0|0|0,0:0|0:0|0:0|0:0|0:0|0:0|0:0,0:0:0:0:
252,96,80884,5,12,0:0:0:0:
100,304,81115,2,0,P|32:260|56:176,1,175
220,280,81692,2,0,P|164:240|152:96,1,183.750001752377,0|0,0:0|0:0,0:0:0:0:
316,252,82269,2,0,P|264:216|228:100,1,183.750001752377,0|0,0:0|0:0,0:0:0:0:
92,104,82846,2,0,L|152:100,3,35,0|0|0|0,0:0|0:0|0:0|0:0,0:0:0:0:
288,96,83423,5,0,0:0:0:0:
288,96,83538,1,0,0:0:0:0:
256,192,83769,12,0,86884,0:0:0:0:
