osu file format v7

[General]
AudioFilename: Snow - Sakasama no Chou.mp3
AudioLeadIn: 2
PreviewTime: 34739
Countdown: 0
SampleSet: Soft
StackLeniency: 0.7
Mode: 0
LetterboxInBreaks: 1
SkinPreference:Default

[Editor]
Bookmarks: 24406,44739,66406
DistanceSpacing: 0.699999988079071
BeatDivisor: 2
GridSize: 8

[Metadata]
Title:Sakasama no Chou (TV Size)
Artist:SNoW
Creator:FuukoLover
Version:Normal
Source:Jigoku Shoujo
Tags:Enma Ai Inversed Butterfly Dusty

[Difficulty]
HPDrainRate:4
CircleSize:4
OverallDifficulty:4
SliderMultiplier:1.1
SliderTickRate:0.5

[Events]
//Background and Video events
0,0,"Background.jpg"
Video,0,"hell_girl_op1.avi"
//Break Periods
//Storyboard Layer 0 (Background)
//Storyboard Layer 1 (Fail)
//Storyboard Layer 2 (Pass)
//Storyboard Layer 3 (Foreground)
Sprite,Foreground,Centre,"butterfly.png",570,100 L,44906,64 S,0,0,340,1,0.9 S,0,340,680,0.91,1 F,0,44905,46406,0,1 F,0,87439,87906,1,0
//Storyboard Sound Samples
//Background Colour Transformations
3,100,163,162,255

[TimingPoints]
2740,333.333333333333,4,2,1,70,1,0
42406,-100,4,2,1,30,0,0
43406,-100,4,2,1,17,0,0
44406,-100,4,2,1,0,0,0
44739,-100,4,2,1,55,0,0
64752,-100,4,2,1,36,0,0
65406,-100,4,2,1,20,0,0
66073,-100,4,2,1,0,0,0
66239,-100,4,2,1,70,0,0
66739,-100,4,2,1,70,0,1
86739,-100,4,2,1,50,0,0
87906,-100,4,2,1,50,0,1
87948,-100,4,2,1,50,0,0

[Colours]
Combo1 : 179,15,15
Combo2 : 44,39,80
Combo3 : 199,199,199

[HitObjects]
256,312,2740,1,4
408,312,3406,2,0,B|464:224|400:136|400:136,2,165,2|2|0
328,312,4740,2,0,B|328:200|328:200,1,110,8|0
328,128,5406,1,2
272,72,5739,1,0
200,56,6073,1,8
200,136,6406,6,0,B|200:208|200:208,2,55
200,56,7073,1,2
128,72,7406,1,8
72,128,7739,1,2
304,128,8739,6,0,B|304:248|304:248,2,110,8|0|2
384,128,9740,1,0
464,128,10073,2,0,B|464:248|464:248,2,110,8|0|2
464,48,11073,5,0
384,48,11406,1,8
304,48,11739,1,2
224,48,12073,2,0,B|200:224|384:168|384:168,2,220,0|8|4
72,56,14073,6,0,B|72:136|48:88|48:216|48:216,2,110,8|0|0
152,56,15073,1,2
232,56,15406,1,8
312,56,15739,1,2
392,56,16073,2,0,B|512:56|512:56,2,110,0|0|8
392,136,17073,6,0,B|392:208|392:208,2,55,0|0|2
320,104,17739,1,0
240,112,18073,1,8
168,144,18406,2,0,B|168:264|168:264,1,110,2|0
288,344,19406,6,0,B|288:232|288:232,2,110,8|0|2
368,344,20406,1,0
432,296,20739,1,8
472,232,21073,1,2
472,152,21406,1,2
256,192,21739,12,4,24073
336,296,24739,6,0,B|400:272|456:320|512:296|512:296,2,165,8|2|0
256,296,26073,1,8
256,296,26406,1,2
176,80,27406,2,0,B|112:56|56:104|0:80|0:80,2,165,8|2|0
256,80,28739,1,8
256,80,29073,1,0
64,208,30073,6,0,B|96:288|72:328|-16:320|-16:320,2,165,8|2|0
40,136,31406,2,0,B|40:24|40:24,1,110,8|2
152,104,32406,6,0,B|240:104|240:104,2,55,8|0|2
152,184,33073,1,0
152,184,33239,1,2
288,304,34073,2,0,B|288:192|288:192,1,110,8|0
288,120,34739,1,4
232,64,35073,6,0,B|80:64|80:64,2,110,0|8|0
288,120,36073,1,2
288,200,36406,1,2
344,256,36739,2,0,B|464:256|464:256,1,110,8|0
456,176,37406,1,2
400,120,37739,6,0,B|248:120|248:120,2,110,0|8|2
456,176,38739,1,0
400,232,39073,2,0,B|248:232|248:232,2,110,0|8|2
456,176,40073,1,4
400,120,40406,6,0,B|400:48|400:48,2,55,0|0|8
400,200,41073,2,0,B|400:272|400:272,2,55,0|0|8
256,192,41739,12,0,44406
416,48,45073,5,0
416,128,45406,2,0,B|416:240|416:240,2,110,4|0|8
344,160,46406,1,2
272,192,46740,2,0,B|272:304|272:304,2,110,0|2|8
192,192,47739,5,0
168,264,48073,1,2
120,200,48406,1,0
96,272,48739,1,8
48,208,49073,2,0,L|48:72|48:72,3,110,0|2|0|8
128,96,50406,6,0,B|184:72|240:128|264:88|264:88,1,110,0|4
312,120,51073,1,0
376,168,51406,1,8
400,240,51739,6,0,B|344:264|288:208|264:248|264:248,1,110
216,232,52406,1,2
216,232,52573,1,2
160,336,53073,6,0,B|80:336|80:336,2,55,0|0|8
240,336,53739,1,0
240,336,53906,1,2
320,336,54239,2,0,B|440:328|400:208|400:208,1,165,2|2
400,144,55073,1,0
400,64,55406,1,8
320,64,55739,5,0
240,64,56073,2,0,B|240:184|240:184,2,110,4|0|8
168,96,57073,1,2
160,176,57406,2,0,B|160:304|160:304,2,110,2|0|8
240,176,58406,5,0
304,128,58739,1,2
368,176,59073,1,0
304,224,59406,1,8
304,304,59739,2,0,B|160:304,2,110,0|0|0
304,224,60739,1,8
224,224,61073,5,0
224,144,61406,1,4
224,224,61739,1,2
224,304,62073,1,8
304,304,62406,2,0,B|440:304|424:144,1,220,2|0
424,160,63239,1,0
256,192,63739,12,0,66073
256,192,66406,5,0
336,192,66739,2,0,B|464:192|464:192,2,110,4|0|8
256,192,67739,1,0
176,192,68073,2,0,B|64:192|64:192,2,110,0|0|8
176,112,69073,6,0,B|176:40|176:40,2,55
256,120,69739,1,2
328,144,70073,1,8
328,224,70406,2,0,B|448:224|448:224,3,110,2|0|2|8
440,304,71739,6,0,L|328:304|328:304,3,110,0|4|2|8
264,264,73072,2,0,L|144:264|144:264,3,110,0|2|0|8
160,184,74406,2,0,B|400:184|160:144|448:168|448:168,2,275
160,104,76406,1,2
160,24,76739,1,8
240,24,77073,6,0,B|240:168|240:168,3,110,0|4|0|8
240,134,78406,2,0,B|240:272|240:272,3,110,0|0|0|8
240,244,79739,2,0,B|240:368|240:368,3,110,0|0|0|8
312,328,81073,1,0
376,288,81406,2,0,B|376:104|376:104,1,165,2|2
272,120,82406,5,0
192,120,82739,2,0,B|192:8|192:8,2,110,4|0|8
192,200,83739,2,0,B|192:328|192:328,3,110,0|2|0|8
256,192,85073,12,0,86739
256,168,86906,6,8,B|256:232|256:232,6,55,8|8|8|8|8|8|4
