osu file format v7

[General]
AudioFilename: Snow - Sakasama no Chou.mp3
AudioLeadIn: 2
PreviewTime: 34739
Countdown: 0
SampleSet: Soft
StackLeniency: 0.7
Mode: 0
LetterboxInBreaks: 1
SkinPreference:Default

[Editor]
Bookmarks: 24406,44739,66406
DistanceSpacing: 0.600000023841858
BeatDivisor: 4
GridSize: 8

[Metadata]
Title:Sakasama no Chou (TV Size)
Artist:SNoW
Creator:FuukoLover
Version:Jigoku Fuuko
Source:Jigoku Shoujo
Tags:Enma Ai Inversed Butterfly Dusty

[Difficulty]
HPDrainRate:7
CircleSize:4
OverallDifficulty:7
SliderMultiplier:1.4
SliderTickRate:0.5

[Events]
//Background and Video events
0,0,"Background.jpg"
Video,0,"hell_girl_op1.avi"
//Break Periods
//Storyboard Layer 0 (Background)
//Storyboard Layer 1 (Fail)
//Storyboard Layer 2 (Pass)
//Storyboard Layer 3 (Foreground)
Sprite,Foreground,Centre,"butterfly.png",570,100 L,44906,64 S,0,0,340,1,0.9 S,0,340,680,0.91,1 F,0,44905,46406,0,1 F,0,87439,87906,1,0
//Storyboard Sound Samples
//Background Colour Transformations
3,100,163,162,255

[TimingPoints]
2740,333.333333333333,4,2,1,66,1,0
42406,-100,4,2,1,30,0,0
43406,-100,4,2,1,17,0,0
44406,-100,4,2,1,0,0,0
44739,-100,4,2,1,75,0,0
64752,-100,4,2,1,36,0,0
65406,-100,4,2,1,20,0,0
66073,-100,4,2,1,0,0,0
66239,-100,4,2,1,70,0,0
66739,-100,4,2,1,70,0,1
76906,-100,4,2,1,82,0,0
86739,-100,4,2,1,0,0,0
86823,-100,4,2,1,64,0,0
87906,-100,4,2,1,66,0,1
87948,-100,4,2,1,66,0,0

[Colours]
Combo1 : 179,15,15
Combo2 : 44,39,80
Combo3 : 199,199,199

[HitObjects]
256,312,2740,1,4
96,264,3406,1,8
56,248,3573,1,2
32,208,3739,1,0
24,168,3906,1,2
24,128,4073,1,0
104,128,4406,1,2
144,128,4573,1,0
184,128,4739,1,8
272,128,5073,2,0,B|336:96|384:168|424:120|424:120,3,140,0|0|2|8
416,216,6406,6,0,B|416:288|416:288,2,70
376,144,7073,1,2
304,104,7406,1,8
224,112,7739,1,2
24,264,8739,6,0,B|24:384|24:384,2,70,8|0|2
24,224,9239,1,0
24,184,9406,1,0
80,128,9740,1,2
152,88,10073,2,0,B|152:208|152:208,2,70,8|0|2
232,88,10739,1,0
240,168,11073,5,0
312,120,11406,1,8
392,104,11739,1,2
472,112,12073,2,0,B|456:280|256:256|256:256,2,280,0|8|4
392,104,13739,1,0
312,136,14073,6,0,B|208:136|248:112|144:128|144:128,2,140,8|2|0
384,176,15073,1,2
440,240,15406,1,8
384,304,15739,1,2
296,304,16073,2,0,B|176:304|176:304,4,70,0|0|2|0|8
312,224,17073,6,0,B|384:224|384:224,2,70,0|0|2
240,176,17739,1,0
200,248,18073,1,8
128,288,18406,2,0,B|128:168|128:168,1,70,2|0
128,48,19239,6,0,B|240:48|240:48,3,70,0|8|0|0
240,48,19906,1,0
280,48,20073,1,0
360,80,20406,1,2
416,144,20739,1,8
448,224,21073,1,2
256,320,21739,5,0
384,192,22073,1,8
256,64,22406,1,2
256,320,23073,1,0
128,192,23406,1,8
256,64,23739,1,0
256,64,24073,1,4
136,64,24739,6,0,B|-8:64|-8:64,2,140,8|0|2
200,120,25739,1,0
256,176,26073,1,8
312,248,26406,2,0,B|480:216|480:216,2,140,0|2|0
200,248,27406,2,0,B|32:216|32:216,2,140,8|0|2
256,328,28406,5,0
256,56,28739,1,8
256,248,29073,1,0
256,136,29406,1,2
128,248,30073,6,0,B|96:168|112:144|136:88|136:88,2,140,8|2|0
208,280,31073,1,0
288,280,31406,1,8
368,256,31739,2,0,B|400:176|384:152|360:96|360:96,1,140,0|2
288,120,32406,6,0,B|288:48,2,70,0|0|8
248,192,33073,1,0
208,184,33239,1,2
152,248,33573,1,0
176,208,33739,1,2
80,232,34073,2,0,B|80:88|80:88,1,140,8|0
160,80,34739,1,4
232,48,35073,6,0,B|384:48|384:48,2,140,0|8|0
232,136,36073,1,2
232,216,36406,1,2
163,281,36739,2,0,B|251:329|323:265|323:265,1,140,8|0
232,216,37406,1,2
296,160,37739,6,0,B|448:160|448:160,2,140,0|8|2
232,216,38739,1,0
168,272,39073,2,0,B|16:272|16:272,2,140,0|8|2
232,216,40073,1,4
304,256,40406,6,0,B|304:328|304:328,2,70,0|0|8
208,104,41073,2,0,B|208:32|208:32,2,70,0|0|8
256,192,41739,12,0,44406
56,80,45073,5,0
56,120,45239,1,0
56,160,45406,2,0,B|56:320|56:320,2,140,4|0|8
136,128,46406,1,2
176,144,46573,1,0
208,176,46740,2,0,B|208:336|208:336,2,140,0|2|8
288,176,47739,6,0,B|400:176|400:176,2,70
288,264,48406,1,0
216,312,48739,1,8
136,304,49073,2,0,L|40:208|40:208,2,70
216,312,49739,1,0
256,296,49906,1,0
288,264,50073,1,8
288,176,50406,5,0
368,144,50739,1,4
288,176,51073,1,0
288,176,51239,2,0,B|120:176|120:176,1,140
104,176,51739,1,0
104,264,52073,1,0
176,304,52406,1,2
136,288,52573,1,0
264,304,53073,5,0
304,288,53239,1,0
336,256,53406,2,0,B|304:208|176:144|176:144,1,140,2|2
254,109,53906,2,0,B|347:154|430:253|430:253,1,210,0|2
488,216,54739,1,8
488,176,54906,1,0
480,136,55073,1,8
456,96,55239,1,0
424,72,55406,1,8
360,80,55739,5,0
320,96,55906,1,0
280,120,56073,2,0,B|280:272|280:272,2,140,4|0|8
200,88,57073,1,0
128,48,57406,2,0,B|128:200|128:200,2,140,2|0|8
200,88,58406,5,0
280,80,58739,1,2
344,136,59073,1,0
352,216,59406,1,8
344,296,59739,2,0,B|256:328,2,70,0|2|0
352,216,60406,1,2
360,176,60573,1,0
344,136,60739,1,8
224,208,61073,5,0
168,144,61406,1,4
136,224,61739,1,2
160,264,61906,1,0
200,288,62073,1,8
280,288,62406,2,0,B|392:296|368:160,2,140,0|2|0
280,288,63239,1,2
256,192,63739,12,0,66073
256,192,66406,5,0
312,192,66573,1,2
368,192,66739,2,0,B|520:192|520:192,2,140,4|0|8
256,192,67739,1,0
200,192,67906,1,2
144,192,68073,2,0,B|-8:192|-8:192,2,140,0|0|8
160,80,69073,6,0,B|80:32,2,70
272,48,69739,1,2
384,64,70073,1,8
472,136,70406,2,0,B|480:256|336:232|336:232,1,140
280,232,71073,1,0
280,232,71239,1,0
176,104,71739,6,0,L|16:104|16:104,2,140,0|4|0
224,136,72573,2,0,B|328:136|328:136,1,70,0|10
320,248,73072,2,0,L|464:248|464:248,2,140,0|0|0
288,296,73906,2,0,B|184:296|184:296,1,70,0|8
96,264,74406,5,0
120,208,74573,1,0
144,152,74739,2,0,B|144:8|144:8,2,140,2|0|8
224,184,75739,2,0,B|224:328|224:328,1,140,0|2
264,328,76239,1,0
312,320,76406,1,8
352,288,76573,1,0
368,240,76739,1,8
368,112,77073,6,0,B|368:16|368:16,2,70,0|0|4
256,128,77739,1,0
160,176,78073,1,8
104,264,78406,2,0,B|200:346|200:346,2,70,0|0|2
80,152,79073,2,0,B|96:56,2,70,0|0|8
192,168,79739,6,0,B|192:256|192:256,2,70,0|0|2
264,112,80406,1,0
344,112,80739,1,8
400,176,81073,2,0,B|464:240|464:240,2,70
464,120,81739,2,0,B|416:64,1,70,0|0
288,104,82406,5,0
352,48,82739,2,0,B|264:-16|176:72|176:72,2,140,4|0|8
288,104,83739,1,0
288,192,84073,1,2
288,272,84406,2,0,B|288:376|288:376,1,70
256,192,85073,12,0,86739
330,190,86906,5,8
298,142,87073,1,8
242,126,87239,1,8
194,158,87406,1,8
186,214,87573,1,8
226,254,87739,1,8
282,262,87906,1,4
