osu file format v9

[General]
AudioFilename: NightmarRe.mp3
AudioLeadIn: 0
PreviewTime: 55680
Countdown: 0
SampleSet: Soft
StackLeniency: 0.7
Mode: 0
LetterboxInBreaks: 1

[Editor]
Bookmarks: 33608,59100,59743,73037,127672,128529
DistanceSpacing: 0.9
BeatDivisor: 4
GridSize: 8

[Metadata]
Title:NightmaRe
Artist:SNoW
Creator:Lizzehb
Version:Midnight Revenge
Source:Jigoku Shoujo
Tags:lepidopodus imuffin muffin SapphireGhost

[Difficulty]
HPDrainRate:4
CircleSize:4
OverallDifficulty:7
ApproachRate:6
SliderMultiplier:1.6
SliderTickRate:2

[Events]
//Background and Video events
0,0,"BG3.jpg"
//Break Periods
2,14300,15622
2,83086,89122
2,151657,152765
//Storyboard Layer 0 (Background)
//Storyboard Layer 1 (Fail)
//Storyboard Layer 2 (Pass)
//Storyboard Layer 3 (Foreground)
//Storyboard Sound Samples
//Background Colour Transformations
3,100,163,162,255

[TimingPoints]
815,428.571428571429,4,2,0,90,1,0
55672,-100,4,2,0,90,0,1
83100,-100,4,2,0,90,0,0
124243,-100,4,2,0,90,0,1
151672,-100,4,2,0,90,0,0

[Colours]
Combo1 : 163,67,35
Combo2 : 44,53,75
Combo3 : 199,199,199
Combo4 : 158,35,35

[HitObjects]
256,192,5957,12,0,7672
240,104,8100,6,0,B|136:128|192:232|192:232|128:304,1,240
72,288,8957,1,0
104,352,9172,1,0
175,348,9386,2,0,B|235:378|310:313|250:239|250:239|290:202,1,240
415,143,10457,2,0,B|415:63,1,80
415,144,10886,1,0
340,143,11100,1,0
254,27,11529,1,2
253,98,11743,1,2
48,328,12386,5,0
304,152,12814,1,0
48,328,13243,1,0
192,328,13672,2,8,B|280:328,1,80
341,243,14100,1,4
256,192,16672,5,0
256,192,17100,1,0
256,192,17529,1,0
256,192,17957,12,0,19672
112,104,21600,5,2
112,104,21815,1,0
112,104,22029,1,2
112,104,22243,2,0,B|208:160|104:240,1,160
320,112,23315,6,0,B|320:192,1,80
320,264,23743,1,0
320,192,23957,2,0,B|400:192,2,80
128,88,25029,6,2,B|192:88,6,40
280,232,26100,2,0,B|280:144,2,80
136,232,26957,2,0,B|56:232,1,80
80,304,27386,2,0,B|0:304,1,80
80,304,27815,1,0
224,328,28457,5,0
280,328,28672,1,0
336,328,28886,1,0
392,328,29100,1,0
448,328,29315,1,8
448,328,29529,1,8
464,208,30172,2,0,B|424:208,2,40
392,208,30600,1,0
320,208,30815,1,0
248,208,31029,1,8
176,208,31243,1,4
376,288,31886,6,0,B|448:272|432:216,1,80
368,216,32315,1,0
312,168,32529,2,0,B|240:208,1,80
176,232,32957,1,0
232,280,33172,1,0
224,160,33386,2,0,B|336:160|288:296,1,160
184,328,34029,1,0
128,288,34243,2,0,B|32:288,2,80
32,48,35315,6,2,B|88:84,3,40
144,88,35957,1,0
144,208,36172,1,8
240,144,36386,1,8
432,64,37029,6,2,B|396:120,3,40
364,38,37672,1,0
280,120,37886,1,8
352,216,38100,1,8
136,200,38743,6,0,B|136:288,2,80
208,192,39386,2,2,B|208:104,2,80
280,192,40029,1,0
352,192,40243,1,0
424,192,40457,1,8
384,256,40672,1,0
312,256,40886,5,8
352,320,41100,1,0
384,256,41315,1,8
424,192,41529,1,8
208,184,42172,5,0
120,104,42386,1,0
40,192,42600,1,0
120,280,42815,2,0,B|120:200,1,80
120,80,43243,1,0
480,32,43886,5,0
472,152,44100,1,0
360,192,44314,1,0
272,280,44529,2,0,B|216:368,2,80
136,112,45600,6,2,B|159:56,2,40
104,176,46029,1,2
72,240,46243,1,0
144,240,46457,1,2
112,304,46672,1,0
176,336,46886,1,2
216,272,47100,2,0,B|280:224,2,80,0|2|0
176,208,47743,2,0,B|224:272,1,80,0|2
176,208,48172,2,0,B|232:152,1,80
320,40,48815,6,0,B|256:128|192:32,1,160
256,160,49672,1,2
256,232,49886,1,2
320,192,50100,1,2
456,360,50743,6,2,B|496:336,2,40
424,296,51172,1,0
408,224,51386,2,0,B|302:242|352:352,1,160
360,128,52457,5,0
288,128,52672,1,0
288,200,52886,1,0
216,200,53100,1,0
72,200,53529,1,0
256,192,53957,12,0,55243
372,51,56100,5,0
328,115,56315,1,0
80,56,56743,5,0
120,112,56958,1,0
168,168,57172,1,0
176,240,57386,2,0,B|168:344|288:312,1,160
248,248,58029,1,4
296,112,58457,1,0
232,80,58672,1,0
176,128,58886,1,0
240,168,59100,2,0,B|368:240|368:112|472:184,1,240
128,80,60386,5,2
256,280,60814,1,2
384,72,61243,1,2
176,192,61672,1,8
296,192,61886,1,4
456,328,62743,6,0,B|360:328,2,80,0|8|0
440,232,63386,1,0
392,176,63600,1,8
344,232,63814,1,0
272,240,64029,5,8
224,184,64243,1,0
152,184,64457,1,8
120,248,64672,1,0
160,304,64886,5,8
232,304,65100,1,0
272,240,65315,2,0,B|336:192,1,80,8|0
392,144,65743,2,0,B|456:224,1,80,8|0
392,256,66172,1,8
392,328,66386,1,0
392,256,66600,1,8
256,192,68100,5,0
432,40,68529,1,2
432,40,68743,1,2
144,48,69600,5,0
144,120,69814,1,0
200,160,70029,1,0
256,120,70243,1,0
328,104,70457,2,0,B|448:88|392:224,1,160
328,184,71100,1,0
224,288,71529,2,0,B|272:216|176:216|256:136,1,160,0|8
216,80,72172,5,0
288,88,72386,1,0
320,152,72600,1,0
392,152,72815,2,0,B|464:112|528:200|496:240,1,160
432,224,73457,1,0
304,64,74100,5,4
128,304,74529,1,4
440,304,74957,1,4
304,64,75386,1,2
360,104,75600,1,2
416,144,75815,1,4
200,336,76672,6,0,B|232:264|152:264|208:184,1,160
236,44,77529,1,0
164,46,77743,1,0
195,110,77957,1,0
122,111,78172,1,0
168,248,78600,1,0
88,256,78815,2,0,B|100:366|224:312,1,160,0|4
320,288,79457,6,2,B|362:263,2,40
272,176,79886,1,0
320,288,80100,1,0
208,248,80314,1,0
376,80,80743,1,0
448,176,80957,1,0
400,288,81172,1,0
185,86,81600,5,0
182,157,81814,1,0
182,229,82029,1,0
96,312,82243,2,0,B|24:240|112:176,1,160
184,88,82886,1,4
328,208,90172,6,0,B|272:136,2,80
449,144,90815,2,0,B|400:208,2,80
224,88,91886,6,0,B|320:88,2,80
224,160,92529,1,0
152,160,92743,1,0
152,88,92957,1,2
416,80,93386,5,8
344,77,93600,2,0,B|256:77,1,80,0|8
191,76,94029,1,0
119,75,94243,1,8
88,140,94457,1,0
88,212,94672,1,8
140,260,94886,5,0
206,232,95100,1,8
277,233,95314,2,0,B|361:233,1,80,0|8
357,160,95743,1,0
428,154,95957,2,0,B|428:74,2,80,8|0|8
219,96,97029,6,0,B|155:88|171:152,2,80
282,130,97672,1,2
263,199,97886,1,2
191,205,98100,1,4
395,135,98743,5,0
396,206,98957,1,0
396,278,99172,1,0
396,206,99386,2,0,B|308:206,2,80,0|2|4
342,35,100457,6,2,B|248:35,2,80
343,107,101100,1,8
343,179,101315,1,0
350,250,101529,1,8
295,296,101743,2,0,B|328:352|256:352,1,80,0|8
222,283,102172,6,0,B|176:296|152:248,1,80
64,176,102600,2,0,B|64:88,1,80
184,104,103029,1,0
296,136,103243,2,0,B|256:192|384:192|328:280,1,160
216,280,103886,2,0,B|220:332|277:351,1,80
136,344,104314,1,0
136,224,104529,2,0,B|136:144,2,80
40,136,105600,6,0,B|40:56,2,80
160,136,106243,2,0,B|160:56,2,80
448,352,107315,2,0,B|504:288,2,80,0|8|0
376,256,107957,1,8
272,192,108172,1,0
168,256,108386,1,8
272,320,108600,1,0
376,256,108814,1,8
272,192,109029,1,0
224,80,109243,5,0
104,80,109457,1,0
272,192,109672,1,8
152,200,109886,1,0
32,192,110100,1,8
392,168,110743,6,2,B|427:145,2,40
320,264,111172,2,0,B|240:312,1,80
152,240,111600,2,0,B|184:176|72:176|120:96,1,160
352,64,112457,6,2,B|391:46,2,40
240,112,112886,1,0
128,160,113100,1,0
232,216,113315,2,0,B|144:296|272:352,1,160
464,200,114172,5,0
424,256,114386,1,8
360,280,114600,1,0
296,256,114814,1,8
96,112,115243,5,0
96,184,115457,2,0,B|96:272,1,80,0|2
168,240,115886,2,0,B|168:328,1,80,0|2
240,312,116315,2,0,B|328:312,1,80,0|2
392,312,116743,2,0,B|392:232,1,80,0|4
456,24,117600,6,0,B|408:96,1,80
344,120,118029,1,0
280,88,118243,1,0
216,128,118457,1,8
280,160,118672,1,8
112,312,119315,6,0,B|208:336,1,80
256,336,119743,1,0
216,272,119957,1,0
280,232,120172,1,8
216,192,120386,1,8
392,64,121029,6,0,B|336:144,1,80
272,128,121457,1,0
304,192,121672,1,0
256,248,121886,1,8
304,304,122100,1,8
88,280,122743,6,2,B|137:279,2,40
85,207,123172,1,0
86,135,123386,1,0
157,133,123600,1,0
158,204,123814,1,0
424,328,124243,5,4
424,256,124457,1,8
424,32,124886,1,8
328,144,125315,2,0,B|360:128|336:208|384:176,2,80,0|2|0
264,120,125957,2,0,B|200:200|200:120|128:192,1,160
192,232,126600,1,8
424,280,127029,5,0
424,160,127243,1,0
424,40,127457,1,0
312,80,127672,2,0,B|120:192|312:328,1,320
144,120,128957,5,2
144,288,129386,1,2
360,288,129814,1,2
368,120,130243,1,8
368,48,130457,1,4
124,264,131315,6,2,B|176:264,2,40
56,264,131743,1,0
88,200,131957,1,8
160,200,132172,1,0
128,136,132386,1,8
200,136,132600,5,0
168,72,132814,1,8
240,72,133029,1,0
312,72,133243,1,8
312,144,133457,5,0
376,104,133672,1,8
448,96,133886,2,0,B|472:128|456:168|432:184,1,80,0|8
408,232,134315,2,0,B|396:270|355:281|328:272,1,80,0|8
288,232,134743,1,0
336,176,134957,1,8
288,232,135172,1,0
24,340,136243,5,2
112,276,136672,1,0
200,216,137100,1,8
244,184,137314,1,8
379,45,138172,5,8
328,96,138386,1,0
376,152,138600,1,8
328,208,138814,1,0
384,256,139029,2,0,B|328:320,2,80,0|8|0
448,296,139672,1,0
456,152,140100,5,4
371,66,140315,1,4
271,169,140743,1,8
199,169,140957,1,0
233,232,141172,1,8
161,239,141386,2,0,B|97:183|89:311|-7:207,1,160
63,174,142029,1,8
256,96,142672,5,4
256,240,143100,1,4
256,96,143529,1,2
152,192,143957,1,4
80,192,144172,1,4
416,64,145243,6,0,B|320:64|320:176,1,160
176,112,146100,1,0
160,184,146315,1,2
232,208,146529,1,0
280,152,146743,1,2
248,88,146957,1,0
176,112,147172,1,2
56,128,147386,2,0,B|-8:176|0:256|64:288,1,160
152,288,148029,6,2,B|201:288,2,40
256,232,148457,1,8
256,352,148672,1,0
168,283,148886,1,0
256,64,149315,1,8
256,64,149529,1,8
256,65,149743,1,8
192,304,150172,5,2
120,305,150386,1,0
156,243,150600,1,2
86,222,150815,2,0,B|94:174|166:158|190:158|238:214|230:230,1,160
299,283,151457,1,4
256,192,153815,5,0
256,192,154243,1,0
256,192,154672,1,0
256,192,155100,12,0,158529
