osu file format v6

[General]
AudioFilename: tokyo.mp3
AudioLeadIn: 0
PreviewTime: 46047
Countdown: 0
SampleSet: Soft
StackLeniency: 0.7
Mode: 0
LetterboxInBreaks: 1

[Editor]
Bookmarks: 63473,70973
DistanceSpacing: 1.10000002384186
BeatDivisor: 2
GridSize: 8

[Metadata]
Title:Tokyo
Artist:SMiLE.dk
Creator:Sushi971
Version:Normal
Source:
Tags:

[Difficulty]
HPDrainRate:5
CircleSize:3
OverallDifficulty:5
SliderMultiplier:1.4
SliderTickRate:2

[Events]
//Background and Video events
0,0,"smiledk.jpg"
//Break Periods
2,63653,69753
//Storyboard Layer 0 (Background)
Sprite,Background,Centre,"slow.png",320,240 F,0,114870,115091,0,1 S,0,114870,115091,0.3079999,0.4719998 M,0,115091,,183,330 F,0,115091,116414,1 F,0,116414,116856,1,0
Sprite,Background,Centre,"slow.png",320,240 M,0,115091,,183,330 S,0,115091,,0.4880002 F,0,115091,115311,1,0 F,0,115311,,0 F,0,115311,,0 F,0,115532,,1 F,0,115532,,1 F,0,115532,115753,1,0 F,0,115753,,0 F,0,115753,,0 F,0,115973,,1 F,0,115973,,1 F,0,115973,116194,1,0
Sprite,Background,Centre,"fast.png",320,240 F,0,127223,127444,0,1 M,0,127444,,263,356 S,0,127444,,0.4559999 F,0,127444,128326,1,0.9954751 F,0,128326,128767,0.9954751,0
Sprite,Background,Centre,"fast.png",320,240 M,0,127444,,263,356 S,0,127444,,0.4720001 F,0,127444,127664,1,0 F,0,127885,128106,1,0.00454545
//Storyboard Layer 1 (Fail)
//Storyboard Layer 2 (Pass)
//Storyboard Layer 3 (Foreground)
//Storyboard Sound Samples
//Background Colour Transformations
3,100,163,162,255

[TimingPoints]
21542,441.176470588235,4,1,0,100,1,0
45751,-100,4,1,0,0,0,0
46027,-100,4,1,0,100,0,0
62019,-100,4,2,0,100,0,0
63233,-100,4,1,0,100,0,0
77130,-100,4,2,0,100,0,0
77791,-100,4,1,0,100,0,0
83306,-100,4,2,0,100,0,0
84630,-100,4,1,0,100,0,0
87497,-100,4,2,0,100,0,0
94115,-100,4,1,0,100,0,0
96928,-100,4,1,0,0,0,0
97203,-100,4,1,0,100,0,0
113196,-100,4,2,0,100,0,0
114961,-100,4,1,0,100,0,0
115291,-200,4,2,0,100,0,0
128196,-100,4,1,0,100,0,0
129078,-100,4,1,0,48,0,0
129244,-100,4,1,0,35,0,0
129354,-100,4,1,0,28,0,0
129464,-100,4,1,0,25,0,0
129575,-100,4,1,0,20,0,0
129685,-100,4,1,0,16,0,0
129795,-100,4,1,0,20,0,0
129905,-100,4,1,0,28,0,0
130016,-100,4,1,0,31,0,0
130126,-100,4,1,0,34,0,0
130236,-100,4,1,0,43,0,0
130347,-100,4,1,0,49,0,0
130457,-100,4,1,0,65,0,0
130567,-100,4,1,0,74,0,0
130678,-100,4,1,0,82,0,0
130788,-100,4,1,0,92,0,0
130898,-100,4,1,0,93,0,0
132222,-100,4,1,0,0,0,0
132497,-100,4,1,0,100,0,0
148711,-100,4,2,0,100,0,0
150365,-100,4,1,0,100,0,1
167681,-100,4,2,0,100,0,0
174078,-100,4,2,0,0,0,0

[Colours]
Combo1 : 75,255,255
Combo2 : 255,255,0
Combo3 : 0,255,255
Combo4 : 255,200,0

[HitObjects]
64,192,21542,1,0
120,192,21762,1,0
176,192,21983,1,8
176,304,22424,2,0,B|256:304|288:232,3,140,0|8|0|8
328,128,24189,1,0
360,88,24409,1,0
408,64,24630,1,4
480,152,25071,5,0
496,208,25292,1,0
480,264,25512,1,8
400,336,25953,2,0,B|336:376|264:336,3,140,0|8|0|8
168,280,27718,1,0
128,248,27939,2,8,B|104:232|104:184,2,70
128,248,28600,5,0
240,248,29042,1,8
240,136,29483,2,0,B|304:136|304:192|400:192,1,140,0|8
367,189,30144,1,0
479,189,30586,1,0
479,133,30806,2,0,B|479:53|367:53,2,140,8|2|4
367,133,32130,5,0
311,133,32350,1,0
255,133,32571,1,8
199,133,32792,1,0
143,133,33012,2,0,B|143:221|231:221,2,140,0|8|0
143,21,34336,1,8
143,21,34556,1,8
31,21,34997,5,4
31,21,35218,1,4
31,132,35659,5,0
31,244,36100,1,8
143,244,36542,1,0
255,244,36983,1,8
311,244,37203,2,0,B|383:244|431:172,2,140
255,244,38306,2,2,B|183:244|127:308,1,140,2|4
80,208,39189,5,0
80,152,39409,1,0
136,152,39630,2,0,B|136:296,1,140,8|0
136,352,40292,1,0
192,352,40512,1,8
248,352,40733,6,0,B|344:352|376:280,3,140,0|0|0|8
368,294,42277,1,8
256,192,42718,5,0
256,192,42939,1,0
256,192,43159,1,8
200,192,43380,1,0
144,192,43600,2,0,B|40:192,1,70,8|0
16,192,44042,2,0,B|16:264,2,70,0|0|4
256,192,44703,12,0,45806
256,40,46247,6,0,B|352:40|352:136,2,140,0|8|0
104,40,47571,1,8
104,120,47792,2,2,B|104:280,1,140
256,224,48674,5,0
336,224,48894,2,0,B|432:224,1,70
456,168,49336,2,0,B|360:168,2,70,8|0|4
256,48,50439,1,0
256,48,50660,1,0
72,192,51321,5,0
72,272,51542,2,0,B|72:352|168:352,1,140
219,297,52203,1,0
273,352,52424,2,2,B|366:352|366:272,1,140,2|4
256,168,53306,5,0
256,88,53527,1,0
256,8,53747,2,0,B|328:8|400:64,2,140,8|0|8
256,8,54850,2,2,B|184:8|112:64,2,140,2|2|0
256,88,55953,5,0
256,168,56174,1,0
256,248,56394,1,8
256,328,56615,2,0,B|424:328|424:128,1,280
423,147,57718,1,0
200,192,58380,5,0
280,192,58600,1,8
280,112,58821,1,0
200,112,59042,1,8
200,32,59262,1,0
280,32,59483,2,2,B|376:32|376:112,1,140,2|4
504,192,60365,5,0
504,192,60586,1,0
392,296,61027,2,0,B|72:296,1,280,0|0
256,192,62130,12,4,63453
160,248,70953,6,0,B|304:248,1,140,0|8
352,152,71836,2,0,B|208:152,1,140,0|8
160,152,72497,2,2,B|72:152|40:256,1,140
40,280,73159,1,8
152,264,73600,1,0
264,248,74041,1,8
336,336,74483,5,0
392,320,74703,1,0
424,272,74924,2,0,B|480:216|480:120,2,140,8|0|8
368,272,76027,1,0
312,272,76247,2,0,B|200:272,3,70,0|0|8|0
128,272,77350,5,2
128,272,77571,1,2
128,160,78012,5,0
240,160,78453,1,8
128,160,78894,1,0
240,160,79336,1,8
296,160,79556,2,2,B|408:160|440:88,2,140
296,104,80659,1,0
296,216,81100,1,8
200,160,81541,5,0
144,160,81762,1,0
88,160,81983,2,0,B|88:312,1,140,8|0
120,344,82644,1,0
176,344,82865,2,0,B|256:344,1,70,8|0
360,344,83527,6,0,B|361:274|361:274|431:274|431:274|431:204|431:204|351:204,1,280,0|0
192,192,85071,5,8
192,192,85291,1,0
192,192,85512,1,8
248,192,85733,1,0
304,192,85953,2,0,B|376:192,2,70,8|0|0
304,192,86615,2,0,B|304:48,1,140
304,52,87277,1,4
192,48,87718,5,0
136,48,87939,1,0
80,48,88159,1,2
80,160,88600,2,0,B|136:160|152:208|216:208,2,140,4|2|0
80,216,89703,1,0
80,272,89924,1,2
80,328,90144,1,0
80,328,90365,1,0
304,336,91247,5,0
248,336,91468,1,0
192,336,91689,1,2
192,280,91909,1,0
192,224,92130,2,0,B|192:128|272:128,3,140,0|2|0|2
328,128,93674,1,0
384,128,93894,1,0
384,240,94336,5,0
384,240,94777,1,0
384,240,95218,1,0
384,240,95659,1,4
256,192,95880,12,0,96983
256,272,97424,6,0,B|328:272,3,70,0|0|8|0
400,272,98306,1,0
480,272,98527,1,0
480,192,98747,1,8
480,112,98968,2,2,B|480:24|384:24,1,140,2|4
256,96,99850,5,0
200,152,100071,2,0,B|128:224,2,70,0|0|8
256,96,100733,2,0,B|320:32|384:32|384:240,1,280
383,235,101836,1,0
152,240,102497,5,0
72,240,102718,2,0,B|32:240|16:192|32:144|72:144,1,140,8|0
152,144,103380,1,0
232,144,103600,2,2,B|272:144|288:192|272:240|232:240,1,140,2|4
360,328,104483,6,0,B|360:264|416:264|416:192,1,140,0|8
416,128,105144,1,0
360,80,105365,2,0,B|288:152,1,70
256,184,105806,2,0,B|192:120,3,70,8|0|0|4
72,64,106909,5,0
32,128,107130,2,0,B|-8:200|8:272,1,140,0|8
6,262,107791,2,0,B|30:350|102:374|247:335,1,280,0|0
240,337,108894,1,0
424,192,109556,6,0,B|336:192,1,70,0|8
280,192,109997,2,0,B|192:192,1,70,0|8
136,192,110439,1,0
56,192,110659,2,0,B|56:112|160:112,2,140,2|4|0
56,192,111762,5,0
56,344,112203,1,0
136,344,112424,1,8
216,344,112644,1,0
296,344,112865,1,8
376,344,113086,1,8
456,344,113306,6,0,B|456:240|328:240,3,140
224,240,115071,5,4
128,184,115512,5,0
96,184,115733,2,0,B|8:184|8:72,1,140
8,40,117056,2,2,B|96:40|168:120|248:120,1,245,2|4
256,176,119041,5,0
264,200,119262,2,0,B|320:288|328:272,3,70
320,280,120806,2,2,B|368:320|432:320|456:280|456:176,1,210,2|4
424,160,122571,5,0
400,144,122791,2,0,B|336:96,1,70
320,88,123453,1,0
296,80,123674,2,0,B|264:64|216:64,4,70
320,88,125659,5,2
320,144,126100,1,0
296,144,126321,1,0
272,144,126541,2,0,B|272:240,3,70,2|0|2|0
344,296,128306,5,0
344,352,128527,1,0
288,352,128747,1,0
232,352,128968,1,0
176,352,129189,6,0,B|112:352,7,35,0|0|0|0|0|0|0|0
112,352,130071,6,0,B|48:352,8,35,0|0|0|0|0|0|0|0|4
256,192,131174,12,0,132277
256,344,132718,6,0,B|160:344|160:248,2,140,0|8|0
408,344,134042,1,8
408,264,134263,2,2,B|408:104,1,140,2|4
256,160,135145,5,0
176,160,135365,2,0,B|80:160,2,70,0|0|8
176,80,136027,6,0,B|240:16|304:16|304:224,1,280
303,219,137130,1,0
176,168,137791,5,0
256,168,138012,2,0,B|296:168|312:120|296:72|256:72,1,140,8|0
176,72,138674,1,0
96,72,138894,2,2,B|56:72|40:120|56:168|96:168,1,140,2|4
256,72,139777,6,0,B|328:72|392:136,2,140,0|8|0
176,72,140880,1,0
176,152,141100,1,8
96,152,141321,2,2,B|8:152|0:272,1,140,2|4
96,360,142203,5,0
176,360,142424,2,0,B|264:360,2,70,0|0|8
176,280,143086,2,0,B|176:208|288:208|288:288|344:288|432:288,1,280
418,287,144189,1,0
416,56,144850,5,0
336,56,145071,2,0,B|336:160,2,70,8|0|8
256,56,145733,1,0
176,56,145953,2,0,B|32:56,2,140,2|4|0
176,56,147056,5,0
176,208,147497,1,0
176,288,147718,1,8
256,288,147939,1,0
256,368,148159,1,8
336,368,148380,1,8
336,288,148600,1,4
256,192,148821,12,4,149924
256,72,150365,6,0,B|136:72,1,70
152,144,150806,2,0,B|240:144,1,70,8|0
256,216,151247,2,0,B|144:216,1,70
112,216,151689,1,8
152,280,151909,2,2,B|240:360|304:360,1,140,2|4
408,296,152791,5,0
488,296,153012,1,0
448,232,153233,1,0
488,296,153453,1,8
408,296,153674,2,0,B|248:296|248:256|216:256|160:256|160:288|120:296,1,280
72,328,154777,1,0
248,176,155439,5,0
328,176,155659,2,0,B|408:176,1,70,8|0
456,232,156100,2,0,B|384:304,1,70,8|0
328,280,156541,2,2,B|136:280,1,140,2|4
56,192,157424,5,0
136,192,157644,1,0
216,192,157865,1,8
296,192,158086,1,0
376,192,158306,1,0
456,192,158527,1,0
456,272,158747,1,8
456,352,158968,2,0,B|256:352,2,140,2|4|0
456,272,160071,5,0
456,192,160291,1,0
376,192,160512,1,8
376,272,160733,2,0,B|80:272,1,280
96,272,161836,1,0
216,80,162497,5,0
216,80,162718,1,8
296,80,162939,1,0
296,80,163159,1,8
256,144,163380,1,0
256,144,163600,2,2,B|256:328,1,140,2|4
376,192,164483,5,0
376,192,164703,1,0
296,320,165144,1,0
216,320,165365,1,8
152,272,165586,1,0
216,224,165806,1,8
296,224,166027,1,8
360,272,166247,6,0,B|456:272|464:192,3,140
464,120,167791,5,0
464,40,168012,2,0,B|304:40,1,140,2|0
248,40,168674,1,0
248,120,168894,2,0,B|248:200,3,70,0|0|2|0
248,264,169777,5,0
168,256,169997,1,0
88,248,170218,1,2
88,96,170659,2,0,B|160:48|240:72,2,140,0|2|0
88,96,171762,1,0
256,192,172203,12,0,174189
