osu file format v6

[General]
AudioFilename: tokyo.mp3
AudioLeadIn: 0
PreviewTime: 46047
Countdown: 0
SampleSet: Soft
StackLeniency: 0.7
Mode: 0
LetterboxInBreaks: 1

[Editor]
Bookmarks: 63473,70973
DistanceSpacing: 1.20000004768372
BeatDivisor: 4
GridSize: 8

[Metadata]
Title:Tokyo
Artist:SMiLE.dk
Creator:Sushi971
Version:Hard
Source:
Tags:

[Difficulty]
HPDrainRate:7
CircleSize:4
OverallDifficulty:7
SliderMultiplier:1.6
SliderTickRate:2

[Events]
//Background and Video events
0,0,"smiledk.jpg"
//Break Periods
2,63653,70053
//Storyboard Layer 0 (Background)
Sprite,Background,Centre,"slow.png",320,240 F,0,114870,115091,0,1 S,0,114870,115091,0.3079999,0.4719998 M,0,115091,,297,228 F,0,115091,116414,1 F,0,116414,116856,1,0
Sprite,Background,Centre,"slow.png",320,240 M,0,115091,,297,228 S,0,115091,,0.4880002 F,0,115091,115311,1,0 F,0,115311,,0 F,0,115311,,0 F,0,115532,,1 F,0,115532,,1 F,0,115532,115753,1,0 F,0,115753,,0 F,0,115753,,0 F,0,115973,,1 F,0,115973,,1 F,0,115973,116194,1,0
Sprite,Background,Centre,"fast.png",320,240 F,0,127223,127444,0,1 M,0,127444,,465,243 S,0,127444,,0.4559999 F,0,127444,128326,1,0.9954751 F,0,128326,128767,0.9954751,0
Sprite,Background,Centre,"fast.png",320,240 M,0,127444,,465,243 S,0,127444,,0.4720001 F,0,127444,127664,1,0 F,0,127885,128106,1,0.00454545
//Storyboard Layer 1 (Fail)
//Storyboard Layer 2 (Pass)
//Storyboard Layer 3 (Foreground)
//Storyboard Sound Samples
//Background Colour Transformations
3,100,163,162,255

[TimingPoints]
21542,441.176470588235,4,1,0,100,1,0
45751,-100,4,1,0,0,0,0
46027,-100,4,1,0,100,0,0
62019,-100,4,2,0,100,0,0
63233,-100,4,1,0,100,0,0
77130,-100,4,2,0,100,0,0
77791,-100,4,1,0,100,0,0
83306,-100,4,2,0,100,0,0
84630,-100,4,1,0,100,0,0
87497,-100,4,2,0,100,0,0
94115,-100,4,1,0,100,0,0
96928,-100,4,1,0,0,0,0
97203,-100,4,1,0,100,0,0
113196,-100,4,2,0,100,0,0
114961,-100,4,1,0,100,0,0
115291,-200,4,2,0,100,0,0
128196,-100,4,1,0,100,0,0
129078,-100,4,1,0,48,0,0
129244,-100,4,1,0,35,0,0
129354,-100,4,1,0,28,0,0
129464,-100,4,1,0,25,0,0
129575,-100,4,1,0,20,0,0
129685,-100,4,1,0,16,0,0
129795,-100,4,1,0,20,0,0
129905,-100,4,1,0,28,0,0
130016,-100,4,1,0,31,0,0
130126,-100,4,1,0,34,0,0
130236,-100,4,1,0,43,0,0
130347,-100,4,1,0,49,0,0
130457,-100,4,1,0,65,0,0
130567,-100,4,1,0,74,0,0
130678,-100,4,1,0,82,0,0
130788,-100,4,1,0,92,0,0
130898,-100,4,1,0,93,0,0
132222,-100,4,1,0,0,0,0
132497,-100,4,1,0,100,0,0
148711,-100,4,2,0,100,0,0
150365,-100,4,1,0,100,0,1
167681,-100,4,2,0,100,0,0
174078,-100,4,2,0,0,0,0

[Colours]
Combo1 : 75,255,255
Combo2 : 255,255,0
Combo3 : 0,255,255
Combo4 : 255,200,0

[HitObjects]
256,32,21542,1,0
160,32,21762,1,0
64,32,21983,1,8
120,112,22203,2,0,B|216:112,2,80
64,192,22865,1,8
64,288,23086,2,2,B|64:336|120:336|184:336|184:376,2,160
64,192,24189,1,0
64,192,24409,1,0
64,192,24630,1,4
424,80,25071,6,0,B|480:96|496:152,2,80,0|0|8
336,48,25733,1,0
248,80,25953,2,0,B|192:96|176:152,2,80,0|0|8
336,48,26615,2,2,B|288:96|384:152|328:208,2,160
336,48,27718,1,0
288,128,27939,1,0
384,128,28159,1,4
336,216,28380,1,0
168,216,28600,6,0,B|168:112|64:120,2,160,0|8|0
360,216,29924,1,8
360,216,30144,1,0
304,32,30586,1,0
208,56,30806,1,8
152,136,31027,1,0
120,224,31247,2,2,B|88:328|0:328,1,160,2|4
336,328,32130,5,0
336,328,32350,1,0
336,232,32571,1,8
336,232,32792,1,0
432,232,33012,1,0
432,232,33233,1,0
432,136,33453,2,0,B|432:32|328:32,2,160,8|0|8
432,136,34556,1,0
120,192,34997,5,8
120,192,35218,1,8
432,248,35659,6,0,B|384:320|248:320,2,160,0|8|0
424,56,36983,1,8
424,152,37203,1,0
232,152,37644,1,0
328,152,37865,1,8
280,72,38086,1,0
184,72,38306,2,2,B|72:72|40:152,1,160,2|4
360,192,39189,5,0
264,192,39409,1,0
336,256,39630,1,8
240,256,39850,1,0
312,320,40071,1,0
216,320,40292,2,0,B|120:320,2,80,0|8|0
160,16,41174,5,0
352,16,41615,1,0
256,184,42056,1,8
256,184,42277,1,8
64,328,42718,5,0
80,232,42939,1,0
136,152,43159,1,8
224,120,43380,1,0
320,112,43600,2,0,B|432:112,1,80,8|0
488,144,44042,2,0,B|512:264,2,80,8|0|4
256,208,44703,12,0,45806
256,32,46247,6,0,B|320:120,2,80,0|0|8
256,152,46909,1,0
256,272,47130,1,0
136,272,47350,1,0
40,208,47571,1,8
40,88,47792,2,2,B|40:40|104:40|104:96|152:96|184:48,1,160
312,352,48674,5,0
424,304,48894,2,0,B|464:264|464:224,1,80,0|0
440,120,49336,1,8
336,56,49556,2,0,B|216:56|168:152,2,160,0|0|4
456,56,50659,1,4
24,192,51321,5,0
144,160,51542,2,0,B|224:80,1,80,8|0
200,224,51983,2,0,B|272:296,1,80,8|0
336,192,52424,2,10,B|512:192,1,160,2|4
224,24,53306,5,0
104,24,53527,1,0
104,144,53747,1,8
104,264,53968,1,0
200,192,54189,1,0
168,304,54409,1,0
128,192,54630,1,8
224,256,54850,2,2,B|304:304|400:304,1,160
504,8,55733,5,0
384,32,55953,1,0
296,112,56174,1,0
232,208,56394,1,8
152,296,56615,2,0,B|80:352|-16:352,2,160,0|0|4
152,296,57718,1,4
472,16,58380,5,0
416,120,58600,1,8
320,48,58821,1,0
264,152,59041,1,8
168,80,59262,1,0
112,184,59483,2,2,B|64:264|64:352,1,160,2|4
352,192,60365,5,0
352,192,60586,1,0
112,192,61027,1,0
232,192,61247,1,8
352,192,61468,1,0
472,192,61689,1,8
472,192,61909,1,0
368,256,62130,5,0
320,288,62240,1,2
272,320,62350,1,2
152,320,62571,1,0
152,320,62681,1,2
32,320,62902,1,0
32,320,63012,1,2
256,192,63453,5,4
256,192,70953,6,0,B|152:192,2,80,0|0|8
352,192,71615,1,0
448,192,71836,2,0,B|448:272|328:272,1,160,0|8
331,271,72497,2,0,B|208:271|208:351,1,160,0|0
112,344,73159,1,8
48,272,73380,1,0
144,280,73600,2,2,B|80:216,2,80,2|2|4
456,192,74483,5,0
456,96,74703,1,0
368,136,74924,1,8
368,232,75144,1,0
280,192,75365,1,0
280,96,75586,1,0
200,144,75806,2,0,B|160:144|112:112,2,80,8|0|0
296,144,76468,2,0,B|336:144|384:176,2,80,0|8|8
48,344,77350,5,2
48,344,77461,1,0
48,344,77571,1,2
256,96,78012,6,0,B|192:32|128:32,2,80,0|0|8
312,176,78674,1,0
368,256,78894,2,0,B|432:320|496:320,2,80,0|0|8
312,176,79556,2,0,B|200:176|200:272,1,160
200,360,80218,1,8
104,360,80439,1,0
104,264,80659,2,2,B|104:200|32:200|24:112,1,160,2|4
344,192,81541,5,0
248,192,81762,1,0
328,136,81983,1,8
296,224,82203,1,0
264,136,82424,1,0
168,136,82644,1,0
216,224,82865,1,8
120,224,83086,1,0
424,312,83527,5,0
328,312,83747,2,0,B|384:224,1,80,2|0
272,240,84189,2,0,B|208:344,1,80,2|0
72,32,85071,5,0
160,72,85292,1,0
232,136,85512,1,8
224,232,85733,1,0
288,152,85953,1,8
280,248,86174,1,0
352,312,86394,1,8
440,352,86615,1,0
120,360,87056,5,8
120,360,87277,1,4
112,40,87718,5,2
208,40,87939,1,0
304,40,88159,1,2
304,136,88380,1,0
304,184,88490,1,0
304,232,88600,2,0,B|304:344|184:344,2,160,4|0|2
304,232,89703,1,0
400,232,89924,1,2
400,232,90144,1,0
400,328,90365,2,0,B|208:328,1,160,0|0
256,8,91247,5,2
336,64,91468,1,0
256,120,91689,1,2
176,176,91909,1,0
215,203,92019,1,0
256,232,92130,2,0,B|320:288|416:288,2,160,2|0|2
176,280,93233,1,0
96,232,93453,1,2
64,144,93674,1,0
96,56,93894,6,0,B|160:16|264:16,3,160
256,192,95659,1,4
256,208,95880,12,0,96983
256,336,97424,5,0
184,240,97644,1,0
256,144,97865,1,8
328,240,98086,1,0
400,144,98306,1,0
328,48,98527,1,0
208,48,98747,1,8
88,48,98968,2,2,B|88:144|200:144,1,160,2|4
480,288,99850,5,0
360,288,100071,2,0,B|432:216,1,80,8|0
312,288,100512,1,0
432,288,100733,2,0,B|432:352|280:352,2,160,0|0|4
432,288,101836,1,4
56,128,102497,5,0
56,248,102718,1,8
176,248,102939,1,0
296,248,103159,2,0,B|352:248|352:200,2,80,8|0|2
56,248,104041,1,4
376,192,104483,5,0
256,192,104703,1,0
376,192,104924,1,8
376,72,105144,1,0
256,72,105365,1,0
256,192,105586,1,0
256,312,105806,1,8
136,312,106027,2,2,B|16:312|16:216,1,160,2|4
336,192,106909,5,0
440,136,107130,1,8
336,192,107350,1,0
440,136,107571,1,0
440,136,107791,2,0,B|368:80|272:96,2,160,0|0|4
440,256,108894,1,4
128,192,109556,5,0
200,96,109777,1,8
312,96,109997,1,0
384,192,110218,1,8
312,288,110439,1,0
200,288,110659,2,2,B|200:168|288:160|304:224|264:232|248:208,1,160,2|4
8,88,111541,5,0
128,88,111762,1,0
8,296,112203,1,0
104,224,112424,1,8
200,296,112644,1,0
296,224,112865,1,8
392,288,113086,1,0
392,168,113306,5,0
392,168,113416,1,2
392,168,113527,1,2
320,72,113747,5,0
320,72,113858,1,2
320,72,113968,1,2
192,72,114189,5,0
192,72,114300,1,2
192,72,114410,1,2
120,168,114630,5,0
120,168,114741,1,2
120,168,114851,1,2
256,240,115071,5,4
80,80,115512,5,0
80,128,115733,2,0,B|80:216,1,80,0|0
80,256,116394,1,0
80,304,116615,2,0,B|152:304,1,40
168,304,117056,6,0,B|240:304|280:240,1,120,0|2
296,208,117939,1,0
312,160,118159,1,2
312,160,118269,1,0
312,160,118380,1,0
312,112,118600,1,4
152,80,119041,5,0
152,128,119262,2,0,B|144:192|88:216,3,80
88,232,120806,6,0,B|40:288|16:344,1,120
72,328,121689,5,2
96,328,121799,1,0
120,328,121909,1,0
144,328,122019,1,0
168,328,122130,1,4
328,328,122571,5,0
280,328,122791,2,0,B|280:216,1,80
280,200,123453,1,0
280,152,123674,2,0,B|280:56,2,80
232,152,124777,5,2
208,152,124887,1,0
184,152,124997,1,0
160,152,125108,1,0
136,152,125218,1,4
136,232,125439,5,0
216,232,125659,2,0,B|256:232|248:288|312:288,1,80
360,280,126321,1,0
440,264,126541,2,0,B|488:264|504:184,1,80
512,136,127203,6,0,B|512:72|464:48|368:56,1,160
312,104,128306,1,4
240,40,128527,1,0
168,104,128747,1,0
96,40,128968,1,0
48,136,129189,5,0
40,184,129299,1,0
48,232,129409,1,0
80,264,129519,1,0
128,272,129630,5,0
168,248,129740,1,0
200,216,129850,1,0
232,184,129961,1,0
272,152,130071,5,0
312,128,130181,1,0
360,112,130291,1,0
408,128,130402,1,0
448,160,130512,5,0
464,208,130622,1,0
456,256,130733,1,0
440,304,130843,1,0
400,328,130953,5,4
256,208,131174,12,0,132277
256,352,132718,6,0,B|192:264,2,80,0|0|8
256,232,133380,1,0
256,112,133601,1,0
376,112,133821,1,0
472,176,134042,1,8
472,296,134263,2,2,B|472:344|408:344|408:288|360:288|328:336,1,160
200,32,135145,5,0
88,80,135365,2,0,B|48:120|48:160,1,80,0|0
72,264,135807,1,8
176,328,136027,2,0,B|296:328|344:232,2,160,0|0|4
56,328,137130,1,4
488,192,137792,5,0
368,224,138013,2,0,B|288:304,1,80,8|0
312,160,138454,2,0,B|240:88,1,80,8|0
176,192,138895,2,10,B|0:192,1,160,2|4
408,192,139777,5,0
288,192,139997,1,0
408,192,140218,1,8
408,72,140438,1,0
288,72,140659,1,0
288,192,140880,1,0
288,312,141100,1,8
168,312,141321,2,2,B|48:312|48:216,1,160,2|4
368,192,142203,5,0
472,136,142424,1,8
368,192,142644,1,0
472,136,142865,1,0
472,136,143085,2,0,B|400:80|304:96,2,160,0|0|4
472,256,144188,1,4
160,192,144850,5,0
232,96,145071,1,8
344,96,145291,1,0
416,192,145512,1,8
344,288,145733,1,0
232,288,145953,2,2,B|232:168|320:160|336:224|296:232|280:208,1,160,2|4
40,40,146836,5,0
40,40,147056,1,0
40,280,147497,1,0
40,160,147718,2,0,B|72:128|136:128,1,80,8|0
224,168,148159,2,0,B|280:208|328:208,2,80,8|0|4
64,192,148821,5,0
176,80,149041,1,2
336,80,149262,1,2
448,192,149483,1,0
256,360,149924,1,4
256,40,150365,6,0,B|200:136,1,80
320,56,150806,2,0,B|320:152,1,80,8|0
384,40,151247,2,0,B|440:136,1,80,0|0
488,216,151689,1,8
424,312,151909,2,2,B|296:320|288:232,1,160,2|4
64,24,152791,5,0
160,88,153012,1,0
192,200,153233,1,0
256,304,153453,1,8
376,336,153674,2,0,B|496:336|496:208,2,160,0|0|4
376,336,154777,1,4
456,40,155439,5,0
336,40,155659,1,8
304,152,155880,1,0
192,112,156100,1,8
128,216,156321,1,0
24,160,156541,2,2,B|16:64|144:40,1,160,2|4
256,336,157424,5,0
368,304,157644,1,0
256,336,157865,1,8
256,216,158086,1,0
256,336,158306,1,0
144,304,158527,1,0
256,336,158747,1,8
256,216,158968,2,2,B|256:32,1,160,2|4
456,192,159850,5,0
376,280,160071,1,0
256,312,160291,1,0
136,280,160512,1,8
56,192,160733,2,0,B|56:56|257:52|256:200,1,320,0|4
256,192,161836,1,4
496,192,162497,5,0
384,152,162718,1,8
448,256,162939,1,0
448,136,163159,1,8
384,240,163380,1,0
496,192,163600,2,2,B|328:192,1,160,2|4
56,40,164483,5,0
56,40,164703,1,0
256,168,165144,1,0
224,280,165365,2,0,B|152:184,1,80,8|0
280,280,165806,2,0,B|336:208,1,80,8|0
320,96,166247,6,0,B|256:7|192:96,3,160,4|0|0|0
256,200,167791,5,0
256,248,167902,1,0
256,296,168012,1,2
352,296,168233,1,0
352,248,168343,1,0
352,200,168453,1,2
352,104,168674,2,0,B|472:104,3,80,0|2|0|2
496,176,169556,1,0
496,272,169777,6,0,B|448:344,1,80
384,272,170218,1,2
288,272,170439,1,2
192,272,170659,1,0
96,272,170880,1,0
96,176,171100,1,2
192,176,171321,1,0
288,176,171541,2,0,B|288:72,1,80
96,72,172203,5,2
96,176,172424,1,2
96,272,172644,1,0
192,272,172865,1,2
256,208,173086,12,0,174189
