osu file format v6

[General]
AudioFilename: tokyo.mp3
AudioLeadIn: 0
PreviewTime: 46047
Countdown: 0
SampleSet: Normal
StackLeniency: 0.7
Mode: 0
LetterboxInBreaks: 1

[Editor]
Bookmarks: 63473,70973
DistanceSpacing: 0.800000011920929
BeatDivisor: 1
GridSize: 8

[Metadata]
Title:Tokyo
Artist:SMiLE.dk
Creator:Sushi971
Version:Easy
Source:
Tags:

[Difficulty]
HPDrainRate:4
CircleSize:3
OverallDifficulty:3
SliderMultiplier:0.9
SliderTickRate:2

[Events]
//Background and Video events
0,0,"smiledk.jpg"
//Break Periods
2,63653,69513
//Storyboard Layer 0 (Background)
//Storyboard Layer 1 (Fail)
//Storyboard Layer 2 (Pass)
//Storyboard Layer 3 (Foreground)
//Storyboard Sound Samples
//Background Colour Transformations
3,100,163,162,255

[TimingPoints]
21542,441.176470588235,4,1,0,100,1,0
45751,-100,4,1,0,0,0,0
46247,-100,4,1,0,100,0,1
63453,-100,4,1,0,100,0,0
77130,-100,4,2,0,100,0,0
77791,-100,4,1,0,100,0,0
83306,-100,4,2,0,100,0,0
84630,-100,4,1,0,100,0,0
87497,-100,4,2,0,100,0,0
94115,-100,4,1,0,100,0,0
96928,-100,4,1,0,0,0,0
97424,-100,4,1,0,100,0,1
113747,-100,4,1,0,100,0,0

[Colours]
Combo1 : 75,255,255
Combo2 : 255,255,0
Combo3 : 0,255,255
Combo4 : 255,200,0

[HitObjects]
168,184,21542,1,0
240,184,21983,1,0
312,184,22424,1,8
408,288,23306,1,0
336,288,23747,1,0
264,288,24189,1,8
128,240,25071,6,0,B|64:152|144:64,3,180,0|8|0|8
256,152,28600,5,4
256,224,29042,1,0
328,224,29483,1,8
472,224,30365,1,4
472,80,31247,1,8
328,80,32130,6,0,B|200:80,3,90,0|0|8|0
168,80,33894,1,0
96,80,34336,1,0
24,80,34777,1,4
96,208,35659,6,0,B|96:336|224:328,1,180,0|8
256,280,36983,1,0
312,328,37424,2,0,B|415:335|415:207,1,180,0|4
416,144,38747,1,4
344,144,39189,5,0
272,144,39630,1,0
200,144,40071,2,0,B|72:144|72:272,2,180,8|0|4
256,16,42718,6,0,B|352:16,3,90,0|8|0|8
256,208,44483,12,0,45806
256,88,46247,6,0,B|320:88|320:136,3,90,0|8|0|8
376,176,48012,2,0,B|448:176|448:240,3,90,0|8|0|8
448,288,49777,5,4
304,288,50659,1,4
160,288,51542,1,0
232,288,51983,1,8
232,216,52424,1,2
160,216,52865,1,2
88,216,53306,6,0,B|-8:216,3,90,0|8|0|8
24,288,55071,5,0
96,288,55512,1,8
168,288,55953,1,0
240,288,56394,1,8
312,288,56836,2,0,B|416:288|416:160,1,180,0|4
312,64,58600,6,0,B|272:16|208:16,2,90,0|8|0
312,64,59924,1,8
384,64,60365,2,0,B|384:160|280:232,1,180
240,256,61689,1,8
256,208,62130,12,4,63453
256,80,70953,6,0,B|384:80|384:192,1,180
384,248,72277,1,8
312,248,72718,2,0,B|208:248|208:208|120:208,1,180,0|4
64,336,74483,5,0
136,336,74924,1,0
136,264,75365,1,0
208,264,75806,1,8
280,264,76247,1,4
280,336,76689,1,0
424,336,77571,5,2
424,264,78012,5,0
352,264,78453,1,0
352,192,78894,2,0,B|352:96|200:96,2,180
352,192,81100,1,8
280,192,81541,6,0,B|208:192,2,45
280,264,82424,1,0
208,264,82865,1,8
96,264,83527,6,2,B|24:176,2,90
176,192,85071,2,0,B|136:144|184:96,3,90,0|8|0|0
171,109,86836,1,4
288,192,87718,6,0,B|336:192,4,45,2|0|2|0|4
288,264,89041,5,0
216,264,89483,1,2
144,264,89924,1,0
72,264,90365,1,2
72,120,91247,6,0,B|8:120,4,45,2|0|2|0|0
144,120,92571,1,0
144,48,93012,1,2
216,48,93453,1,0
256,208,93894,12,0,96983
256,88,97424,6,0,B|192:88|192:136,3,90,0|8|0|8
136,176,99189,2,0,B|64:176|64:240,3,90,0|8|0|8
64,288,100954,5,4
208,288,101836,1,4
352,288,102719,1,0
280,288,103160,1,8
280,216,103601,1,2
352,216,104042,1,2
424,216,104483,6,0,B|520:216,3,90,0|8|0|8
488,288,106248,5,0
416,288,106689,1,8
344,288,107130,1,0
272,288,107571,1,8
200,288,108013,2,0,B|96:288|96:160,1,180,0|4
200,64,109777,6,0,B|240:16|304:16,2,90,0|8|0
200,64,111101,1,8
128,64,111542,2,0,B|128:160|232:232,1,180
272,256,112866,1,8
256,208,113307,12,4,114630
