osu file format v5

[General]
AudioFilename: BUTTERFLY.mp3
AudioLeadIn: 0
PreviewTime: 28671
Countdown: 1
SampleSet: Normal
StackLeniency: 0.7
Mode: 0
LetterboxInBreaks: 1
EditorDistanceSpacing: 1

[Metadata]
Title:Butterfly
Artist:SMILE.dk
Creator:Mogsworth
Version:Standard
Source:Dance Dance Revolution 1st Mix
Tags:smile.dk butterfly dance dance revolution ddr 1st mix OMG SAMURAI JAPAN NIPPONESE

[Difficulty]
HPDrainRate:6
CircleSize:5
OverallDifficulty:5
SliderMultiplier:1.5
SliderTickRate:1

[Events]
//Background and Video events
0,0,"butterfly.jpg"
//Break Periods
2,43093,48804
//Storyboard Layer 0 (Background)
//Storyboard Layer 1 (Failing)
//Storyboard Layer 2 (Passing)
//Storyboard Layer 3 (Foreground)
//Storyboard Sound Samples
//Background Colour Transformations
3,100,0,255,0

[TimingPoints]
7360,444.444444444444,4,1,0,100,1,0
28693,-100,4,1,0,100,0,1
43360,-100,4,1,0,100,0,0
64248,-100,4,1,0,100,0,1
78582,-100,4,1,0,100,0,0

[Colours]
Combo1 : 54,54,54
Combo2 : 255,128,0
Combo3 : 128,128,255
Combo4 : 255,0,255

[HitObjects]
144,194,14471,2,0,L|144:242|196:242,1,75
245,241,14915,2,0,L|272:241|272:193,1,75
207,154,15360,1,2
357,154,15804,5,8
252,46,16248,6,0,L|147:46,1,75
147,115,16693,2,0,L|55:116,1,75
25,174,17137,1,2
175,175,17582,5,8
318,130,18026,5,0
319,280,18471,2,0,B|319:196,1,75
394,202,18915,2,0,B|315:202,1,75
244,198,19359,1,0
93,196,19804,6,0,L|71:227|109:271,4,75,0|0|2|8|4
244,198,21137,5,4
387,154,21582,6,0,L|435:154|435:206,1,75,0|0
433,255,22026,2,0,L|385:255|385:307,1,75,0|0
385,357,22471,1,2
235,358,22915,5,8
228,208,23359,6,0,L|118:208,1,75
77,208,23804,2,0,L|77:104,1,75
151,133,24248,1,2
301,138,24693,5,8
256,281,25137,5,0
197,142,25582,2,0,L|262:197,1,75
315,142,26026,2,0,L|250:197,1,75
256,280,26471,5,0
256,192,26915,12,4,28248
47,192,28693,6,2,L|206:192,1,150
271,192,29359,1,2
327,142,29582,1,2
471,103,30026,6,0,L|397:184,1,75
472,212,30471,2,0,L|398:293,1,75
474,320,30915,2,0,L|400:401,1,75,0|8
424,379,31359,1,2
374,317,31582,6,4,L|284:317,2,75
374,242,32248,6,2,L|215:242,1,150
148,239,32915,1,2
73,240,33137,1,2
199,316,33582,5,0
124,316,33804,1,0
49,317,34026,2,0,L|48:208,4,75,0|0|0|0|4
50,166,35359,5,4
199,194,35804,6,2,L|358:194,1,150
423,195,36471,1,2
423,119,36693,1,2
283,67,37137,6,0,L|180:67,1,75
132,67,37582,2,0,L|132:142,1,75
206,147,38026,2,0,L|281:147,1,75,0|8
281,147,38471,1,2
355,144,38693,6,4,L|355:53,2,75
368,217,39359,6,2,L|209:217,1,150
142,215,40026,1,2
67,215,40248,1,2
193,291,40693,5,0
267,290,40915,1,0
256,192,41137,12,4,42915
148,251,50026,6,0,L|73:251,1,75
74,326,50471,2,0,L|149:326,1,75
211,284,50915,1,2
360,286,51359,5,8
360,286,51582,5,0
361,211,51804,2,0,L|281:151,1,75
364,125,52248,2,0,L|284:65,1,75
302,4,52693,1,2
170,76,53137,5,8
310,128,53582,5,0
386,200,54026,2,0,B|307:200,1,75
311,278,54471,2,0,B|311:194,1,75
236,196,54915,1,0
121,292,55359,6,0,L|121:313|91:313|91:288,4,75,0|0|2|8|4
271,294,56693,5,4
271,294,56915,5,0
271,219,57137,2,0,L|228:219|228:152|269:151,1,150
343,151,57804,1,0
417,152,58026,1,2
380,297,58471,5,8
380,297,58693,5,0
381,222,58915,2,0,L|445:222|505:192,2,112.5
381,222,59804,1,2
231,219,60248,5,8
93,279,60693,5,0
45,136,61137,2,0,L|100:201,1,75
141,139,61582,2,0,L|87:207,1,75
93,278,62026,5,0
256,192,62471,12,4,63804
465,192,64248,6,2,L|306:192,1,150
241,192,64915,1,2
185,242,65137,1,2
41,281,65582,6,0,L|115:200,1,75
40,172,66026,2,0,L|114:91,1,75
38,64,66471,2,0,L|112:-17,1,75,0|8
91,5,66915,1,2
138,67,67137,6,4,L|228:67,2,75
138,142,67804,6,2,L|297:142,1,150
363,141,68471,1,2
363,215,68693,1,2
363,64,69137,5,0
437,64,69359,1,0
439,138,69582,2,0,L|439:235,4,75,0|0|0|0|4
439,288,70915,5,4
319,196,71359,6,2,L|160:196,1,150
95,195,72026,1,2
95,270,72248,1,2
235,323,72693,6,0,L|338:323,1,75
386,323,73137,2,0,L|386:248,1,75
312,243,73582,2,0,L|237:243,1,75,0|8
237,243,74026,1,2
163,246,74248,6,4,L|163:337,2,75
150,173,74915,6,2,L|309:173,1,150
376,176,75582,1,2
451,179,75804,1,2
325,99,76248,5,0
251,100,76471,1,0
256,192,76693,12,4,78471
