osu file format v5

[General]
AudioFilename: BUTTERFLY.mp3
AudioLeadIn: 0
PreviewTime: 28671
Countdown: 1
SampleSet: Normal
StackLeniency: 0.7
Mode: 0
LetterboxInBreaks: 1
EditorDistanceSpacing: 1.20000004768372

[Metadata]
Title:Butterfly
Artist:SMILE.dk
Creator:Mogsworth
Version:Heavy
Source:Dance Dance Revolution 1st Mix
Tags:smile.dk butterfly dance dance revolution ddr 1st mix OMG SAMURAI JAPAN NIPPONESE

[Difficulty]
HPDrainRate:7
CircleSize:6
OverallDifficulty:7
SliderMultiplier:1.6
SliderTickRate:1

[Events]
//Background and Video events
0,0,"butterfly.jpg"
//Break Periods
2,43115,49126
//Storyboard Layer 0 (Background)
//Storyboard Layer 1 (Failing)
//Storyboard Layer 2 (Passing)
//Storyboard Layer 3 (Foreground)
//Storyboard Sound Samples
//Background Colour Transformations
3,100,0,255,0

[TimingPoints]
7360,444.444444444444,4,1,0,100,1,0
28693,-100,4,1,0,100,0,1
43360,-100,4,1,0,100,0,0
64248,-100,4,1,0,100,0,1
78582,-100,4,1,0,100,0,0

[Colours]
Combo1 : 54,54,54
Combo2 : 255,128,0
Combo3 : 128,128,255
Combo4 : 255,0,255

[HitObjects]
66,227,14471,2,0,L|114:228|113:198|175:198,1,120
158,198,14915,1,0
243,234,15137,1,0
330,194,15360,1,2
335,289,15582,6,0,L|335:311|371:311|371:271,2,80,0|8|0
330,193,16248,6,0,L|226:118,1,120
230,121,16693,1,0
146,165,16915,1,0
61,120,17137,1,2
61,215,17360,6,0,L|61:237|25:237|25:197,2,80,0|8|0
157,220,18026,6,0,L|266:220,1,80,0|0
239,316,18471,2,0,L|348:316,1,80,0|0
320,220,18915,2,0,L|429:220,1,80,0|0
408,315,19359,2,0,L|446:315|446:259,1,80,0|0
441,176,19804,6,0,L|441:126|396:93,1,80,0|0
320,108,20248,2,0,L|296:126|296:176,1,80,0|8
296,179,20693,1,2
366,239,20915,6,0,L|366:298,2,40,4|4|4
366,334,21359,1,4
269,335,21582,6,0,L|231:335|231:291|170:291,1,120
190,291,22026,1,0
114,346,22248,1,0
39,284,22471,1,2
40,188,22693,6,0,L|40:166|76:166|76:206,2,80,0|8|0
135,191,23359,6,0,L|264:138,1,120
249,144,23804,1,0
329,192,24026,1,0
412,144,24248,1,2
416,240,24471,6,0,L|416:262|452:262|452:222,2,80,0|8|0
320,238,25137,6,0,L|211:238,1,80,0|0
238,334,25582,2,0,L|129:334,1,80,0|0
157,238,26026,2,0,L|48:238,1,80,0|0
69,333,26471,2,0,L|31:333|31:277,1,80,0|0
256,192,26915,12,6,28248
64,136,28693,6,2,L|79:98|135:66,1,80,2|2
162,160,29137,2,0,L|203:176|262:156,1,80,2|2
331,146,29582,2,0,L|369:131|401:75,1,80,2|8
484,96,30026,5,0
388,97,30248,1,0
293,80,30471,2,0,L|227:155,1,80
144,131,30915,2,0,L|197:71,1,80,0|8
197,72,31359,1,2
100,71,31582,6,0,L|54:71,2,40,4|4|4
99,166,32026,1,4
43,245,32248,6,2,L|58:283|114:315,1,80,2|2
186,319,32693,2,2,L|227:335|286:315,1,80,2|2
354,302,33137,2,2,L|388:283|403:245,1,80,2|8
306,242,33582,5,0
210,242,33804,1,0
256,192,34026,12,4,35359
448,136,35804,6,2,L|433:98|377:66,1,80,2|2
350,160,36248,2,2,L|309:176|250:156,1,80
181,146,36693,2,2,L|143:131|111:75,1,80,2|8
28,96,37137,5,0
124,97,37359,1,0
219,80,37582,2,0,L|285:155,1,80
368,132,38026,2,0,L|315:72,1,80,0|8
315,72,38471,1,2
412,71,38693,6,0,L|458:71,2,40,4|4|4
413,166,39137,1,4
469,244,39359,6,2,L|454:282|398:314,1,80,2|2
326,319,39804,2,2,L|285:335|226:315,1,80
157,302,40248,2,2,L|124:283|109:245,1,80,2|8
206,242,40693,5,0
301,242,40915,1,0
256,192,41137,12,2,42471
258,196,42915,5,4
230,99,50026,6,0,L|230:140|257:139|257:196,1,120
257,194,50471,1,0
304,273,50693,1,0
208,270,50915,1,2
256,352,51137,6,0,L|212:352,2,40,0|0|8
304,273,51582,5,0
360,195,51804,2,0,L|437:80,1,120
428,92,52248,1,0
361,23,52471,1,0
298,95,52693,1,2
202,93,52915,6,0,L|202:42,2,40
202,188,53359,1,8
129,251,53582,6,0,L|246:251,1,80
210,346,54026,2,0,L|321:346,1,80
293,249,54471,2,0,L|404:249,1,80
452,302,54915,2,0,L|487:302|487:238,1,80
486,161,55359,6,0,L|444:185|373:187,1,80
321,153,55804,2,0,L|279:129|208:127,1,80,0|8
245,128,56248,1,2
249,224,56471,6,0,L|308:224,2,40,4|4|4
177,287,56915,5,0
81,287,57137,2,0,L|81:224|54:224|54:144,1,160
150,153,57804,1,0
245,153,58026,1,2
243,248,58248,6,0,L|193:249,2,40,0|0|8
339,249,58693,5,0
434,246,58915,1,0
437,102,59248,1,0
340,103,59471,1,0
340,103,59582,1,0
391,183,59804,1,2
391,278,60026,6,0,L|391:343,2,40
294,277,60471,1,8
227,227,60693,6,0,L|130:227,1,80
52,241,61137,2,0,L|52:354,1,80
144,348,61582,2,0,L|248:348,1,80
314,314,62026,2,0,L|314:219,1,80
256,192,62471,12,6,63804
90,178,64248,6,2,L|48:144|58:115,1,80
143,78,64693,2,2,L|192:96|203:126,1,80
296,122,65137,2,2,L|306:96|355:78,1,80,2|8
441,119,65582,5,0
383,195,65804,1,0
315,263,66026,2,0,L|240:341,1,80
184,260,66471,2,0,L|259:338,1,80,0|8
256,223,66915,1,2
256,127,67137,5,4
256,127,67248,1,4
256,127,67359,1,4
256,223,67582,1,4
350,203,67804,6,2,L|384:161|408:169,1,80
412,264,68248,2,2,L|403:291|354:309,1,80
258,305,68693,2,2,L|210:288|200:262,1,80,2|8
147,181,69137,5,0
242,180,69359,1,0
256,192,69582,12,4,70915
422,178,71359,6,2,L|464:144|454:115,1,80
369,78,71804,2,2,L|320:96|309:126,1,80
216,122,72248,2,2,L|206:96|157:78,1,80,2|8
71,119,72693,5,0
129,195,72915,1,0
197,263,73137,2,0,L|272:341,1,80
328,260,73582,2,0,L|253:338,1,80,0|8
256,223,74026,1,2
256,127,74248,5,4
256,127,74359,1,4
256,127,74471,1,4
256,223,74693,1,4
162,203,74915,6,2,L|128:161|103:169,1,80
99,264,75359,2,2,L|109:291|158:309,1,80
253,305,75804,2,2,L|302:288|312:262,1,80,2|8
365,181,76248,5,0
270,180,76471,1,0
256,192,76693,12,2,78026
74,194,78471,5,4
169,194,78693,5,0
169,194,78804,1,0
169,194,78915,2,0,L|186:157|251:128,1,80,0|8
316,139,79359,2,0,L|352:156|369:193,1,80,0|8
305,265,79804,2,0,L|265:276|216:262,1,80,2|8
259,174,80248,5,0
236,80,80471,5,0
236,80,80582,1,0
236,80,80693,2,0,L|219:43|154:14,1,80,0|8
89,25,81137,2,0,L|53:42|36:79,1,80,0|8
100,151,81582,2,0,L|140:162|189:148,1,80,2|8
141,240,82026,5,0
236,246,82248,5,0
236,246,82359,1,0
236,246,82471,2,0,L|253:283|318:312,1,80,0|8
383,301,82915,2,0,L|419:284|436:247,1,80,0|8
372,175,83359,2,0,L|332:164|283:178,1,80,2|8
229,104,83804,5,4
69,104,84026,1,4
69,263,84248,1,4
229,263,84471,1,4
149,123,84693,1,6
150,282,84915,5,0
150,282,85026,1,0
150,282,85137,1,8
149,123,85359,1,0
245,123,85582,5,4
338,101,85804,5,0
338,101,85915,1,0
338,101,86026,2,0,L|375:118|404:183,1,80,0|8
393,248,86471,2,0,L|376:284|339:301,1,80,0|8
267,237,86915,2,0,L|256:197|270:148,1,80,2|8
176,193,87359,5,0
195,296,87582,5,0
195,296,87693,1,0
195,296,87804,2,0,L|158:279|129:214,1,80,0|8
140,149,88248,2,0,L|157:113|194:96,1,80,0|8
266,160,88693,2,0,L|277:200|263:249,1,80,2|8
353,196,89137,5,0
353,291,89359,5,0
353,291,89471,1,0
353,291,89582,2,0,L|336:328|271:357,1,80,0|8
206,346,90026,2,0,L|170:329|153:292,1,80,0|8
217,220,90471,2,0,L|257:209|306:223,1,80,2|8
256,192,90915,12,4,92248
