osu file format v5

[General]
AudioFilename: 112 Dear WOMAN.mp3
AudioLeadIn: 0
PreviewTime: 72720
Countdown: 0
SampleSet: Normal
StackLeniency: 0.7
Mode: 0
LetterboxInBreaks: 1
EditorBookmarks: 159120

[Metadata]
Title:Dear WOMAN
Artist:SMAP
Creator:Pasonia
Version:INIS Style Hard
Source:
Tags:naruto

[Difficulty]
HPDrainRate:3
CircleSize:3
OverallDifficulty:5
SliderMultiplier:2.5
SliderTickRate:2

[Events]
//Background and Video events
//Break Periods
2,56600,71520
2,106040,110640
2,134840,140400
//Storyboard Layer 0 (Background)
4,0,0,"SB\konohagakure.jpg",320,240 F,0,-2,-1,0,1 F,0,-1,0,1,0
//Storyboard Layer 1 (Failing)
//Storyboard Layer 2 (Passing)
//Storyboard Layer 3 (Foreground)
4,3,0,"SB\titlecard2.png",0,360 F,2,542,742,0,1 F,2,21840,22040,1,0 F,2,200000,200400,0,1 F,2,215760,216160,1,0 F,2,268000,268200,0,1 F,2,282960,283160,1,0
//Storyboard Sound Samples
//Background Colour Transformations
3,100,0,0,0

[TimingPoints]
10400,479.961603071754,4,1,0,100,1,0
72800,-100,4,1,0,100,0,1
112160,-100,4,1,0,100,0,0
159200,-100,4,1,0,100,0,1

[HitObjects]
472,184,25518,1,0
472,304,25758,1,2
368,368,25998,1,0
256,304,26238,1,0
256,304,26358,1,0
120,296,26598,2,2,B|16:272|16:144,1,187.5,2|6
256,40,27438,5,0
336,40,27678,2,0,B|328:120|248:120,1,125
256,200,28158,1,0
256,200,28398,2,2,B|416:184|416:16,1,250
40,184,29358,5,0
40,304,29598,1,2
144,368,29838,1,0
256,304,30078,1,0
256,304,30198,1,0
392,296,30438,2,2,B|496:272|496:144,1,187.5,2|6
256,40,31278,5,0
176,40,31518,2,0,B|184:120|264:120,1,125
256,200,31998,1,0
256,200,32238,2,2,B|96:184|96:16,1,250
472,224,33198,5,0
400,312,33438,2,0,B|264:312,1,125,4|0
144,312,33918,1,0
144,312,34038,1,0
40,224,34278,2,0,B|40:120|136:56,1,187.5,0|2
288,64,35118,5,0
392,128,35358,2,4,B|440:280|272:304,1,250
160,280,36077,2,0,B|48:152|184:72,1,250,0|4
256,368,37037,5,2
192,32,37517,2,0,B|328:32,1,125
381,110,37997,2,4,B|117:110,2,250
448,168,39197,5,2
256,232,39677,1,2
64,168,40157,1,2
256,96,40637,1,2
480,192,41117,5,4
480,312,41357,1,0
368,368,41597,1,0
256,312,41837,1,0
256,312,41957,2,2,B|152:320|72:256,1,187.5
24,176,42557,1,4
200,40,43037,6,0,B|256:80|328:32,1,125
374,101,43517,1,0
374,101,43757,2,2,B|256:176|120:96,1,250
64,56,44477,1,4
32,192,44957,5,4
32,312,45197,1,0
144,368,45437,1,0
256,312,45677,1,0
256,312,45797,2,2,B|360:320|440:256,1,187.5
488,176,46397,1,4
312,40,46877,6,0,B|256:80|184:32,1,125
138,101,47357,1,0
138,101,47597,2,2,B|256:176|392:96,1,250
448,56,48316,1,4
376,320,48796,6,2,B|256:384|120:312,1,250
168,192,49516,1,0
168,192,49636,2,2,B|256:232|360:192,1,187.5
256,40,50236,1,4
256,136,50716,5,0
144,48,50956,1,0
32,136,51196,1,0
72,232,51436,2,2,B|256:320|448:224,1,375,2|6
480,96,52396,5,0
256,24,52876,1,0
120,40,53116,2,0,B|-64:256|136:440|400:432|488:192,1,750
256,56,55516,5,0
96,328,55996,1,0
416,328,56476,1,4
256,48,72795,5,4
88,336,73274,1,4
424,336,73754,1,4
256,336,74234,5,2
256,224,74474,1,0
368,224,74714,1,2
256,48,75074,1,0
144,224,75434,1,0
72,136,75674,2,2,B|464:136,1,375
480,344,77114,5,0
344,344,77354,1,0
344,344,77474,1,0
136,344,77834,1,0
32,264,78074,1,0
168,264,78314,1,0
168,264,78434,1,0
376,264,78794,1,4
512,64,79274,5,0
392,64,79514,1,2
192,64,79874,1,0
0,64,80234,1,4
256,368,80954,5,0
192,256,81194,1,0
320,256,81434,1,4
480,136,81914,1,4
256,48,82394,1,4
32,136,82874,1,4
144,152,83354,5,2
256,152,83714,1,2
368,152,84074,1,2
352,344,84554,2,2,B|136:344,1,187.5
32,56,85274,6,0,B|288:56,1,250,0|4
408,56,85993,1,0
480,160,86233,2,0,B|224:160,1,250,0|4
104,160,86953,1,0
40,256,87193,1,4
256,256,87553,1,4
472,256,87913,1,4
368,344,88393,5,0
256,344,88633,1,0
144,344,88873,1,0
104,224,89113,1,0
408,224,89593,1,0
472,40,90073,5,2
256,40,90433,1,0
40,40,90793,1,0
40,120,91033,1,2
256,120,91393,1,0
472,120,91753,1,0
424,192,92473,5,0
424,336,92713,1,0
424,336,92833,1,0
200,264,93193,1,0
88,192,93433,1,0
88,336,93673,1,0
88,336,93793,1,0
312,264,94153,1,4
256,8,94633,5,0
376,8,94873,1,0
256,160,95233,1,0
136,8,95593,2,2,B|-16:8|-16:176,2,250
88,168,96793,6,4,B|80:360|432:368|424:160,1,500
376,48,98232,5,0
256,48,98472,1,0
136,48,98712,1,4
256,200,99072,1,0
256,200,99432,1,4
256,368,100392,5,0
136,312,100632,2,2,B|24:312|24:160|144:160,1,250
256,240,101352,1,0
376,312,101592,2,2,B|488:312|488:160|368:160,1,250
256,112,102312,1,0
408,72,102552,1,4
256,8,102912,1,0
104,72,103272,1,0
256,264,103752,5,0
312,352,103992,1,0
200,352,104232,1,0
88,352,104472,2,2,B|8:104|256:-40|520:112|416:368,1,750
16,88,112151,6,0,B|144:0|344:224|520:72,1,500
504,232,113351,1,4
256,344,113831,5,0
176,344,114071,2,2,B|184:264|264:264,1,125
256,184,114551,1,0
256,184,114791,2,2,B|184:184|120:256,1,125
96,344,115271,1,4
72,56,115991,6,2,B|456:56,2,375
48,160,117671,5,0
130,160,117911,2,2,B|208:160|207:237,1,125
128,240,118391,2,0,B|128:318|205:317,1,125
288,320,118871,2,2,B|368:320|368:224,1,125
288,240,119351,1,4
448,40,119831,6,2,B|64:40,1,375
72,136,120791,2,2,B|456:136,1,375
448,240,121751,5,0
360,344,121991,1,0
264,240,122231,1,0
160,344,122471,2,4,B|16:344|-8:176,1,250
136,48,123430,6,2,B|256:-16|407:60,1,250
256,136,124150,1,0
184,240,124390,2,2,B|185:357|335:357|329:224,1,250
480,136,125590,5,2
256,32,126070,1,2
32,136,126550,1,2
256,216,127030,1,2
192,336,127510,6,2,B|112:336|72:280,2,125
320,336,128230,1,0
320,336,128350,2,2,B|424:336|480:248,1,187.5
472,128,128950,1,4
40,40,129430,5,0
120,40,129670,2,2,B|120:120|8:128,1,125
48,200,130150,1,0
200,40,130630,1,0
256,152,130870,1,4
320,336,131350,6,2,B|400:336|440:280,2,125
192,336,132070,1,0
192,336,132190,2,2,B|88:336|32:248,1,187.5
40,128,132790,1,4
256,24,133270,5,0
376,40,133510,1,0
448,128,133750,1,0
344,176,133990,2,6,B|208:232|112:96,1,250
40,40,134710,1,4
96,328,141909,5,0
416,328,142389,1,0
256,328,142869,5,4
160,176,143229,1,0
352,176,143589,1,0
256,232,143829,1,4
160,80,144189,1,0
352,80,144549,1,0
256,16,144789,6,2,B|32:-16|0:248,1,375
56,320,145749,1,0
184,360,145989,1,0
328,360,146229,1,0
456,320,146469,1,0
456,192,146709,5,4
456,24,147069,1,0
320,112,147429,1,0
192,112,147669,1,4
56,24,148028,1,0
56,192,148388,1,0
136,264,148628,6,2,B|256:328|384:264,1,250
256,216,149348,1,0
256,216,149588,1,0
256,16,150068,1,2
96,96,150548,5,2
256,96,150908,1,0
416,96,151268,1,0
376,232,151748,2,2,B|288:176|216:272|128:224,1,250
96,328,152468,1,0
256,328,152828,1,0
416,328,153188,1,2
104,80,153668,5,0
200,32,153908,1,0
312,32,154148,1,0
408,80,154388,1,4
256,176,155108,1,0
256,176,155348,1,4
152,344,156068,1,0
152,344,156308,1,4
360,344,157028,1,0
360,344,157268,1,0
256,48,159188,5,4
424,336,159667,1,4
88,336,160147,1,4
256,336,160627,5,2
256,224,160867,1,0
144,224,161107,1,2
256,48,161467,1,0
368,224,161827,1,0
440,136,162067,2,2,B|48:136,1,375
32,344,163507,5,0
168,344,163747,1,0
168,344,163867,1,0
376,344,164227,1,0
480,264,164467,1,0
344,264,164707,1,0
344,264,164827,1,0
136,264,165187,1,4
0,64,165667,5,0
120,64,165907,1,2
320,64,166267,1,0
512,64,166627,1,4
256,368,167347,5,0
320,256,167587,1,0
192,256,167827,1,4
32,136,168307,1,4
256,48,168787,1,4
480,136,169267,1,4
368,152,169747,5,2
256,152,170107,1,2
144,152,170467,1,2
160,344,170947,2,2,B|376:344,1,187.5
480,56,171667,6,0,B|224:56,1,250,0|4
104,56,172386,1,0
32,160,172626,2,0,B|288:160,1,250,0|4
408,160,173346,1,0
472,256,173586,1,4
256,256,173946,1,4
40,256,174306,1,4
144,344,174786,5,0
256,344,175026,1,0
368,344,175266,1,0
408,224,175506,1,0
104,224,175986,1,0
40,40,176466,5,2
256,40,176826,1,0
472,40,177186,1,0
472,120,177426,1,2
256,120,177786,1,0
40,120,178146,1,0
88,192,178866,5,0
88,336,179106,1,0
88,336,179226,1,0
312,264,179586,1,0
424,192,179826,1,0
424,336,180066,1,0
424,336,180186,1,0
200,264,180546,1,4
256,8,181026,5,0
136,8,181266,1,0
256,160,181626,1,0
376,8,181986,2,2,B|528:8|528:176,2,250
424,168,183186,6,4,B|432:360|80:368|88:160,1,500
136,48,184625,5,0
256,48,184865,1,0
376,48,185105,1,4
256,200,185465,1,0
256,200,185825,1,4
256,368,186785,5,0
376,312,187025,2,2,B|488:312|488:160|368:160,1,250
256,240,187745,1,0
136,312,187985,2,2,B|24:312|24:160|144:160,1,250
256,112,188705,1,0
104,72,188945,1,4
256,8,189305,1,0
408,72,189665,1,0
256,192,190145,12,4,194225
