osu file format v5

[General]
AudioFilename: 112 Dear WOMAN.mp3
AudioLeadIn: 0
PreviewTime: 72720
Countdown: 0
SampleSet: Normal
StackLeniency: 0.7
Mode: 0
LetterboxInBreaks: 1
EditorBookmarks: 98512
EditorDistanceSpacing: 1

[Metadata]
Title:Dear WOMAN
Artist:SMAP
Creator:Pasonia
Version:Hard
Source:
Tags:naruto

[Difficulty]
HPDrainRate:6
CircleSize:5
OverallDifficulty:6
SliderMultiplier:1.8
SliderTickRate:2

[Events]
//Background and Video events
//Break Periods
2,38197,39827
2,106592,110861
2,192985,199654
//Storyboard Layer 0 (Background)
4,0,0,"SB\naruto_hinata6.jpg",320,240 F,0,-2,-1,0,1 F,0,-1,0,1,0
//Storyboard Layer 1 (Failing)
//Storyboard Layer 2 (Passing)
//Storyboard Layer 3 (Foreground)
4,3,0,"SB\titlecard.png",0,360 F,2,542,742,0,1 F,2,21840,22040,1,0 F,2,200000,200400,0,1 F,2,215760,216160,1,0 F,2,268000,268200,0,1 F,2,282960,283160,1,0
//Storyboard Sound Samples
//Background Colour Transformations
3,100,0,0,0

[TimingPoints]
10400,479.961603071754,4,1,0,100,1,0
72795,-100,4,1,0,100,0,1
111911,-100,4,1,0,100,0,0
159188,-100,4,1,0,100,0,1
199984,-100,4,1,0,100,0,0
216783,-100,4,2,0,100,0,0
217743,-100,4,2,0,100,0,1
233822,-100,4,1,0,100,0,0
235022,-100,4,1,0,100,0,1
250260,-100,4,1,0,100,0,0
250380,-100,4,1,0,100,0,1

[HitObjects]
261,112,18079,2,0,B|267:46|320:-29|442:-34|480:-1|503:65|508:107|469:149,1,360
468,148,19159,1,0
423,225,19399,1,0
375,300,19639,1,0
341,329,19759,1,0
263,373,19999,1,0
261,283,20239,1,8
260,193,20479,1,8
260,104,20719,5,0
225,76,20839,1,0
185,54,20959,1,0
140,54,21079,1,0
100,75,21199,1,0
75,112,21319,2,0,B|18:151|98:204,1,90
102,220,21679,1,0
158,289,21919,1,2
263,371,22279,6,0,B|262:221,1,135
261,146,22879,2,0,B|254:86|303:84,1,45
322,40,23238,1,8
463,23,23598,1,0
481,63,23718,1,0
479,110,23838,2,2,B|419:138|367:91|344:136,2,135
486,154,24678,1,0
464,193,24798,1,4
246,36,25518,5,0
156,44,25758,1,0
68,60,25998,1,0
141,110,26238,1,0
185,103,26358,1,0
118,163,26598,2,2,B|122:134|234:117|250:154,1,135
412,195,27438,5,0
392,154,27558,1,0
359,123,27678,2,8,B|218:123|165:135,1,180,8|0
79,217,28398,2,0,B|56:121|217:131,1,180,8|8
200,130,29358,5,0
278,87,29598,1,0
360,122,29838,1,0
364,211,30078,1,0
366,255,30198,2,2,B|369:304|160:297|196:173,1,225
103,49,31278,6,0,B|96:105|39:82,1,45,0|0
126,87,31518,2,0,B|185:88|270:76|270:76|241:120,1,180
200,180,32238,2,0,B|171:247|53:312,1,180
49,123,33198,6,2,B|91:191|124:209,2,90
102,194,33918,1,0
134,224,34038,2,2,B|176:280|237:300,1,90
332,306,34638,5,0
392,239,34878,1,8
442,165,35118,1,2
395,88,35358,1,0
320,138,35597,1,0
244,89,35837,1,8
196,164,36077,2,2,B|212:248|317:306,1,180
133,249,37037,5,0
305,201,37517,1,0
358,129,37757,1,8
334,42,37997,1,4
205,43,40877,5,0
239,70,40997,1,0
274,43,41117,1,0
284,130,41357,2,0,C|168:130,1,90
119,83,41837,1,0
119,127,41957,2,2,C|119:272,1,135
227,122,42797,6,0,C|330:122,1,90
275,43,43277,2,0,C|275:157,1,90
251,218,43757,1,0
295,218,43877,1,0
274,349,44237,1,0
256,153,44717,6,0,B|247:206|191:248,3,90
257,153,45677,1,0
257,152,45797,2,2,B|300:202|378:236,1,135,2|2
105,50,46637,6,0,B|168:133,1,90,0|0
407,50,47357,2,0,B|344:133,1,90,0|0
255,311,48076,1,2
80,341,48556,5,0
48,258,48796,1,0
92,181,49036,1,0
178,163,49276,1,0
178,163,49396,1,2
251,114,49636,1,2
154,22,49996,5,0
358,22,50236,1,8
152,109,50476,1,0
360,109,50716,1,0
153,206,50956,1,0
360,210,51196,1,8
172,302,51436,2,2,B|259:331|368:296,1,180
256,192,52396,12,4,55516
37,34,55996,5,4
475,34,56476,1,4
258,36,56836,5,0
373,102,57196,2,0,B|428:150|367:184,1,90,0|4
257,122,57796,1,0
139,102,58156,2,0,B|84:150|145:184,1,90,0|4
440,288,59116,6,2,B|368:306|252:299,1,180,2|2
172,293,59836,1,0
83,292,60076,1,0
107,207,60316,2,4,B|128:87|220:92,1,135,4|0
308,105,61035,1,0
308,105,61275,2,0,B|384:156|284:224,1,135,4|0
231,325,61995,2,4,B|186:299|266:244,1,90,0|4
437,335,62955,5,0
348,335,63195,1,0
259,335,63435,1,0
214,335,63555,1,0
170,335,63675,1,2
172,156,64155,1,4
172,21,64515,1,0
172,156,64875,1,0
204,109,65355,6,2,B|289:60|308:78|375:119,1,180
396,201,66075,1,4
283,276,66435,1,0
172,197,66795,1,0
153,17,67275,5,0
185,100,67515,1,0
214,185,67755,1,0
254,265,67995,2,6,B|312:200|397:22,1,270,6|2
391,33,68955,1,4
174,193,69675,5,0
217,205,69795,1,0
261,199,69915,2,6,B|317:164|347:131|208:92|227:201|283:291|372:201,1,270
454,205,70875,2,4,B|454:59,2,135,0|0|0
454,295,71835,1,4
0,32,72795,5,4
256,32,73274,1,4
512,32,73754,1,4
256,32,74234,1,8
210,206,74714,2,0,B|170:318|114:315,2,135
253,194,75554,1,0
299,207,75674,2,0,B|339:319|395:316,2,135
80,47,77114,5,2
169,48,77354,1,0
213,48,77474,2,2,B|367:47,1,135
296,121,78074,1,2
241,192,78314,1,0
211,226,78434,2,2,B|112:350,1,135
306,325,79274,1,0
350,324,79394,1,0
387,298,79514,2,2,B|445:256|403:210|473:174,2,135
123,336,80954,5,0
188,274,81194,1,0
254,212,81434,1,4
388,93,81914,1,0
254,212,82394,1,0
124,90,82874,1,0
254,212,83354,1,0
254,79,83714,1,0
254,213,84074,1,0
152,64,84554,5,0
39,139,84914,1,0
134,234,85274,2,0,B|184:311|281:347,1,180
272,343,85993,1,0
272,343,86233,2,0,B|380:304|408:213,1,180
457,155,86953,1,0
436,114,87073,1,0
403,83,87193,2,8,B|303:28|256:120,1,135
271,222,87913,1,8
129,110,88393,5,0
173,95,88513,1,0
218,111,88633,1,0
128,109,88873,1,0
217,111,89113,1,6
124,265,89593,2,2,B|201:302|179:123,1,180
314,117,90433,1,0
244,232,90793,1,2
327,265,91033,2,2,B|487:223|331:165|321:254|293:280|430:350|465:288,1,270,2|6
314,67,92473,6,2,B|192:67,1,90
264,87,92833,2,2,B|264:232,1,135
345,261,93433,1,0
405,194,93673,1,0
367,169,93793,1,2
301,287,94153,1,2
129,241,94633,5,0
68,307,94873,1,4
131,187,95233,1,0
194,306,95593,1,4
373,301,96073,2,0,B|267:347|294:176,1,180
298,105,96793,1,4
91,293,98232,5,0
134,214,98472,1,0
181,290,98712,2,0,B|175:239|273:198|379:227|400:302,1,270
230,118,100392,6,0,B|132:118|132:118|132:208|132:208|226:208|226:208|133:212|133:212|132:312|132:312|292:311,1,630,0|4
376,314,102312,1,0
376,314,102432,1,0
376,314,102552,1,4
377,179,102912,2,0,B|376:164|376:164|376:28,1,135,0|4
256,192,103512,12,4,106392
255,35,111911,5,0
209,112,112151,2,0,B|290:121|327:104,2,90
180,147,112751,1,0
262,182,112991,2,0,B|264:269|192:309,1,135
348,187,113831,2,0,B|350:276|327:307,1,90
319,97,114551,1,0
319,97,114791,2,0,B|328:164|445:229,1,180
257,215,115751,5,0
185,160,115991,1,0
111,212,116231,1,0
185,160,116471,1,0
185,160,116591,1,0
141,238,116831,2,0,B|158:300|239:304|257:269,1,135
428,295,117671,1,0
426,205,117911,1,0
335,49,118391,1,0
245,49,118631,1,0
242,228,119111,1,0
143,77,119591,5,0
108,47,119711,1,0
73,75,119831,1,0
37,157,120071,1,0
84,233,120311,2,0,B|119:306|176:336,1,135
302,364,121031,6,0,B|355:332|380:288,1,90
427,236,121511,2,0,B|478:193|469:120,1,90
350,23,122231,2,0,B|295:10|259:102,1,90
457,60,122951,2,0,B|299:158,1,180
150,248,123910,1,0
227,202,124150,1,0
256,192,124630,12,4,127270
168,224,127510,6,0,B|280:280|360:208,1,180
339,224,128110,1,0
315,137,128350,1,0
180,138,128710,1,0
347,73,129190,1,0
347,73,129430,2,0,B|396:68|385:139|320:153|344:111|344:111|344:194,1,180
260,216,130150,1,0
261,36,130630,1,0
136,166,131110,5,0
137,255,131350,1,0
226,258,131590,2,0,B|251:287|308:303|308:303|308:132|308:132|253:140|216:221,1,360
213,7,133030,1,0
302,5,133270,1,0
232,170,133750,2,0,B|182:170|199:170|199:170|269:295|328:166|328:166|265:166,1,270
81,296,134950,5,0
124,217,135190,1,0
162,298,135430,1,0
203,218,135669,1,0
203,218,135789,1,0
238,300,136029,1,0
217,139,136389,2,2,B|159:58|61:153|63:263|244:340|250:351|250:351|402:236|404:149|328:54|247:170,1,720,2|4
256,192,138789,12,4,141909
352,24,142389,5,4
160,24,142869,1,4
115,102,143109,1,0
91,140,143229,1,0
160,24,143589,1,0
177,113,143829,1,4
248,167,144069,1,0
282,196,144189,1,0
177,113,144549,1,0
96,69,144789,1,4
363,35,145509,6,0,B|408:103|404:240,1,180
403,298,146229,1,0
328,247,146469,1,0
287,166,146709,2,0,B|315:77|258:24,2,135,4|0|4
237,241,147669,2,4,B|197:310|108:289,2,135,4|0|4
199,159,148628,2,0,B|116:86|30:90|95:260|174:117|218:52,1,270
244,78,149468,1,0
272,112,149588,2,4,B|349:110|306:225|382:282,1,180
326,90,150548,5,0
236,87,150788,1,0
191,88,150908,1,0
63,43,151268,2,0,B|-4:111|85:236,2,180
95,74,152348,1,0
107,117,152468,2,0,B|143:200|127:252,2,135,4|0|4
255,24,153668,1,0
257,68,153788,1,0
258,112,153908,1,0
258,202,154148,1,0
256,192,154388,12,4,158228
128,320,159188,5,4
256,192,159668,1,4
384,64,160148,1,4
256,192,160627,1,8
96,108,161107,2,0,B|105:171|193:205,2,135
155,39,162067,2,0,B|225:48|271:136,2,135
86,300,163507,5,0
85,210,163747,1,0
85,165,163867,1,0
83,30,164227,2,2,B|147:101,1,90
206,161,164707,2,8,B|247:207,1,45
327,293,165187,2,2,B|327:108,1,180
325,23,165907,2,4,B|404:83|400:145,2,135
382,287,167347,5,0
382,197,167587,1,0
381,107,167827,2,0,B|342:70|234:206|208:102,1,180,4|0
135,285,168787,2,0,B|66:200|179:124,1,180
193,310,169747,2,8,B|262:296|227:216|308:208,2,135
419,198,170947,5,0
256,101,171307,1,0
92,195,171667,2,0,B|29:284|212:353|200:228|286:236,1,270,0|4
186,198,172627,2,4,B|242:137|346:197|367:204,1,180,0|4
408,270,173346,1,0
408,270,173466,1,0
408,270,173586,1,4
469,149,173946,1,4
335,127,174306,1,4
256,312,174786,5,0
256,192,175026,1,0
256,64,175266,1,0
256,192,175506,2,4,B|324:189|320:104|421:101,2,180,4|8|4
120,190,176826,2,0,B|68:228|108:287|76:318,1,135
168,332,177426,1,0
259,233,177786,1,0
259,97,178146,1,0
465,270,178866,5,8
464,179,179106,1,0
464,179,179226,2,8,B|466:108|420:52,1,135
342,10,179826,1,8
259,46,180066,1,0
259,46,180186,2,8,B|224:111|170:12|142:0,1,135
11,119,181026,6,0,B|-16:180|52:216,1,90
136,281,181626,2,4,B|127:330|170:343|267:370|255:320,1,135
349,265,182466,1,0
435,107,182946,1,0
382,34,183186,1,4
256,192,183666,12,0,184626
255,23,184866,5,0
169,50,185106,1,0
254,154,185466,1,0
347,250,185825,2,0,B|532:362|563:-22|377:47|330:141,1,450,0|4
256,192,187265,12,0,188465
392,65,188705,6,0,B|305:155,1,90,0|4
196,63,189305,2,8,B|269:146,1,90,8|8
294,153,189665,1,4
256,192,190145,12,4,192785
471,43,200704,6,8,B|412:111|356:60|292:140,1,180
234,166,201424,1,0
234,166,201544,1,2
157,213,201784,1,8
79,258,202024,1,0
79,258,202144,1,2
76,78,202624,6,0,B|143:44|178:144|232:165,1,180
297,209,203344,1,8
336,230,203464,1,8
375,250,203584,1,0
416,267,203704,1,8
482,206,203944,1,0
482,206,204064,1,4
441,30,204544,6,0,B|394:80|332:40|252:115,1,180
239,121,205144,1,8
220,161,205264,1,0
228,205,205384,1,0
251,243,205504,1,8
246,287,205624,1,8
211,315,205744,1,8
169,296,205864,1,0
146,256,205984,1,0
112,136,206224,5,4
246,287,206584,1,0
259,84,206944,1,4
140,248,207304,1,0
331,181,207664,2,4,B|369:143|400:112,2,90,4|0|4
341,270,208384,6,0,B|302:316|233:217|256:139,1,180
204,80,209104,1,0
171,49,209224,1,0
129,65,209344,1,0
123,109,209464,1,0
138,197,209704,1,0
138,197,209824,1,0
137,287,210064,1,4
47,274,210304,6,4,B|20:201|84:160|52:86,1,180
117,163,211023,1,0
160,172,211143,1,0
203,182,211263,1,0
247,190,211383,1,0
334,211,211623,1,0
334,211,211743,1,0
422,229,211983,1,4
451,97,212223,6,0,B|399:46|334:97|248:27,1,180
192,28,212943,1,0
166,65,213063,1,0
205,85,213183,1,0
179,122,213303,1,0
219,141,213423,1,8
192,177,213543,1,0
232,197,213663,1,0
408,312,213903,5,4
256,24,214263,1,4
104,312,214623,1,4
159,35,216783,6,2,B|354:35,1,180
250,213,217743,2,4,L|250:20,1,180
123,164,218703,6,8,B|193:190|224:173,1,90
254,167,219063,2,2,B|295:124|269:75|218:56|200:61,1,135
140,108,219663,2,8,B|93:154|138:213,1,90
142,231,220023,2,2,B|188:285|242:275|297:234,1,135
140,14,221103,5,8
97,28,221223,1,2
74,67,221343,1,8
95,106,221463,2,2,B|149:144|195:116|177:48,1,135
177,150,222063,1,8
177,194,222183,1,2
177,238,222303,1,8
175,282,222423,2,2,B|175:328|175:328|266:275,1,135
401,183,223262,1,2
375,269,223502,1,4
311,332,223742,1,0
266,333,223862,1,2
230,250,224102,1,0
221,205,224222,1,4
144,42,224942,5,0
234,40,225182,1,0
278,39,225302,1,0
322,40,225422,1,2
253,98,225662,1,0
253,142,225782,1,0
253,187,225902,2,0,B|253:236|254:236|254:236|296:235,1,90,2|0
204,234,226382,2,2,B|109:234,2,90,2|0|2
380,196,227342,2,0,B|321:179|279:203|357:261|357:261|269:252|284:301|339:325,1,270
157,298,228542,6,0,B|122:197|122:197|193:169|165:253|156:249|156:249|228:277,1,270,0|8
350,151,229742,1,4
275,100,229982,1,0
192,144,230222,2,0,B|153:265|264:356|367:278|348:116,1,360,0|4
256,192,231422,12,4,234062
128,32,234542,5,4
384,32,235022,1,4
260,75,235502,6,8,B|260:107|260:107|260:282,1,180
199,112,236341,2,0,B|343:112,1,135,8|0
334,112,236821,1,0
334,112,236941,1,8
434,202,237301,2,8,B|392:320|479:306|489:326,1,135,8|4
197,320,238381,5,0
204,275,238501,1,0
210,230,238621,1,0
217,185,238741,2,0,B|238:106|238:106|277:166,1,135
303,233,239341,1,0
317,275,239461,1,0
337,315,239581,1,0
381,315,239701,1,0
468,212,240061,2,0,B|411:64|411:64|375:104,1,180
374,119,240661,1,0
355,159,240781,1,4
262,60,241141,2,4,B|204:202,1,135
415,361,242221,5,0
445,328,242341,1,0
457,284,242461,1,0
457,238,242581,1,0
433,199,242701,2,4,B|402:149|324:134|297:158|261:204,4,180
278,183,244981,2,4,B|244:236|285:286,1,90
289,310,245341,1,0
236,137,245821,5,0
158,26,246181,1,0
67,126,246541,2,0,B|35:192|176:292,1,180,0|4
220,326,247261,1,0
256,351,247381,1,0
297,333,247501,2,0,B|397:271|424:181,1,180,0|4
442,116,248220,1,0
420,76,248340,1,0
398,36,248460,1,4
324,87,248700,1,0
324,87,248820,1,4
248,136,249060,1,0
248,136,249180,1,4
352,288,249420,5,4
192,256,249660,1,4
352,224,249900,1,4
192,192,250140,1,4
352,160,250380,5,4
231,26,250860,1,0
58,78,251340,2,0,B|36:123|91:175|72:232,2,135
58,78,252180,1,0
58,78,252300,1,0
148,78,252540,5,0
148,78,252660,1,0
238,78,252900,1,0
238,78,253020,1,0
324,103,253260,1,8
395,157,253500,1,8
256,192,253740,12,4,255420
122,231,255900,5,0
182,130,256140,1,0
246,227,256380,1,0
246,227,256500,1,4
311,129,256740,1,0
311,129,256860,2,4,B|357:60|381:135|449:68|460:160,2,180,4|4|0
311,129,257940,1,0
311,129,258060,1,4
167,313,258540,1,8
70,99,259020,1,8
220,197,259500,5,0
247,232,259620,1,0
284,256,259740,1,0
328,246,259860,1,0
366,222,259980,2,2,B|424:155|376:74,1,135
326,30,260579,1,0
326,30,260699,2,2,B|219:28|158:28|226:216,1,270
132,90,261659,5,0
132,90,261779,1,0
132,90,261899,1,0
75,212,262139,1,8
172,304,262379,1,4
294,247,262619,5,0
294,247,262739,1,0
294,247,262859,1,0
360,129,263099,1,8
250,50,263339,1,4
256,192,263819,12,4,265739
