osu file format v5

[General]
AudioFilename: 112 Dear WOMAN.mp3
AudioLeadIn: 0
PreviewTime: 72720
Countdown: 0
SampleSet: Normal
StackLeniency: 0.7
Mode: 0
LetterboxInBreaks: 1
EditorBookmarks: 25680
EditorDistanceSpacing: 1

[Metadata]
Title:Dear WOMAN
Artist:SMAP
Creator:Pasonia
Version:Easy
Source:
Tags:naruto

[Difficulty]
HPDrainRate:3
CircleSize:3
OverallDifficulty:3
SliderMultiplier:1
SliderTickRate:2

[Events]
//Background and Video events
//Break Periods
2,37956,47356
2,71554,72314
2,106592,110711
2,125789,126070
2,139228,144549
2,157468,158708
2,192985,199024
2,214823,216303
2,230902,233582
//Storyboard Layer 0 (Background)
4,0,0,"SB\neji_tenten.jpg",320,240 F,0,-2,-1,0,1 F,0,-1,0,1,0
//Storyboard Layer 1 (Failing)
//Storyboard Layer 2 (Passing)
//Storyboard Layer 3 (Foreground)
4,3,0,"SB\titlecard.png",0,360 F,2,542,742,0,1 F,2,21840,22040,1,0 F,2,200000,200400,0,1 F,2,215760,216160,1,0 F,2,268000,268200,0,1 F,2,282960,283160,1,0
//Storyboard Sound Samples
//Background Colour Transformations
3,100,0,0,0

[TimingPoints]
10400,479.961603071754,4,1,0,100,1,0
72795,-100,4,1,0,100,0,1
111911,-100,4,1,0,100,0,0
159188,-100,4,1,0,100,0,1
199984,-100,4,1,0,100,0,0
216783,-100,4,2,0,100,0,0
217743,-100,4,2,0,100,0,1
233822,-100,4,1,0,100,0,0
235022,-100,4,1,0,100,0,1

[HitObjects]
59,63,25758,5,0
161,62,26238,1,8
263,62,26718,1,0
365,60,27198,1,2
365,162,27678,1,0
362,264,28158,1,8
275,209,28638,2,0,C|205:209,2,50,0|2|2
235,304,29598,5,0
145,252,30078,1,2
145,149,30558,1,0
231,93,31038,1,8
315,151,31518,2,2,C|369:109,2,50,0|2|2
315,253,32478,2,2,C|370:288,2,50,0|2|2
389,182,33438,5,0
331,96,33918,1,2
228,96,34398,1,0
125,99,34878,1,2
70,186,35358,1,0
122,274,35837,1,2
224,271,36317,2,0,C|224:204,2,50,0|8|8
327,267,37277,2,0,C|327:200,2,50,0|8|8
92,328,48796,6,2,C|40:232|89:130,1,200,2|0
116,118,49996,1,8
166,105,50236,1,8
251,47,50716,1,0
250,149,51196,1,2
342,103,51676,2,0,C|412:103,2,50,0|8|8
430,50,52636,6,8,C|459:156|284:132|330:228|333:236,2,400,4|8|4
327,58,56956,1,0
224,56,57436,1,8
225,158,57916,1,0
223,260,58396,1,8
67,125,59356,5,0
117,214,59836,1,8
174,298,60316,1,0
228,210,60795,1,8
277,120,61275,1,0
326,210,61755,1,8
373,301,62235,2,0,C|296:301,2,50,0|2|2
475,299,63195,2,0,C|476:216,2,50,0|2|2
397,231,64155,5,8
359,135,64635,1,0
306,46,65115,2,8,C|253:126|198:40,1,200
152,133,66555,1,0
108,226,67035,1,8
257,85,67995,5,0
259,187,68475,1,8
259,289,68955,2,0,C|348:288,2,50,0|2|2
188,213,69915,1,0
141,121,70395,1,8
163,20,70875,2,0,C|189:85,2,50,0|2|2
214,45,73754,5,0
316,44,74234,1,8
316,146,74714,1,0
213,146,75194,1,8
214,248,75674,1,0
316,249,76154,1,0
264,160,76634,1,4
442,58,77594,5,0
392,148,78074,1,2
331,231,78554,1,0
257,303,79034,1,2
183,230,79514,1,0
127,143,79994,1,2
74,54,80474,1,0
62,259,81434,5,0
140,192,81914,1,2
173,94,82394,2,8,C|243:43|275:43|338:99,1,200
357,195,83834,1,2
430,267,84314,1,4
259,151,85274,5,0
171,205,85753,1,12
206,301,86233,1,0
308,301,86713,1,12
342,204,87193,2,4,C|349:114|467:56,2,200,4|4|4
315,303,89593,5,0
217,269,90073,2,8,C|160:208|44:229,1,200
52,125,91513,1,0
128,56,91993,1,0
334,64,92953,5,0
365,158,93433,1,2
398,254,93913,2,8,C|329:49,1,200
234,90,95353,1,0
135,119,95833,1,0
253,287,96793,6,2,C|216:248|319:192|215:136|215:27,1,400
317,38,99192,1,0
389,111,99672,1,4
418,314,100632,6,0,C|341:208|240:192,1,200
256,192,102552,12,4,106392
108,264,112151,5,0
150,170,112631,1,8
160,67,113111,2,0,B|198:15|289:10|337:70,1,200
346,170,114551,1,8
377,267,115031,1,0
432,69,115991,5,0
452,169,116471,1,2
456,271,116951,2,0,B|456:336,2,50,0|8|8
359,233,117911,1,0
274,292,118391,1,2
206,214,118871,2,0,B|262:152,2,50,0|8|8
113,259,119831,5,0
60,170,120311,1,0
115,83,120791,2,2,B|188:58|248:67,1,100
315,57,121751,2,0,B|477:213|314:371,1,350
323,363,123670,2,4,B|121:206|200:131|333:47,1,400
136,69,127510,5,0
198,150,127990,1,8
261,69,128470,2,0,B|346:104|340:104,2,50,0|8|8
198,150,129430,1,0
257,233,129910,1,8
359,241,130390,2,0,B|357:323,2,50,0|8|8
362,138,131350,5,0
321,43,131830,1,8
220,62,132310,2,0,B|152:95,2,50,0|2|2
226,164,133270,2,0,B|158:197,2,50,0|2|2
231,266,134230,2,0,B|163:299,2,50,0|2|2
330,290,135190,5,0
386,204,135669,1,0
392,101,136149,2,0,B|461:127,2,50,0|2|2
290,87,137109,1,0
213,156,137589,1,0
192,256,138069,2,0,B|252:297,1,50,0|8
233,284,138549,2,8,B|310:304|341:256,1,100,8|4
99,73,145989,6,0,B|140:136,1,50
155,157,146469,1,0
185,198,146709,2,2,B|230:125|344:110,1,150
306,116,147669,2,2,B|387:190|384:272,1,150
358,287,148628,2,2,B|263:292|210:211,1,150
199,188,149588,2,4,B|207:112|287:116,1,100
338,53,150548,6,0,B|338:218,1,150,0|8
338,203,151508,2,0,B|202:76,1,150,8|0
228,100,152468,2,0,B|229:276,1,150,0|8
228,249,153428,1,12
370,308,154148,5,0
415,284,154388,2,2,B|471:188|416:98,1,150
407,96,155348,2,2,B|316:40|236:72,1,150
220,90,156308,2,2,B|138:209|208:260,1,150
201,276,157268,1,4
298,339,160148,5,0
196,340,160627,1,8
196,238,161107,1,0
299,238,161587,1,8
298,136,162067,1,0
196,135,162547,1,0
248,224,163027,1,4
70,326,163987,5,0
120,236,164467,1,2
181,153,164947,1,0
255,81,165427,1,2
329,154,165907,1,0
385,241,166387,1,2
438,330,166867,1,0
450,125,167827,5,0
372,192,168307,1,2
339,290,168787,2,8,C|269:341|237:341|174:285,1,200
155,189,170227,1,2
82,117,170707,1,4
253,233,171667,5,0
341,179,172147,1,12
306,83,172627,1,0
204,83,173106,1,12
170,180,173586,2,4,C|163:270|45:328,2,200,4|4|4
197,81,175986,5,0
295,115,176466,2,8,C|352:176|468:155,1,200
460,259,177906,1,0
384,328,178386,1,0
177,319,179346,5,0
144,224,179826,1,2
114,130,180306,2,8,C|183:335,1,200
278,294,181746,1,0
377,265,182226,1,0
259,97,183186,6,2,C|296:136|193:192|297:248|297:357,1,400
195,346,185585,1,0
123,273,186065,1,4
94,70,187025,6,0,C|171:176|272:192,1,200
256,192,189185,12,4,192785
84,152,200464,6,0,B|172:57|278:130,2,200
85,255,202864,1,2
148,336,203344,2,0,B|208:340|206:311,2,50,0|8|8
172,235,204304,6,0,B|169:116|291:62,2,200
258,289,206704,1,8
358,310,207184,2,0,B|410:323,2,50,0|2|2
422,229,208144,6,0,B|431:116|365:68|294:125,2,200,4|0|4
332,279,210543,1,8
232,251,211023,1,0
191,219,211263,1,8
179,168,211503,1,8
224,75,211983,6,4,B|347:58|420:133,2,200
150,98,214263,1,4
85,140,214623,1,4
403,150,217743,5,0
404,252,218223,1,8
302,252,218703,1,0
302,149,219183,1,8
200,150,219663,1,0
199,252,220143,1,0
288,200,220623,1,4
390,378,221583,5,0
300,328,222063,1,2
217,267,222543,1,0
145,193,223022,1,2
218,119,223502,1,0
305,63,223982,1,2
394,10,224462,1,0
189,0,225422,5,0
256,76,225902,1,2
354,109,226382,2,8,C|405:179|405:211|349:274,1,200
253,293,227822,1,2
181,366,228302,1,4
297,195,229262,5,0
243,107,229742,1,12
147,142,230222,1,0
147,244,230702,1,12
214,45,235022,5,0
316,44,235501,1,8
316,146,235981,1,0
213,146,236461,1,8
214,248,236941,1,0
316,249,237421,1,0
264,160,237901,1,4
442,58,238861,5,0
392,148,239341,1,2
331,231,239821,1,0
257,303,240301,1,2
183,230,240781,1,0
127,143,241261,1,2
74,54,241741,1,0
62,259,242701,5,0
140,192,243181,1,2
173,94,243661,2,8,C|243:43|275:43|338:99,1,200
357,195,245101,1,2
430,267,245581,1,4
259,151,246541,5,0
171,205,247021,1,12
206,301,247501,1,0
308,301,247980,1,12
342,204,248460,2,4,C|349:114|467:56,2,200,4|4|4
315,303,250860,5,0
217,269,251340,2,8,C|160:208|44:229,1,200
52,125,252780,1,0
128,56,253260,1,0
333,60,254220,5,0
363,158,254700,1,2
398,254,255180,2,8,C|329:49,1,200
234,90,256620,1,0
135,119,257100,1,0
253,287,258060,6,2,C|216:248|319:192|215:136|215:27,1,400
317,38,260459,1,0
389,111,260939,1,4
418,314,261899,6,0,C|313:186|254:191,1,200
256,192,263819,12,4,267659
