osu file format v5

[General]
AudioFilename: OUENDAN 2 BANG! BANG! Vacance!.mp3
AudioLeadIn: 0
PreviewTime: 61682
Countdown: 1
SampleSet: Normal
StackLeniency: 0.7
Mode: 0
LetterboxInBreaks: 1
SkinPreference:Ouendan2 v4
EditorBookmarks: 29848,39467,47253,109547,162679

[Metadata]
Title:BANG! BANG! Vacances!
Artist:SMAP
Creator:Behonkiss
Version:Insane
Source:
Tags:

[Difficulty]
HPDrainRate:7
CircleSize:5
OverallDifficulty:9
SliderMultiplier:2
SliderTickRate:2

[Events]
//Background and Video events
0,0,"wp33.jpg"
//Break Periods
2,47451,61011
2,80661,94676
2,124397,139793
//Storyboard Layer 0 (Background)
//Storyboard Layer 1 (Failing)
//Storyboard Layer 2 (Passing)
//Storyboard Layer 3 (Foreground)
//Storyboard Sound Samples
//Background Colour Transformations
3,100,163,162,255

[TimingPoints]
4198,458.015267175572,4,1,0,100,1
31678,458.015267175572,4,2,0,100,0
31955,458.015267175572,4,1,0,100,0
46335,458.015267175572,4,2,0,100,0
46612,458.015267175572,4,1,0,100,0

[HitObjects]
512,216,18626,1,0
512,112,18855,1,0
440,40,19084,1,0
360,112,19313,1,0
256,112,19542,1,0
256,112,19656,1,0
128,56,20000,1,0
48,104,20229,2,0,B|49:236|208:224,1,200
264,208,20916,2,0,B|425:196|434:408|264:412|184:312,1,400
0,216,22290,5,0
0,112,22519,1,0
72,40,22748,1,0
152,112,22977,1,0
256,112,23206,1,0
256,112,23320,1,0
384,56,23664,1,0
464,104,23893,2,0,B|463:236|304:224,1,200
408,288,24580,2,0,B|319:368|263:160|218:378|104:272,1,300
104,56,25725,6,0,B|149:101|208:48,1,100,2|0
272,56,26183,2,0,B|317:101|376:48,1,100,2|0
376,144,26641,2,0,B|395:276|272:312,1,200
216,288,27329,2,0,B|99:221|192:96,1,200
248,72,28016,1,0
464,72,28474,5,2
464,312,28932,1,2
424,232,29161,2,0,B|335:148|232:240,1,200
192,304,29848,1,0
88,304,30075,2,0,B|88:200|98:80|256:64,1,300
320,160,31220,6,2,B|238:222|152:128,2,150,2|2|2
360,216,32136,1,2
256,256,32365,1,2
152,216,32594,1,2
512,216,33283,5,0
512,112,33512,1,0
440,40,33741,1,0
360,112,33970,1,0
256,112,34199,1,0
256,112,34313,1,0
128,56,34657,1,0
48,104,34886,2,0,B|49:236|208:224,1,200
264,192,35573,2,0,B|425:180|414:354|309:368|272:344,1,300
0,216,36947,5,0
0,112,37176,1,0
72,40,37405,1,0
152,112,37634,1,0
256,112,37863,1,0
256,112,37977,1,0
400,40,38321,1,0
472,80,38551,2,0,B|488:143|424:184,1,100
256,264,39238,1,0
168,256,39467,2,0,B|29:214|48:72,1,200,0|4
88,48,40154,5,0
152,120,40383,1,2
400,120,40841,1,2
456,48,41070,1,0
512,120,41299,1,2
456,184,41528,2,0,B|466:304|344:352,1,200
288,344,42215,2,0,B|208:336|168:288,1,100,4|0
136,264,42673,1,0
136,192,42902,2,0,B|136:80|280:64,1,200,0|4
256,192,43818,5,2
312,256,44047,2,0,B|369:208|346:91|224:88,1,200,4|0
200,128,44734,2,0,B|143:176|166:293|288:296,1,200,4|0
256,192,45421,1,2
256,112,45648,1,0
320,64,45877,6,2,B|249:4|168:72,2,150,2|2|2
352,128,46793,1,2
256,176,47022,1,2
160,128,47251,1,2
256,32,61911,5,0
256,136,62140,1,0
152,136,62369,1,6
256,296,62827,1,6
368,136,63285,1,6
256,32,63510,5,0
256,32,63739,1,0
24,208,63972,5,0
120,208,64201,1,0
200,136,64430,1,0
280,208,64659,1,0
280,336,64888,1,0
456,160,65346,1,0
160,360,66033,5,4
288,296,66376,1,0
160,232,66720,1,0
96,288,66949,1,4
248,176,67293,1,0
96,128,67636,1,0
168,56,67865,1,0
336,56,68209,1,0
336,56,68323,1,0
432,112,68552,2,0,B|424:184|344:192,1,100
256,32,69239,5,0
256,136,69468,1,0
152,136,69697,1,6
256,312,70155,1,6
368,136,70613,1,6
256,32,70839,5,0
256,32,71068,1,0
104,128,71300,5,0
104,224,71529,1,0
184,288,71758,1,0
264,224,71987,1,0
264,320,72216,1,0
448,184,72674,1,0
160,360,73362,5,4
288,296,73705,1,0
160,232,74049,1,0
96,288,74278,1,4
248,176,74622,1,0
96,128,74965,1,0
168,56,75194,1,4
336,56,75538,1,0
336,56,75652,1,0
432,112,75881,2,0,B|416:232|296:264|192:208,1,300,0|4
416,336,77255,5,0
352,248,77484,1,0
280,336,77713,1,0
208,248,77942,1,0
280,144,78171,1,0
352,48,78400,1,0
432,144,78629,1,0
480,248,78858,1,2
416,336,79087,1,0
352,248,79316,1,2
280,336,79545,1,0
208,248,79774,1,2
152,144,80003,1,0
208,48,80232,1,0
272,144,80461,1,4
0,216,95576,5,0
0,112,95805,1,0
72,40,96034,1,0
152,112,96263,1,0
256,112,96492,1,0
256,112,96606,1,0
384,56,96950,1,0
464,104,97179,2,0,B|463:236|304:224,1,200
256,224,97867,2,0,B|103:214|101:389|272:384,1,300
512,216,99241,5,0
512,112,99470,1,0
440,40,99699,1,0
360,112,99928,1,0
256,112,100157,1,0
256,112,100271,1,0
128,56,100615,1,0
48,104,100844,2,0,B|49:236|208:224,1,200
104,288,101531,2,0,B|193:368|249:160|294:378|408:272,1,300,0|4
408,64,102676,6,0,B|360:96|304:56,1,100
232,64,103134,1,0
144,64,103363,2,0,B|96:96|40:56,1,100
48,152,103821,2,0,B|40:284|176:312,1,200
240,272,104508,5,2
240,56,104966,1,2
432,56,105424,1,2
432,272,105882,1,2
240,192,106340,2,0,B|336:124|432:192,1,200,4|0
496,192,107027,2,0,B|472:80|336:56,1,200
288,56,107715,2,0,B|259:165|142:175|144:-31|-10:-29|0:168,1,400,4|0
64,176,108860,2,0,B|205:173|246:329|96:376,1,300,4|0
0,216,110234,5,0
0,112,110463,1,0
72,40,110692,1,0
152,112,110921,1,0
256,112,111150,1,0
256,112,111264,1,0
384,56,111608,1,0
464,104,111837,2,0,B|463:236|304:224,1,200
256,224,112525,2,0,B|103:214|101:389|272:384,1,300
512,216,113898,5,0
512,112,114127,1,0
440,40,114356,1,0
360,112,114585,1,0
256,112,114814,1,0
256,112,114928,1,0
128,56,115272,1,0
8,112,115501,1,0
72,192,115730,2,0,B|152:272|288:264,1,200
352,264,116417,2,0,B|480:233|488:112,1,200
440,48,117104,5,0
384,112,117333,1,2
144,112,117791,1,2
80,48,118020,1,0
16,112,118249,1,2
80,176,118478,2,0,B|78:310|176:360,1,200
264,352,119166,2,0,B|360:332|368:296,1,100,4|0
408,256,119624,1,0
408,160,119853,2,0,B|375:53|216:56,1,200
272,240,120769,5,2
192,296,120998,2,0,B|144:180|264:120,1,200,4|0
336,152,121685,2,0,B|383:281|264:328,1,200,4|0
272,240,122372,1,2
272,128,122594,1,0
192,64,122823,6,0,B|263:4|344:72,2,150,2|2|2
160,128,123739,1,2
256,176,123968,1,2
352,128,124197,1,2
256,32,140693,5,0
256,136,140922,1,0
360,136,141151,1,6
256,344,141609,1,6
144,136,142067,1,6
256,32,142289,5,0
256,32,142518,1,0
488,208,142754,5,0
392,208,142983,1,0
312,136,143212,1,0
232,208,143441,1,0
232,336,143670,1,0
56,160,144128,1,0
352,360,144815,5,4
224,296,145158,1,0
352,232,145502,1,0
416,288,145731,1,4
264,176,146075,1,0
416,128,146418,1,0
344,56,146647,1,4
176,56,146991,1,0
176,56,147105,1,0
80,112,147334,2,0,B|88:184|168:192,1,100
256,32,148021,5,0
256,136,148250,1,0
360,136,148479,1,6
256,344,148937,1,6
144,136,149395,1,6
256,32,149617,5,0
256,32,149846,1,0
488,208,150082,5,0
392,208,150311,1,0
312,136,150540,1,0
232,208,150769,1,0
232,336,150998,1,0
56,160,151456,1,0
352,360,152144,5,4
224,296,152487,1,0
352,232,152831,1,0
416,288,153060,1,4
264,176,153404,1,0
416,128,153747,1,0
344,56,153976,1,4
176,56,154320,1,0
176,56,154434,1,0
80,112,154663,2,0,B|96:232|216:264|320:208,1,300,0|4
96,336,156038,5,0
160,248,156267,1,0
232,336,156496,1,0
304,248,156725,1,0
232,144,156954,1,0
160,48,157183,1,0
80,144,157412,1,0
32,248,157641,1,2
96,336,157870,1,0
160,248,158099,1,2
232,336,158328,1,0
304,248,158557,1,2
360,144,158786,1,0
304,48,159015,1,2
240,144,159244,1,0
256,192,159702,12,6,162679
