osu file format v5

[General]
AudioFilename: DNF.mp3
AudioLeadIn: 0
PreviewTime: -1
Countdown: 1
SampleSet: Soft
StackLeniency: 0.7
Mode: 0
LetterboxInBreaks: 1

[Metadata]
Title:DNF
Artist:SLL
Creator:osu_CN_sll
Version:very hard
Source:DNF
Tags:DNF

[Difficulty]
HPDrainRate:7
CircleSize:6
OverallDifficulty:7
SliderMultiplier:0.7
SliderTickRate:0.5

[Events]
//Background and Video events
0,0,"a503e301c5920d08738b6549.jpg"
//Break Periods
2,22300,22595
2,70808,94873
2,117183,117479
2,126602,127246
//Storyboard Layer 0 (Background)
//Storyboard Layer 1 (Failing)
//Storyboard Layer 2 (Passing)
//Storyboard Layer 3 (Foreground)
//Storyboard Sound Samples
//Background Colour Transformations
3,100,163,162,255

[TimingPoints]
1160,174.418604651163,4,2,0,49,1,0
61944,-100,4,2,0,0,0,0
62468,-100,4,2,0,49,0,0
96053,-100,4,2,0,51,0,0
96392,-100,4,2,0,0,0,0
97439,-100,4,2,0,51,0,0
97787,-100,4,2,0,0,0,0
98834,-100,4,2,0,49,0,0
99183,-100,4,2,0,0,0,0
100229,-100,4,2,0,51,0,0
101973,-100,4,2,0,0,0,0
103020,-100,4,2,0,49,0,0
103369,-100,4,2,0,0,0,0
104415,-100,4,2,0,50,0,0
104764,-100,4,2,0,0,0,0
105811,-100,4,2,0,51,0,0
107216,-100,4,2,0,51,0,0
118379,-100,4,2,0,51,0,0
128146,-100,4,2,0,0,0,0
135123,-100,4,2,0,50,0,0

[Colours]
Combo1 : 255,255,255
Combo2 : 255,128,255
Combo3 : 0,255,255
Combo4 : 0,0,0
Combo5 : 255,150,0

[HitObjects]
96,96,1160,1,6
160,96,1508,1,6
224,96,1857,1,6
224,160,2206,1,2
256,160,2380,1,2
288,160,2555,2,10,B|384:160,2,70
288,224,3253,1,10
160,224,3601,1,2
128,192,3776,1,2
96,160,3950,5,6
160,96,4299,1,6
224,96,4648,1,6
224,160,4997,1,2
256,160,5171,1,2
288,160,5346,2,10,B|384:160,2,70
288,224,6043,1,10
384,160,6392,1,2
416,128,6566,1,2
416,96,6741,5,6
352,96,7090,1,6
288,96,7439,1,6
288,160,7787,1,2
256,160,7962,1,2
224,160,8136,2,10,B|128:160,2,70
224,224,8834,1,10
320,224,9183,1,2
352,192,9357,1,2
384,160,9532,5,6
352,96,9880,1,6
288,96,10229,1,6
288,160,10578,1,2
256,160,10753,1,2
224,160,10927,2,10,B|128:160,2,70
224,224,11625,1,10
128,192,11973,1,2
96,160,12148,1,2
128,128,12322,5,6
192,96,12671,1,6
256,96,13020,2,10,B|416:96,1,140
392,96,13543,1,2
432,112,13718,1,2
448,144,13892,1,6
416,176,14066,1,6
264,160,14415,2,10,B|104:160,1,140
320,160,15113,2,6,B|160:160,1,140
224,224,15811,2,2,B|320:224,2,70
256,256,16508,1,6
256,224,16683,1,6
256,192,16857,1,6
320,192,17206,1,6
384,160,17555,1,2
416,128,17729,1,2
384,96,17904,5,6
320,96,18253,1,6
256,96,18601,2,6,B|96:96,1,140,4|0
116,96,19125,1,2
88,128,19299,1,6
96,168,19473,1,6
136,184,19648,1,6
256,160,19997,2,6,B|416:160,1,140,4|0
192,160,20694,2,6,B|352:160,1,140,6|2
288,224,21392,2,10,B|192:224,2,70
256,256,21915,1,2
256,256,22090,1,10
96,96,23485,6,2,B|96:176,1,70
128,128,23834,2,2,B|128:208,1,70
160,160,24183,2,2,B|160:240,1,70
128,272,24532,1,2
160,304,24706,2,2,B|272:304,1,70
288,304,25055,1,2
336,304,25229,1,2
384,304,25404,1,2
432,304,25578,2,2,B|432:224,1,70
432,176,25927,2,2,B|352:176,1,70
304,176,26276,2,2,B|304:240|304:240|224:240|224:240|224:160|224:160|304:160|304:160|224:240|224:240|224:160|224:160|304:160|304:160|320:192,1,560
416,192,28020,1,2
352,192,28369,1,2
288,192,28718,1,2
112,80,29066,2,2,B|160:144,1,70
176,80,29415,2,2,B|224:144,1,70
240,80,29764,2,2,B|288:144,1,70
288,80,30113,1,2
336,80,30287,1,2
384,80,30462,1,2
432,80,30636,1,2
432,128,30811,2,2,B|432:272,1,140,2|2
432,208,31334,1,2
480,208,31508,2,2,B|320:208,1,140
256,272,32206,1,2
144,272,32555,1,2
80,176,32904,1,2
80,176,33078,1,2
80,176,33253,1,2
80,176,33427,1,2
80,176,33601,1,2
160,96,33950,1,2
48,96,34299,1,2
48,96,34473,1,2
48,96,34648,1,2
144,160,34997,6,2,B|208:200,2,70
160,112,35520,2,2,B|208:48,1,70
256,32,35869,1,2
304,32,36043,1,2
304,80,36218,1,2
304,80,36392,1,2
304,192,36741,1,2
304,304,37090,2,2,B|224:304,1,70
144,240,37439,1,2
64,160,37787,1,2
144,80,38136,1,2
224,160,38485,2,2,B|304:160,1,70
352,160,38834,2,2,B|432:160,2,70
240,160,39532,1,2
96,80,39880,2,2,B|176:80,1,70
224,80,40229,1,2
336,80,40578,1,2
336,80,40753,1,2
336,80,40927,1,2
336,128,41101,1,2
384,128,41276,1,2
384,176,41450,1,2
432,176,41625,1,2
432,224,41799,1,2
432,224,41973,1,2
432,336,42322,1,2
320,336,42671,1,2
320,336,42846,1,2
256,336,43020,1,2
256,224,43369,1,2
368,224,43718,1,2
256,224,44066,1,2
256,224,44241,1,2
192,224,44415,2,2,B|112:224,2,70
192,112,45113,1,2
80,112,45462,5,2
80,112,45636,1,2
48,160,45811,5,2
128,80,46160,2,2,B|272:80,1,140
384,80,47032,1,2
384,80,47206,1,2
384,80,47380,1,2
384,80,47555,1,2
384,192,47904,1,2
384,304,48253,1,2
272,304,48601,1,2
160,304,48950,1,2
48,304,49299,1,2
48,192,49648,1,2
48,240,49822,1,2
96,248,49997,2,2,B|96:88,1,140
152,104,50520,1,2
208,104,50694,2,2,B|368:104,1,140
352,160,51218,1,2
408,160,51392,1,2
480,96,51741,5,2
448,96,51915,1,2
416,96,52090,1,2
384,192,52439,1,2
352,96,52787,1,2
320,96,52962,1,2
288,96,53136,1,2
224,192,53485,1,2
512,224,53834,5,2
512,224,54008,1,2
480,224,54183,1,2
480,224,54357,1,2
448,224,54532,1,2
448,224,54706,1,2
416,224,54880,1,2
416,224,55055,1,2
384,224,55229,1,2
384,224,55404,1,2
352,224,55578,1,2
352,192,55753,1,2
352,160,55927,5,2
320,160,56101,1,2
288,160,56276,1,2
256,160,56450,1,2
224,160,56625,1,2
192,160,56799,1,2
160,160,56973,1,2
288,96,57322,6,2,B|160:96,2,70,2|2|2
256,192,58020,1,2
288,304,58369,2,2,B|192:304,2,70
256,192,59066,1,2
256,80,59415,1,2
144,80,59764,1,2
32,80,60113,1,2
32,192,60462,1,2
144,192,60811,1,2
144,192,60985,1,2
144,192,61160,1,2
144,192,61334,1,2
144,192,61508,1,2
256,240,61857,1,2
256,240,61944,1,0
256,240,62032,1,0
256,240,62119,1,0
256,240,62206,1,0
256,240,62293,1,0
256,240,62380,1,0
256,160,62555,5,2
160,256,62904,2,2,B|256:256,2,70
256,320,63601,1,2
288,256,63950,2,2,B|384:256,2,70
256,320,64648,1,2
256,192,64997,1,2
160,96,65694,5,2
192,96,65869,1,2
224,96,66043,1,2
256,96,66218,1,2
288,96,66392,1,2
320,96,66566,1,2
352,96,66741,1,2
128,192,67090,6,2,B|224:192,1,70
224,192,67439,2,2,B|320:192,1,70
320,192,67787,2,2,B|416:192,1,70
416,192,68136,1,2
128,256,68485,6,2,B|224:256,1,70
224,256,68834,1,2
256,352,69183,1,2
288,256,69532,2,2,B|384:256,1,70
384,256,69880,1,2
352,224,70229,1,2
256,192,70578,1,2
32,96,96043,5,2
96,32,96392,1,2
160,96,96741,1,2
224,32,97090,1,2
288,96,97439,1,2
352,32,97787,1,2
416,96,98136,1,2
480,192,98485,1,2
416,256,98834,1,2
352,192,99183,1,2
288,256,99532,1,2
224,192,99880,1,2
160,256,100229,1,2
64,96,101625,5,2
128,32,101973,1,2
192,96,102322,1,2
256,32,102671,1,2
320,96,103020,1,2
384,32,103369,1,2
448,96,103718,1,2
448,192,104066,1,2
384,256,104415,1,2
320,192,104764,1,2
256,256,105113,1,2
192,192,105462,1,2
128,256,105811,1,2
192,224,106160,1,2
256,192,106508,1,2
32,64,107206,5,2
96,64,107555,1,2
160,64,107904,1,2
192,64,108078,1,2
224,64,108253,1,2
256,64,108427,2,2,B|352:64,1,70
352,64,108776,1,2
384,64,108950,1,2
416,128,109299,1,2
416,192,109648,1,2
384,192,109822,1,2
352,192,109997,1,2
352,160,110171,1,2
352,128,110346,1,2
320,128,110520,1,2
288,128,110694,1,2
288,160,110869,1,2
288,192,111043,1,2
256,192,111218,1,2
224,192,111392,1,2
160,224,111741,1,2
160,128,112090,1,2
96,224,112439,1,2
96,128,112787,1,2
32,96,113136,5,2
128,32,113485,1,2
256,96,114008,1,2
288,96,114183,1,2
288,192,114532,1,2
160,256,114880,1,2
32,192,115229,1,2
64,224,115404,1,2
64,192,115578,1,2
96,160,115753,1,2
128,192,115927,1,2
128,160,116101,1,2
160,128,116276,1,2
192,160,116450,1,2
192,128,116625,1,2
224,96,116799,1,2
224,96,116973,1,2
32,64,118369,5,2
96,64,118718,1,2
128,64,118892,1,2
160,64,119066,1,2
240,161,119415,1,2
320,64,119764,1,2
352,64,119939,1,2
384,64,120113,1,2
256,128,120462,1,2
352,160,120811,1,2
256,128,121160,1,2
256,16,121508,1,2
368,16,121857,1,2
352,128,122206,1,2
384,160,122380,1,2
416,192,122555,1,2
432,224,122729,1,2
416,256,122904,2,2,B|320:256,1,70
320,256,123253,2,2,B|224:256,1,70
224,256,123601,2,2,B|128:256,1,70
128,256,123950,1,2
64,64,124299,6,2,B|160:64,1,70
160,64,124648,1,2
256,128,124997,1,2
352,64,125346,2,2,B|448:64,1,70
448,64,125694,1,2
352,128,126043,1,2
256,192,126392,1,2
256,192,128136,12,2,134939
256,192,135113,5,2
