osu file format v14

[General]
AudioFilename: soundcloud-126271579_I_found_this_in_my_Puush.mp3
AudioLeadIn: 0
PreviewTime: -1
Countdown: 1
SampleSet: Normal
StackLeniency: 0.7
Mode: 0
LetterboxInBreaks: 1
WidescreenStoryboard: 0

[Editor]
DistanceSpacing: 0.6
BeatDivisor: 16
GridSize: 32
TimelineZoom: 1

[Metadata]
Title:WALLY WALLY WALLY WALLY
TitleUnicode:WALLY WALLY WALLY WALLY
Artist:SLE
ArtistUnicode:SLE
Creator:Chippy
Version:GROCERIES
Source:
Tags:Walmart Wally World Groceries Louisiana Purchas
BeatmapID:640461
BeatmapSetID:283307

[Difficulty]
HPDrainRate:2
CircleSize:4
OverallDifficulty:7
ApproachRate:10
SliderMultiplier:1.4
SliderTickRate:1

[Events]
//Background and Video events
0,0,"back.jpg",0,0
//Break Periods
//Storyboard Layer 0 (Background)
//Storyboard Layer 1 (Fail)
//Storyboard Layer 2 (Pass)
//Storyboard Layer 3 (Foreground)
//Storyboard Sound Samples

[TimingPoints]
8399.83680499518,434.153400868307,4,1,0,100,1,0

[Colours]
Combo1 : 255,255,145
Combo2 : 111,111,255

[HitObjects]
104,68,6663,5,0,0:0:0:0:
113,86,6771,1,0,0:0:0:0:
123,104,6880,1,0,0:0:0:0:
133,122,6988,1,0,0:0:0:0:
143,140,7097,1,0,0:0:0:0:
151,158,7205,1,0,0:0:0:0:
160,176,7314,1,0,0:0:0:0:
170,194,7422,1,0,0:0:0:0:
180,212,7531,1,0,0:0:0:0:
189,230,7640,1,0,0:0:0:0:
207,238,7748,1,0,0:0:0:0:
228,238,7857,1,0,0:0:0:0:
251,233,7965,1,0,0:0:0:0:
366,101,8399,5,0,0:0:0:0:
350,115,8508,1,0,0:0:0:0:
330,122,8616,1,0,0:0:0:0:
308,123,8725,1,0,0:0:0:0:
289,112,8833,1,0,0:0:0:0:
276,95,8942,1,0,0:0:0:0:
262,78,9051,1,0,0:0:0:0:
241,73,9159,1,0,0:0:0:0:
220,75,9268,1,0,0:0:0:0:
200,83,9376,1,0,0:0:0:0:
182,94,9485,1,0,0:0:0:0:
166,107,9593,1,0,0:0:0:0:
150,121,9702,1,0,0:0:0:0:
139,139,9810,1,0,0:0:0:0:
133,159,9919,1,0,0:0:0:0:
131,179,10027,1,0,0:0:0:0:
129,200,10136,1,0,0:0:0:0:
135,219,10244,1,0,0:0:0:0:
145,237,10353,1,0,0:0:0:0:
159,251,10462,1,0,0:0:0:0:
177,261,10570,1,0,0:0:0:0:
196,273,10679,1,0,0:0:0:0:
215,281,10787,1,0,0:0:0:0:
236,279,10896,1,0,0:0:0:0:
255,271,11004,1,0,0:0:0:0:
270,257,11113,1,0,0:0:0:0:
282,240,11221,1,0,0:0:0:0:
287,219,11330,1,0,0:0:0:0:
288,198,11438,1,0,0:0:0:0:
287,156,11655,5,0,0:0:0:0:
356,98,11873,1,0,0:0:0:0:
369,114,11981,1,0,0:0:0:0:
375,133,12090,1,0,0:0:0:0:
377,153,12198,1,0,0:0:0:0:
373,173,12307,1,0,0:0:0:0:
365,192,12415,1,0,0:0:0:0:
355,210,12524,1,0,0:0:0:0:
340,224,12632,1,0,0:0:0:0:
325,239,12741,1,0,0:0:0:0:
308,251,12849,1,0,0:0:0:0:
289,260,12958,1,0,0:0:0:0:
269,267,13066,1,0,0:0:0:0:
248,272,13175,1,0,0:0:0:0:
227,275,13284,1,0,0:0:0:0:
206,275,13392,1,0,0:0:0:0:
185,272,13501,1,0,0:0:0:0:
165,264,13609,1,0,0:0:0:0:
148,250,13718,1,0,0:0:0:0:
136,232,13826,1,0,0:0:0:0:
132,211,13935,1,0,0:0:0:0:
131,190,14043,1,0,0:0:0:0:
137,170,14152,1,0,0:0:0:0:
147,151,14260,1,0,0:0:0:0:
159,134,14369,1,0,0:0:0:0:
174,120,14477,1,0,0:0:0:0:
192,110,14586,1,0,0:0:0:0:
213,110,14695,1,0,0:0:0:0:
232,117,14803,1,0,0:0:0:0:
299,189,14912,5,0,0:0:0:0:
232,117,15346,1,0,0:0:0:0:
213,110,15454,1,0,0:0:0:0:
192,110,15563,1,0,0:0:0:0:
174,120,15671,1,0,0:0:0:0:
159,134,15780,1,0,0:0:0:0:
147,151,15888,1,0,0:0:0:0:
142,171,15997,1,0,0:0:0:0:
144,191,16106,1,0,0:0:0:0:
148,211,16214,1,0,0:0:0:0:
155,230,16323,1,0,0:0:0:0:
165,248,16431,1,0,0:0:0:0:
174,266,16540,1,0,0:0:0:0:
187,281,16648,1,0,0:0:0:0:
205,291,16757,1,0,0:0:0:0:
224,297,16865,1,0,0:0:0:0:
244,302,16974,1,0,0:0:0:0:
264,303,17082,1,0,0:0:0:0:
281,291,17191,1,0,0:0:0:0:
289,271,17299,1,0,0:0:0:0:
284,250,17408,1,0,0:0:0:0:
263,246,17517,1,0,0:0:0:0:
284,250,17625,1,0,0:0:0:0:
304,254,17734,1,0,0:0:0:0:
324,258,17842,1,0,0:0:0:0:
343,264,17951,1,0,0:0:0:0:
327,278,18059,1,0,0:0:0:0:
311,291,18168,1,0,0:0:0:0:
281,291,18276,1,0,0:0:0:0:
289,271,18385,1,0,0:0:0:0:
182,205,18602,1,0,0:0:0:0:
337,86,18819,5,0,0:0:0:0:
315,86,18928,1,0,0:0:0:0:
327,103,19036,1,0,0:0:0:0:
339,120,19145,1,0,0:0:0:0:
318,123,19253,1,0,0:0:0:0:
327,141,19362,1,0,0:0:0:0:
339,157,19470,1,0,0:0:0:0:
318,159,19579,1,0,0:0:0:0:
328,177,19687,1,0,0:0:0:0:
340,194,19796,1,0,0:0:0:0:
319,194,19904,1,0,0:0:0:0:
328,213,20013,1,0,0:0:0:0:
340,229,20121,1,0,0:0:0:0:
319,234,20230,1,0,0:0:0:0:
298,237,20339,1,0,0:0:0:0:
277,239,20447,1,0,0:0:0:0:
255,240,20556,1,0,0:0:0:0:
234,234,20664,1,0,0:0:0:0:
248,218,20773,1,0,0:0:0:0:
262,203,20881,1,0,0:0:0:0:
246,188,20990,1,0,0:0:0:0:
230,174,21098,1,0,0:0:0:0:
245,160,21207,1,0,0:0:0:0:
261,146,21315,1,0,0:0:0:0:
249,128,21424,1,0,0:0:0:0:
241,108,21532,1,0,0:0:0:0:
247,87,21641,1,0,0:0:0:0:
263,74,21750,1,0,0:0:0:0:
380,60,21858,1,0,0:0:0:0:
139,85,22292,5,0,0:0:0:0:
138,160,22401,1,0,0:0:0:0:
74,121,22509,1,0,0:0:0:0:
204,122,22618,1,0,0:0:0:0:
249,128,22726,1,0,0:0:0:0:
269,131,22835,1,0,0:0:0:0:
285,143,22943,1,0,0:0:0:0:
295,161,23052,1,0,0:0:0:0:
301,181,23161,1,0,0:0:0:0:
301,201,23269,1,0,0:0:0:0:
301,222,23378,1,0,0:0:0:0:
298,242,23486,1,0,0:0:0:0:
267,295,23595,1,0,0:0:0:0:
253,242,23703,1,0,0:0:0:0:
210,273,23812,1,0,0:0:0:0:
213,207,23920,1,0,0:0:0:0:
124,224,24029,1,0,0:0:0:0:
154,145,24137,1,0,0:0:0:0:
51,127,24246,1,0,0:0:0:0:
146,62,24354,1,0,0:0:0:0:
166,64,24463,1,0,0:0:0:0:
183,76,24572,1,0,0:0:0:0:
195,93,24680,1,0,0:0:0:0:
201,112,24789,1,0,0:0:0:0:
208,131,24897,1,0,0:0:0:0:
210,151,25006,1,0,0:0:0:0:
210,171,25114,1,0,0:0:0:0:
222,188,25223,1,0,0:0:0:0:
235,203,25331,1,0,0:0:0:0:
375,189,25548,1,0,0:0:0:0:
256,192,25765,12,0,25765,0:0:0:0:
256,192,25874,12,0,25874,0:0:0:0:
256,192,25983,12,0,25983,0:0:0:0:
256,192,26091,12,0,26091,0:0:0:0:
256,192,26200,12,0,26200,0:0:0:0:
256,192,26308,12,0,26308,0:0:0:0:
256,192,26417,12,0,26417,0:0:0:0:
256,192,26525,12,0,26525,0:0:0:0:
256,192,26634,12,0,26634,0:0:0:0:
256,192,26742,12,0,26742,0:0:0:0:
256,192,26851,12,0,26851,0:0:0:0:
256,192,26959,12,0,26959,0:0:0:0:
256,192,27068,12,0,27068,0:0:0:0:
256,192,27176,12,0,27176,0:0:0:0:
256,192,27285,12,0,27285,0:0:0:0:
256,192,27394,12,0,27394,0:0:0:0:
256,192,27502,12,0,27502,0:0:0:0:
256,192,27611,12,0,27611,0:0:0:0:
256,192,27719,12,0,27719,0:0:0:0:
256,192,27828,12,0,27828,0:0:0:0:
256,192,27936,12,0,27936,0:0:0:0:
256,192,28045,12,0,28045,0:0:0:0:
256,192,28153,12,0,28153,0:0:0:0:
256,192,28262,12,0,28262,0:0:0:0:
256,192,28370,12,0,28370,0:0:0:0:
256,192,28479,12,0,28479,0:0:0:0:
256,192,28587,12,0,28587,0:0:0:0:
256,192,28696,12,0,28696,0:0:0:0:
256,192,28805,12,0,28805,0:0:0:0:
256,192,29239,5,8,0:0:0:0:
256,160,29347,1,8,0:0:0:0:
288,192,29456,1,8,0:0:0:0:
256,224,29564,1,8,0:0:0:0:
224,192,29673,1,8,0:0:0:0:
256,128,29781,1,8,0:0:0:0:
320,192,29890,1,8,0:0:0:0:
256,256,29998,5,8,0:0:0:0:
192,192,30107,1,8,0:0:0:0:
224,160,30216,1,8,0:0:0:0:
288,160,30324,1,8,0:0:0:0:
288,224,30433,1,8,0:0:0:0:
224,224,30541,1,8,0:0:0:0:
256,192,30650,1,8,0:0:0:0:
32,192,30758,1,8,0:0:0:0:
480,192,30867,1,8,0:0:0:0:
256,0,30975,1,8,0:0:0:0:
248,19,31084,1,8,0:0:0:0:
242,39,31192,1,8,0:0:0:0:
252,57,31301,1,8,0:0:0:0:
262,74,31409,1,8,0:0:0:0:
261,95,31518,5,8,0:0:0:0:
247,111,31627,1,8,0:0:0:0:
239,130,31735,1,8,0:0:0:0:
245,150,31844,1,8,0:0:0:0:
256,167,31952,1,8,0:0:0:0:
256,192,32061,1,8,0:0:0:0:
246,210,32169,1,8,0:0:0:0:
252,230,32278,1,8,0:0:0:0:
252,316,32495,1,8,0:0:0:0:
422,200,32712,1,0,0:0:0:0:
392,180,32820,1,0,0:0:0:0:
362,163,32929,1,0,0:0:0:0:
330,149,33037,1,0,0:0:0:0:
296,139,33146,1,0,0:0:0:0:
262,132,33254,1,0,0:0:0:0:
227,129,33363,1,0,0:0:0:0:
192,130,33471,1,0,0:0:0:0:
157,133,33580,1,0,0:0:0:0:
123,140,33688,1,0,0:0:0:0:
91,153,33797,1,0,0:0:0:0:
94,130,33905,1,0,0:0:0:0:
99,95,34014,1,0,0:0:0:0:
102,60,34122,1,0,0:0:0:0:
256,192,34449,12,0,34449,0:0:0:0:
256,192,34666,12,0,34666,0:0:0:0:
256,192,34883,12,0,34883,0:0:0:0:
256,192,35100,12,0,35100,0:0:0:0:
256,192,35317,12,0,35317,0:0:0:0:
256,192,35534,12,0,35534,0:0:0:0:
256,192,35751,12,0,35751,0:0:0:0:
256,192,35968,12,0,35968,0:0:0:0:
256,192,36185,12,0,36185,0:0:0:0:
256,192,36402,12,0,36402,0:0:0:0:
256,192,36619,12,0,36619,0:0:0:0:
256,192,36836,12,0,36836,0:0:0:0:
256,192,37053,12,0,37053,0:0:0:0:
256,192,37271,12,0,37271,0:0:0:0:
256,192,37488,12,0,37488,0:0:0:0:
256,192,37705,12,0,37705,0:0:0:0:
256,192,37922,12,0,37922,0:0:0:0:
256,192,38139,12,0,38139,0:0:0:0:
256,192,38356,12,0,38356,0:0:0:0:
256,192,38573,12,0,38573,0:0:0:0:
256,192,38790,12,0,38790,0:0:0:0:
256,192,39007,12,0,39007,0:0:0:0:
256,192,39224,12,0,39224,0:0:0:0:
256,192,39441,12,0,39441,0:0:0:0:
256,192,39658,12,0,39658,0:0:0:0:
256,192,39875,12,0,39875,0:0:0:0:
256,192,40093,12,0,40093,0:0:0:0:
256,192,40310,12,0,40310,0:0:0:0:
256,192,40527,12,0,40527,0:0:0:0:
256,192,40744,12,0,40744,0:0:0:0:
256,192,40961,12,0,40961,0:0:0:0:
256,192,41178,12,0,41178,0:0:0:0:
256,192,41395,12,0,41395,0:0:0:0:
256,192,41612,12,0,41612,0:0:0:0:
256,192,41829,12,0,41829,0:0:0:0:
256,192,42046,12,0,42046,0:0:0:0:
256,192,42263,12,0,42263,0:0:0:0:
256,192,42480,12,0,42480,0:0:0:0:
256,192,42697,12,0,42697,0:0:0:0:
256,192,42915,12,0,42915,0:0:0:0:
256,192,43132,12,0,43132,0:0:0:0:
256,192,43349,12,0,43349,0:0:0:0:
256,192,43566,12,0,43566,0:0:0:0:
256,192,43783,12,0,43783,0:0:0:0:
256,192,44000,12,0,44000,0:0:0:0:
256,192,44217,12,0,44217,0:0:0:0:
256,192,44434,12,0,44434,0:0:0:0:
256,192,44651,12,0,44651,0:0:0:0:
256,192,44868,12,0,44868,0:0:0:0:
256,192,44977,12,0,44977,0:0:0:0:
256,192,45085,12,0,45085,0:0:0:0:
256,192,45194,12,0,45194,0:0:0:0:
256,192,45302,12,0,45302,0:0:0:0:
256,192,45411,12,0,45411,0:0:0:0:
256,192,45519,12,0,45519,0:0:0:0:
256,192,45628,12,0,45628,0:0:0:0:
256,192,45737,12,0,45737,0:0:0:0:
256,192,45845,12,0,45845,0:0:0:0:
256,192,45954,12,0,45954,0:0:0:0:
256,192,46062,12,0,46062,0:0:0:0:
256,192,46171,12,0,46171,0:0:0:0:
256,192,46279,12,0,46279,0:0:0:0:
256,192,46388,12,0,46388,0:0:0:0:
256,192,46496,12,0,46496,0:0:0:0:
256,192,46605,12,0,46605,0:0:0:0:
256,192,46713,12,0,46713,0:0:0:0:
256,192,46822,12,0,46822,0:0:0:0:
256,192,46930,12,0,46930,0:0:0:0:
256,192,47039,12,0,47039,0:0:0:0:
256,192,47148,12,0,47148,0:0:0:0:
256,192,47256,12,0,47256,0:0:0:0:
256,192,47365,12,0,47365,0:0:0:0:
256,192,47473,12,0,47473,0:0:0:0:
256,192,47582,12,0,47582,0:0:0:0:
256,192,47690,12,0,47690,0:0:0:0:
256,192,47799,12,0,47799,0:0:0:0:
256,192,47907,12,0,47907,0:0:0:0:
256,192,48016,12,0,48016,0:0:0:0:
256,192,48124,12,0,48124,0:0:0:0:
256,192,48233,12,0,48233,0:0:0:0:
256,192,48341,12,0,48341,0:0:0:0:
256,192,48450,12,0,48450,0:0:0:0:
256,192,48559,12,0,48559,0:0:0:0:
256,192,48667,12,0,48667,0:0:0:0:
256,192,48884,12,0,48884,0:0:0:0:
256,192,48993,12,0,48993,0:0:0:0:
256,192,49318,12,0,49318,0:0:0:0:
256,192,49535,12,0,49535,0:0:0:0:
256,192,49644,12,0,49644,0:0:0:0:
256,192,49752,12,0,49752,0:0:0:0:
256,192,50187,12,0,50187,0:0:0:0:
256,192,50729,12,0,50729,0:0:0:0:
256,192,51055,12,0,51055,0:0:0:0:
256,192,51381,12,0,51381,0:0:0:0:
256,192,51706,12,0,51706,0:0:0:0:
256,192,52140,12,0,52140,0:0:0:0:
256,192,52357,12,0,52357,0:0:0:0:
256,192,52792,12,0,52792,0:0:0:0:
256,192,53117,12,0,53117,0:0:0:0:
256,192,53226,12,0,53226,0:0:0:0:
256,192,53660,12,0,53660,0:0:0:0:
256,192,54203,12,0,54203,0:0:0:0:
256,192,54528,12,0,54528,0:0:0:0:
256,192,54637,12,0,54637,0:0:0:0:
256,192,54745,12,0,54745,0:0:0:0:
256,192,54962,12,0,54962,0:0:0:0:
256,192,55071,12,0,55071,0:0:0:0:
256,192,55288,12,0,55288,0:0:0:0:
256,192,55505,12,0,55505,0:0:0:0:
256,192,55722,12,0,55722,0:0:0:0:
256,192,56048,12,0,56048,0:0:0:0:
256,192,56265,12,0,56265,0:0:0:0:
256,192,56482,12,0,56482,0:0:0:0:
256,192,56699,12,0,56699,0:0:0:0:
256,192,56916,12,0,56916,0:0:0:0:
256,192,57242,12,0,57242,0:0:0:0:
256,192,57459,12,0,57459,0:0:0:0:
256,192,57784,12,0,57784,0:0:0:0:
256,192,58653,12,0,58653,0:0:0:0:
256,192,58978,12,0,58978,0:0:0:0:
256,192,59195,12,0,59195,0:0:0:0:
256,192,59412,12,0,59412,0:0:0:0:
120,62,60335,5,0,0:0:0:0:
121,63,60389,5,0,0:0:0:0:
122,64,60443,5,0,0:0:0:0:
123,66,60497,5,0,0:0:0:0:
256,192,60498,12,0,60498,0:0:0:0:
124,67,60552,5,0,0:0:0:0:
125,68,60606,5,0,0:0:0:0:
126,70,60660,5,0,0:0:0:0:
127,71,60714,5,0,0:0:0:0:
256,192,60715,12,0,60715,0:0:0:0:
128,73,60769,5,0,0:0:0:0:
129,74,60823,5,0,0:0:0:0:
130,75,60877,5,0,0:0:0:0:
131,77,60931,5,0,0:0:0:0:
256,192,60932,12,0,60932,0:0:0:0:
132,78,60986,5,0,0:0:0:0:
134,79,61040,5,0,0:0:0:0:
135,81,61094,5,0,0:0:0:0:
256,192,61149,12,0,61149,0:0:0:0:
136,82,61149,5,0,0:0:0:0:
137,83,61203,5,0,0:0:0:0:
138,85,61257,5,0,0:0:0:0:
139,86,61311,5,0,0:0:0:0:
141,87,61366,5,0,0:0:0:0:
142,88,61420,5,0,0:0:0:0:
143,90,61474,5,0,0:0:0:0:
144,91,61528,5,0,0:0:0:0:
145,92,61583,5,0,0:0:0:0:
147,94,61637,5,0,0:0:0:0:
148,95,61691,5,0,0:0:0:0:
149,96,61745,5,0,0:0:0:0:
150,97,61800,5,0,0:0:0:0:
151,99,61854,5,0,0:0:0:0:
153,100,61908,5,0,0:0:0:0:
154,101,61963,5,0,0:0:0:0:
155,102,62017,5,0,0:0:0:0:
156,104,62071,5,0,0:0:0:0:
158,105,62125,5,0,0:0:0:0:
159,106,62180,5,0,0:0:0:0:
256,192,62234,12,0,62234,0:0:0:0:
160,107,62234,5,0,0:0:0:0:
162,108,62288,5,0,0:0:0:0:
163,110,62342,5,0,0:0:0:0:
164,111,62397,5,0,0:0:0:0:
256,192,62451,12,0,62451,0:0:0:0:
165,112,62451,5,0,0:0:0:0:
167,113,62505,5,0,0:0:0:0:
168,114,62560,5,0,0:0:0:0:
169,115,62614,5,0,0:0:0:0:
171,117,62668,5,0,0:0:0:0:
256,192,62669,12,0,62669,0:0:0:0:
172,118,62722,5,0,0:0:0:0:
256,192,62777,12,0,62777,0:0:0:0:
173,119,62777,5,0,0:0:0:0:
175,120,62831,5,0,0:0:0:0:
176,121,62885,5,0,0:0:0:0:
256,192,62886,12,0,62886,0:0:0:0:
177,122,62939,5,0,0:0:0:0:
256,192,62994,12,0,62994,0:0:0:0:
179,123,62994,5,0,0:0:0:0:
180,125,63048,5,0,0:0:0:0:
181,126,63102,5,0,0:0:0:0:
256,192,63103,12,0,63103,0:0:0:0:
183,127,63156,5,0,0:0:0:0:
256,192,63211,12,0,63211,0:0:0:0:
184,128,63211,5,0,0:0:0:0:
185,129,63265,5,0,0:0:0:0:
187,130,63319,5,0,0:0:0:0:
256,192,63320,12,0,63320,0:0:0:0:
188,131,63374,5,0,0:0:0:0:
256,192,63428,12,0,63428,0:0:0:0:
189,132,63428,5,0,0:0:0:0:
191,133,63482,5,0,0:0:0:0:
192,134,63536,5,0,0:0:0:0:
256,192,63537,12,0,63537,0:0:0:0:
194,135,63591,5,0,0:0:0:0:
256,192,63645,12,0,63645,0:0:0:0:
195,137,63645,5,0,0:0:0:0:
196,138,63699,5,0,0:0:0:0:
198,139,63753,5,0,0:0:0:0:
256,192,63754,12,0,63754,0:0:0:0:
199,140,63808,5,0,0:0:0:0:
256,192,63862,12,0,63862,0:0:0:0:
201,141,63862,5,0,0:0:0:0:
256,192,63890,12,0,63890,0:0:0:0:
202,142,63916,5,0,0:0:0:0:
256,192,63971,12,0,63971,0:0:0:0:
203,143,63971,5,0,0:0:0:0:
205,144,64025,5,0,0:0:0:0:
256,192,64052,12,0,64052,0:0:0:0:
206,145,64079,5,0,0:0:0:0:
256,192,64080,12,0,64080,0:0:0:0:
256,192,64107,12,0,64107,0:0:0:0:
208,146,64133,5,0,0:0:0:0:
256,192,64134,12,0,64134,0:0:0:0:
256,192,64161,12,0,64161,0:0:0:0:
256,192,64188,12,0,64188,0:0:0:0:
209,147,64188,5,0,0:0:0:0:
256,192,64215,12,0,64215,0:0:0:0:
256,192,64242,12,0,64242,0:0:0:0:
210,148,64242,5,0,0:0:0:0:
256,192,64269,12,0,64269,0:0:0:0:
212,149,64296,5,0,0:0:0:0:
256,192,64297,12,0,64297,0:0:0:0:
256,192,64324,12,0,64324,0:0:0:0:
213,150,64350,5,0,0:0:0:0:
256,192,64351,12,0,64351,0:0:0:0:
256,192,64378,12,0,64378,0:0:0:0:
256,192,64405,12,0,64405,0:0:0:0:
215,151,64405,5,0,0:0:0:0:
256,192,64432,12,0,64432,0:0:0:0:
256,192,64459,12,0,64459,0:0:0:0:
216,152,64459,5,0,0:0:0:0:
256,192,64487,12,0,64487,0:0:0:0:
218,153,64513,5,0,0:0:0:0:
256,192,64514,12,0,64514,0:0:0:0:
256,192,64541,12,0,64541,0:0:0:0:
219,154,64567,5,0,0:0:0:0:
256,192,64568,12,0,64568,0:0:0:0:
256,192,64595,12,0,64595,0:0:0:0:
256,192,64622,12,0,64622,0:0:0:0:
220,155,64622,5,0,0:0:0:0:
256,192,64649,12,0,64649,0:0:0:0:
256,192,64676,12,0,64676,0:0:0:0:
222,156,64676,5,0,0:0:0:0:
256,192,64704,12,0,64704,0:0:0:0:
223,157,64730,5,0,0:0:0:0:
256,192,64731,12,0,64731,0:0:0:0:
256,192,64758,12,0,64758,0:0:0:0:
256,192,64785,12,0,64785,0:0:0:0:
225,158,64785,5,0,0:0:0:0:
256,192,64812,12,0,64812,0:0:0:0:
256,192,64839,12,0,64839,0:0:0:0:
226,159,64839,5,0,0:0:0:0:
256,192,64866,12,0,64866,0:0:0:0:
228,160,64893,5,0,0:0:0:0:
256,192,64894,12,0,64894,0:0:0:0:
256,192,64921,12,0,64921,0:0:0:0:
229,161,64947,5,0,0:0:0:0:
256,192,64948,12,0,64948,0:0:0:0:
256,192,64975,12,0,64975,0:0:0:0:
231,162,65002,5,0,0:0:0:0:
256,192,65029,12,0,65029,0:0:0:0:
256,192,65056,12,0,65056,0:0:0:0:
232,163,65056,5,0,0:0:0:0:
256,192,65083,12,0,65083,0:0:0:0:
233,164,65110,5,0,0:0:0:0:
256,192,65111,12,0,65111,0:0:0:0:
256,192,65138,12,0,65138,0:0:0:0:
235,165,65164,5,0,0:0:0:0:
256,192,65165,12,0,65165,0:0:0:0:
256,192,65192,12,0,65192,0:0:0:0:
256,192,65219,12,0,65219,0:0:0:0:
236,166,65219,5,0,0:0:0:0:
256,192,65246,12,0,65246,0:0:0:0:
256,192,65273,12,0,65273,0:0:0:0:
238,167,65273,5,0,0:0:0:0:
256,192,65301,12,0,65301,0:0:0:0:
239,168,65327,5,0,0:0:0:0:
256,192,65328,12,0,65328,0:0:0:0:
256,192,65355,12,0,65355,0:0:0:0:
256,192,65382,12,0,65382,0:0:0:0:
241,169,65382,5,0,0:0:0:0:
256,192,65409,12,0,65409,0:0:0:0:
256,192,65436,12,0,65436,0:0:0:0:
242,170,65436,5,0,0:0:0:0:
244,170,65490,5,0,0:0:0:0:
256,192,65491,12,0,65491,0:0:0:0:
256,192,65518,12,0,65518,0:0:0:0:
245,171,65544,5,0,0:0:0:0:
256,192,65545,12,0,65545,0:0:0:0:
256,192,65572,12,0,65572,0:0:0:0:
256,192,65599,12,0,65599,0:0:0:0:
247,172,65599,5,0,0:0:0:0:
256,192,65626,12,0,65621,0:0:0:0:
256,192,65653,12,0,65621,0:0:0:0:
248,173,65653,5,0,0:0:0:0:
