osu file format v9

[General]
AudioFilename: okey-dokey.mp3
AudioLeadIn: 0
PreviewTime: -1
Countdown: 1
SampleSet: Normal
StackLeniency: 0.7
Mode: 0
LetterboxInBreaks: 1

[Editor]
DistanceSpacing: 1
BeatDivisor: 4
GridSize: 8

[Metadata]
Title:okey-dokey
Artist:SKE48
Creator:CryNiter
Version:Hard
Source:Okey
Tags:

[Difficulty]
HPDrainRate:5
CircleSize:4
OverallDifficulty:4
ApproachRate:7
SliderMultiplier:1.6
SliderTickRate:1

[Events]
//Background and Video events
Video,-448,"A1.SKE48 オキドキ~2_clip.avi"
0,0,"20111008205126.jpg"
//Break Periods
2,42270,48170
2,58470,70170
//Storyboard Layer 0 (Background)
//Storyboard Layer 1 (Fail)
//Storyboard Layer 2 (Pass)
//Storyboard Layer 3 (Foreground)
//Storyboard Sound Samples
//Background Colour Transformations
3,100,163,162,255

[TimingPoints]
670,400,4,1,0,100,1,0

[Colours]
Combo1 : 128,0,0
Combo2 : 255,0,0
Combo3 : 255,255,0
Combo4 : 0,255,255

[HitObjects]
264,56,670,1,0
384,136,1070,1,0
288,192,1470,2,0,B|240:160|208:240,1,80
224,208,1870,1,0
136,304,2270,5,0
280,304,2670,1,0
240,232,3070,2,0,B|216:192|160:192,1,80
176,192,3470,1,0
312,120,3870,6,0,B|352:168|392:184|480:176,2,160
224,80,4870,1,0
128,88,5070,2,0,B|88:64|56:144,1,80
64,208,5470,5,0
128,304,5870,1,0
256,304,6270,1,0
392,200,6670,1,0
392,104,7070,6,0,B|200:128,2,160
384,200,8070,1,0
288,208,8270,2,0,B|200:224,1,80
120,240,8670,5,0
224,136,9070,1,0
312,56,9470,1,0
312,160,9870,1,0
312,256,10270,2,0,B|472:312,1,160
464,200,10870,1,0
368,112,11270,1,0
280,192,11470,1,0
192,128,11870,1,0
288,32,12270,1,0
424,88,12670,1,0
424,88,13070,1,0
304,80,13470,2,0,B|304:160,1,80
296,248,13770,2,0,B|208:248,1,80
112,240,14070,2,0,B|112:160,1,80
112,80,14470,1,0
256,80,15070,5,0
360,192,15470,1,0
160,192,15870,1,0
256,280,16270,1,0
368,328,16670,2,0,B|424:304|424:272,1,80
408,192,17070,1,0
392,112,17470,2,0,B|360:64|320:72|304:80,1,80
240,72,17870,1,0
200,192,18270,1,0
336,264,18670,1,0
240,304,19070,6,0,B|208:336|208:336|168:320,1,80
112,256,19470,5,0
88,64,19870,6,0,B|85:129|162:124|163:124,1,80
208,160,20270,1,0
296,232,20670,2,0,B|376:288,1,80
432,320,21070,1,0
432,192,21470,1,0
432,48,21870,1,0
264,48,22270,1,0
136,136,22670,1,0
128,240,23070,2,0,B|381:320|315:189|197:195|288:184,1,240
256,200,23870,1,0
240,32,24270,5,0
96,192,25070,5,0
216,192,25470,2,0,B|304:192,1,80
416,200,25870,1,0
408,288,26270,2,0,B|349:318|180:290|146:164,1,320
256,56,27870,5,0
160,144,28270,1,0
344,144,28670,1,0
232,144,29070,2,0,B|200:48,1,80
120,40,29470,2,0,B|144:128,1,80
176,208,29870,1,0
416,40,30270,2,0,B|384:128,1,80
344,208,30670,1,0
256,50,31070,5,0
224,128,31470,2,0,B|184:216|280:224,1,120
256,224,31870,1,0
256,312,32270,1,0
176,264,32670,2,0,B|120:184,1,80
112,112,33070,1,0
208,112,33470,2,0,B|304:112,1,80
400,112,33870,1,0
256,64,34270,5,0
256,280,34670,1,0
160,136,35070,1,0
376,200,35470,1,0
368,112,35870,2,0,B|490:112|486:24|400:-31|328:72,1,240
352,40,36670,1,0
256,40,37070,1,0
256,168,37870,2,0,B|272:368|184:360|104:208,1,320
104,136,39070,1,0
136,48,39670,1,0
136,48,39870,1,0
404,80,40670,5,0
360,176,41070,2,0,B|326:205|303:141,1,80
232,80,41470,1,0
168,144,41870,2,0,B|104:216,1,80
400,72,49070,6,0,B|304:80|328:80|328:128,1,80
104,64,49870,2,0,B|168:64|200:96|200:96,1,80
264,312,50670,2,0,B|264:152,1,160
264,152,51270,1,0
264,72,51470,1,0
408,328,52270,2,0,B|392:216|352:280,1,80
288,288,53070,2,0,B|184:288,1,80
104,288,53870,2,0,B|-24:184|216:48,1,320
256,192,55070,12,0,58270
256,32,71070,5,0
256,160,71470,2,0,B|320:112,1,80
256,280,71870,2,0,B|192:224,1,80
128,168,72270,2,0,B|128:184|64:120|64:120,1,80
160,56,72670,5,0
224,128,73070,2,0,B|264:168|312:160,1,80
352,224,73470,2,0,B|416:272,1,80
464,336,73870,1,0
384,336,74270,1,0
304,256,74470,2,0,B|208:256,1,80
152,296,74870,2,0,B|64:288|112:224,1,80
96,256,75470,1,0
144,160,75870,1,0
256,160,76270,1,0
368,160,76670,2,0,B|368:64,1,80
256,80,77070,1,0
256,80,77270,1,0
104,88,77470,5,0
104,88,77670,1,0
176,160,77870,1,0
104,232,78270,1,0
104,232,78470,1,0
160,296,78670,2,0,B|192:344|232:328,1,80
224,328,79070,1,0
360,304,79270,1,0
368,200,79470,1,0
368,200,79670,1,0
304,144,79870,2,0,B|280:80|216:136|216:136,1,80
240,120,80270,1,0
152,80,80670,5,0
56,80,81470,2,0,B|64:264|160:288,1,240
152,288,82670,1,0
232,320,82870,1,0
296,256,83270,2,0,B|360:192,1,80
352,200,83870,1,0
352,112,84670,2,0,B|464:168|496:96|504:32|400:40,1,240
416,40,85670,1,0
328,40,85870,1,0
240,40,86070,2,0,B|160:40,1,80
160,40,86470,1,0
64,40,87070,5,0
88,144,87870,2,0,B|200:320|280:208,1,240
320,144,89070,1,0
320,144,89270,1,0
256,104,89670,2,0,B|176:104,1,80
80,104,90270,2,0,B|80:184,1,80
80,280,90570,2,0,B|168:280,1,80
240,280,90870,2,0,B|240:184,1,80
240,200,91270,1,0
248,72,91870,5,0
368,144,92270,1,0
264,200,92670,1,0
128,192,93070,1,0
128,88,93270,1,0
240,56,93470,2,0,B|240:144,1,80
240,136,93870,1,0
432,64,94270,2,0,B|400:112|336:104,1,80
366,104,94670,1,0
320,216,95070,1,0
216,216,95470,2,0,B|120:192|128:248|136:328,1,160
224,344,96270,2,0,B|312:344,1,80
376,312,96670,6,0,B|440:256,1,80
432,168,97070,1,0
368,104,97470,2,0,B|280:48|248:152,1,160
248,240,98270,1,0
248,336,98670,1,0
160,336,99070,2,0,B|88:288|176:192,1,160
136,88,99870,2,0,B|312:96,1,160
295,95,100670,1,0
328,192,101070,5,0
256,192,101870,12,0,103070
136,88,103670,5,0
136,88,103870,1,0
240,88,104670,2,0,B|328:232,1,160
336,312,105470,1,0
232,320,105870,2,0,B|192:304|208:240,1,80
200,176,106270,2,0,B|224:104|136:120|184:104,1,80
170,112,106670,1,0
248,80,107070,2,0,B|296:32|352:80,1,80
320,60,107470,1,0
392,136,107870,1,0
392,232,108270,1,0
304,232,108670,1,0
224,232,109070,1,0
136,208,109470,6,0,B|96:152|128:120,1,80
118,133,109870,1,0
176,72,110270,2,0,B|240:40|248:64,1,80
248,64,110670,1,0
384,104,111070,1,0
368,192,111470,2,0,B|360:264|320:272,1,80
264,264,111870,2,0,B|192:264|176:256,1,80
184,258,112270,1,0
256,192,112770,12,0,113870
384,64,114670,5,0
352,144,115070,2,0,B|336:232|224:240,1,160
238,238,115870,1,0
136,240,116470,2,0,B|136:160,1,80
136,160,117070,1,0
256,192,117670,12,0,119070
