osu file format v14

[General]
AudioFilename: LARA HATI Reggae Cover.mp3
AudioLeadIn: 0
PreviewTime: -1
Countdown: 0
SampleSet: None
StackLeniency: 0.7
Mode: 3
LetterboxInBreaks: 0
SpecialStyle: 1
WidescreenStoryboard: 0

[Editor]
DistanceSpacing: 1
BeatDivisor: 4
GridSize: 16
TimelineZoom: 1

[Metadata]
Title:Lara Hati
TitleUnicode:Lara Hati
Artist:SKA86
ArtistUnicode:SKA86
Creator:awanrx12
Version:Normal
Source:
Tags:
BeatmapID:1613113
BeatmapSetID:767401

[Difficulty]
HPDrainRate:1
CircleSize:4
OverallDifficulty:1
ApproachRate:1
SliderMultiplier:1.4
SliderTickRate:1

[Events]
//Background and Video events
0,0,"FORCE_2.jpg",0,0
//Break Periods
//Storyboard Layer 0 (Background)
//Storyboard Layer 1 (Fail)
//Storyboard Layer 2 (Pass)
//Storyboard Layer 3 (Foreground)
//Storyboard Sound Samples

[TimingPoints]
1019,1000,4,2,0,100,1,0

[HitObjects]
64,192,12519,5,0,0:0:0:0:
192,192,12519,1,0,0:0:0:0:
192,192,14269,1,0,0:0:0:0:
320,192,14519,1,0,0:0:0:0:
320,192,14769,1,0,0:0:0:0:
448,192,15019,1,0,0:0:0:0:
448,192,15269,1,0,0:0:0:0:
64,192,16519,1,0,0:0:0:0:
64,192,16769,1,0,0:0:0:0:
192,192,17019,1,0,0:0:0:0:
320,192,17019,1,0,0:0:0:0:
320,192,17519,1,0,0:0:0:0:
448,192,17769,1,0,0:0:0:0:
448,192,18019,1,0,0:0:0:0:
64,192,19519,1,0,0:0:0:0:
192,192,19519,1,0,0:0:0:0:
192,192,19769,1,0,0:0:0:0:
320,192,19769,1,0,0:0:0:0:
320,192,20019,1,0,0:0:0:0:
448,192,20269,1,0,0:0:0:0:
320,192,21269,1,0,0:0:0:0:
192,192,21519,1,0,0:0:0:0:
320,192,21769,1,0,0:0:0:0:
320,192,22019,1,0,0:0:0:0:
192,192,22269,1,0,0:0:0:0:
320,192,22519,1,0,0:0:0:0:
448,192,22769,1,0,0:0:0:0:
192,192,24269,1,0,0:0:0:0:
320,192,24269,1,0,0:0:0:0:
64,192,24519,1,0,0:0:0:0:
192,192,24769,1,0,0:0:0:0:
320,192,24769,1,0,0:0:0:0:
320,192,25269,1,0,0:0:0:0:
448,192,26519,1,0,0:0:0:0:
320,192,26769,1,0,0:0:0:0:
192,192,27019,1,0,0:0:0:0:
64,192,27519,1,0,0:0:0:0:
192,192,27769,1,0,0:0:0:0:
320,192,27769,1,0,0:0:0:0:
192,192,29019,1,0,0:0:0:0:
320,192,29019,1,0,0:0:0:0:
320,192,29269,1,0,0:0:0:0:
448,192,29519,1,0,0:0:0:0:
320,192,30269,1,0,0:0:0:0:
192,192,30519,1,0,0:0:0:0:
448,192,30519,1,0,0:0:0:0:
64,192,31269,1,0,0:0:0:0:
192,192,31519,1,0,0:0:0:0:
320,192,31519,1,0,0:0:0:0:
320,192,32019,1,0,0:0:0:0:
448,192,32269,1,0,0:0:0:0:
320,192,32769,1,0,0:0:0:0:
448,192,32769,1,0,0:0:0:0:
192,192,33769,1,0,0:0:0:0:
320,192,33769,1,0,0:0:0:0:
320,192,34019,1,0,0:0:0:0:
448,192,34269,1,0,0:0:0:0:
320,192,34519,1,0,0:0:0:0:
192,192,35019,1,0,0:0:0:0:
320,192,35019,1,0,0:0:0:0:
64,192,35269,1,0,0:0:0:0:
192,192,35519,1,0,0:0:0:0:
320,192,35769,1,0,0:0:0:0:
448,192,36269,1,0,0:0:0:0:
320,192,36269,1,0,0:0:0:0:
320,192,36519,1,0,0:0:0:0:
192,192,36769,1,0,0:0:0:0:
64,192,37269,1,0,0:0:0:0:
192,192,37519,1,0,0:0:0:0:
320,192,37519,1,0,0:0:0:0:
448,192,37769,1,0,0:0:0:0:
320,192,38519,1,0,0:0:0:0:
192,192,38769,1,0,0:0:0:0:
448,192,38769,1,0,0:0:0:0:
64,192,39269,1,0,0:0:0:0:
192,192,39519,1,0,0:0:0:0:
320,192,40019,1,0,0:0:0:0:
448,192,40269,1,0,0:0:0:0:
320,192,41269,1,0,0:0:0:0:
192,192,41269,1,0,0:0:0:0:
192,192,41519,1,0,0:0:0:0:
320,192,41769,1,0,0:0:0:0:
448,192,42269,1,0,0:0:0:0:
320,192,42519,1,0,0:0:0:0:
192,192,42519,1,0,0:0:0:0:
64,192,42769,1,0,0:0:0:0:
192,192,44269,1,0,0:0:0:0:
320,192,44519,1,0,0:0:0:0:
192,192,45019,1,0,0:0:0:0:
320,192,46019,1,0,0:0:0:0:
192,192,46269,128,0,47519:0:0:0:0:
320,192,47769,128,0,49769:0:0:0:0:
192,192,47769,1,0,0:0:0:0:
448,192,50269,128,0,51519:0:0:0:0:
320,192,50269,1,0,0:0:0:0:
448,192,51769,1,0,0:0:0:0:
320,192,53769,1,0,0:0:0:0:
192,192,54519,128,0,54769:0:0:0:0:
64,192,55019,1,0,0:0:0:0:
320,192,55269,1,0,0:0:0:0:
192,192,55269,1,0,0:0:0:0:
320,192,55769,128,0,56019:0:0:0:0:
320,192,56519,1,0,0:0:0:0:
192,192,56519,1,0,0:0:0:0:
192,192,57019,128,0,57269:0:0:0:0:
64,192,57769,1,0,0:0:0:0:
192,192,58019,1,0,0:0:0:0:
192,192,58269,128,0,58519:0:0:0:0:
320,192,59019,1,0,0:0:0:0:
192,192,59019,1,0,0:0:0:0:
448,192,59519,128,0,60019:0:0:0:0:
320,192,60269,1,0,0:0:0:0:
192,192,60269,1,0,0:0:0:0:
192,192,60769,128,0,61269:0:0:0:0:
64,192,61519,128,0,61769:0:0:0:0:
320,192,61519,1,0,0:0:0:0:
192,192,62019,128,0,62519:0:0:0:0:
320,192,62769,128,0,63019:0:0:0:0:
192,192,62769,1,0,0:0:0:0:
448,192,63269,128,0,63769:0:0:0:0:
320,192,64019,128,0,64519:0:0:0:0:
192,192,64019,1,0,0:0:0:0:
192,192,64519,128,0,65019:0:0:0:0:
64,192,65269,128,0,65519:0:0:0:0:
192,192,65269,1,0,0:0:0:0:
192,192,65769,128,0,66269:0:0:0:0:
320,192,66519,128,0,66769:0:0:0:0:
192,192,66519,1,0,0:0:0:0:
448,192,67019,128,0,67519:0:0:0:0:
192,192,67769,128,0,68019:0:0:0:0:
320,192,67769,1,0,0:0:0:0:
320,192,68269,128,0,68769:0:0:0:0:
192,192,69019,128,0,69519:0:0:0:0:
320,192,69019,1,0,0:0:0:0:
64,192,69519,128,0,70019:0:0:0:0:
192,192,70269,128,0,70519:0:0:0:0:
320,192,70269,1,0,0:0:0:0:
320,192,70769,128,0,71269:0:0:0:0:
320,192,71519,128,0,71769:0:0:0:0:
192,192,71769,1,0,0:0:0:0:
192,192,72269,128,0,74269:0:0:0:0:
320,192,74519,1,0,0:0:0:0:
64,192,75269,1,0,0:0:0:0:
192,192,75769,1,0,0:0:0:0:
320,192,75769,1,0,0:0:0:0:
320,192,76519,1,0,0:0:0:0:
192,192,76519,1,0,0:0:0:0:
320,192,77269,1,0,0:0:0:0:
192,192,77769,1,0,0:0:0:0:
320,192,77769,1,0,0:0:0:0:
64,192,78519,1,0,0:0:0:0:
320,192,78519,1,0,0:0:0:0:
192,192,79019,1,0,0:0:0:0:
192,192,79269,1,0,0:0:0:0:
320,192,79769,1,0,0:0:0:0:
448,192,80519,1,0,0:0:0:0:
320,192,80519,1,0,0:0:0:0:
320,192,81019,1,0,0:0:0:0:
192,192,81519,1,0,0:0:0:0:
320,192,81769,1,0,0:0:0:0:
64,192,82019,1,0,0:0:0:0:
320,192,82269,1,0,0:0:0:0:
192,192,82769,1,0,0:0:0:0:
320,192,83269,1,0,0:0:0:0:
192,192,83519,1,0,0:0:0:0:
448,192,84019,1,0,0:0:0:0:
320,192,84269,1,0,0:0:0:0:
320,192,84519,1,0,0:0:0:0:
192,192,85269,1,0,0:0:0:0:
320,192,85269,1,0,0:0:0:0:
64,192,85769,1,0,0:0:0:0:
192,192,86269,1,0,0:0:0:0:
320,192,86269,1,0,0:0:0:0:
320,192,87019,1,0,0:0:0:0:
320,192,87519,1,0,0:0:0:0:
192,192,87769,1,0,0:0:0:0:
320,192,88269,1,0,0:0:0:0:
192,192,89019,1,0,0:0:0:0:
320,192,89019,1,0,0:0:0:0:
64,192,89519,1,0,0:0:0:0:
192,192,90019,1,0,0:0:0:0:
192,192,90269,1,0,0:0:0:0:
320,192,90769,1,0,0:0:0:0:
320,192,91269,1,0,0:0:0:0:
448,192,91519,1,0,0:0:0:0:
320,192,92019,1,0,0:0:0:0:
192,192,92519,1,0,0:0:0:0:
192,192,92769,1,0,0:0:0:0:
320,192,93019,1,0,0:0:0:0:
64,192,93269,1,0,0:0:0:0:
192,192,94019,1,0,0:0:0:0:
320,192,94019,1,0,0:0:0:0:
320,192,94769,1,0,0:0:0:0:
192,192,95019,1,0,0:0:0:0:
192,192,95269,1,0,0:0:0:0:
320,192,95519,1,0,0:0:0:0:
320,192,96019,1,0,0:0:0:0:
320,192,96269,1,0,0:0:0:0:
192,192,96519,1,0,0:0:0:0:
320,192,96769,1,0,0:0:0:0:
448,192,97269,1,0,0:0:0:0:
320,192,97269,1,0,0:0:0:0:
320,192,97769,1,0,0:0:0:0:
192,192,97769,1,0,0:0:0:0:
448,192,98019,1,0,0:0:0:0:
64,192,98519,1,0,0:0:0:0:
192,192,98769,1,0,0:0:0:0:
64,192,99019,1,0,0:0:0:0:
192,192,99269,1,0,0:0:0:0:
320,192,99519,1,0,0:0:0:0:
64,192,99769,1,0,0:0:0:0:
192,192,100019,1,0,0:0:0:0:
64,192,100519,1,0,0:0:0:0:
320,192,100519,1,0,0:0:0:0:
320,192,101019,1,0,0:0:0:0:
192,192,101019,1,0,0:0:0:0:
448,192,101269,1,0,0:0:0:0:
320,192,101519,1,0,0:0:0:0:
320,192,102019,1,0,0:0:0:0:
192,192,102269,1,0,0:0:0:0:
64,192,102519,1,0,0:0:0:0:
192,192,102769,1,0,0:0:0:0:
192,192,103019,1,0,0:0:0:0:
192,192,103519,1,0,0:0:0:0:
320,192,103519,1,0,0:0:0:0:
192,192,103769,1,0,0:0:0:0:
320,192,104019,1,0,0:0:0:0:
192,192,104269,1,0,0:0:0:0:
320,192,104519,1,0,0:0:0:0:
320,192,104769,1,0,0:0:0:0:
448,192,105019,1,0,0:0:0:0:
64,192,105019,1,0,0:0:0:0:
320,192,105269,1,0,0:0:0:0:
192,192,105769,1,0,0:0:0:0:
192,192,106019,1,0,0:0:0:0:
64,192,106269,1,0,0:0:0:0:
192,192,106519,1,0,0:0:0:0:
320,192,106769,1,0,0:0:0:0:
320,192,107269,1,0,0:0:0:0:
192,192,107269,1,0,0:0:0:0:
448,192,107519,1,0,0:0:0:0:
320,192,107769,1,0,0:0:0:0:
192,192,108269,1,0,0:0:0:0:
320,192,108519,1,0,0:0:0:0:
64,192,108769,1,0,0:0:0:0:
64,192,109019,1,0,0:0:0:0:
192,192,109519,1,0,0:0:0:0:
192,192,109769,1,0,0:0:0:0:
192,192,110019,1,0,0:0:0:0:
64,192,110269,1,0,0:0:0:0:
320,192,110269,1,0,0:0:0:0:
192,192,110769,1,0,0:0:0:0:
192,192,111269,1,0,0:0:0:0:
64,192,111519,1,0,0:0:0:0:
320,192,111769,1,0,0:0:0:0:
192,192,112269,1,0,0:0:0:0:
320,192,112519,1,0,0:0:0:0:
448,192,113019,1,0,0:0:0:0:
192,192,113519,1,0,0:0:0:0:
320,192,113769,1,0,0:0:0:0:
192,192,114019,1,0,0:0:0:0:
320,192,115019,1,0,0:0:0:0:
192,192,115269,1,0,0:0:0:0:
320,192,115519,1,0,0:0:0:0:
192,192,116019,1,0,0:0:0:0:
320,192,116519,1,0,0:0:0:0:
192,192,116769,1,0,0:0:0:0:
64,192,117269,1,0,0:0:0:0:
320,192,117519,1,0,0:0:0:0:
192,192,117769,1,0,0:0:0:0:
192,192,118019,1,0,0:0:0:0:
320,192,118269,1,0,0:0:0:0:
320,192,118519,1,0,0:0:0:0:
192,192,118519,1,0,0:0:0:0:
320,192,119019,1,0,0:0:0:0:
448,192,119269,1,0,0:0:0:0:
320,192,119769,1,0,0:0:0:0:
320,192,120019,1,0,0:0:0:0:
192,192,120519,1,0,0:0:0:0:
64,192,121019,1,0,0:0:0:0:
320,192,121019,1,0,0:0:0:0:
192,192,121769,1,0,0:0:0:0:
320,192,122019,1,0,0:0:0:0:
192,192,122269,1,0,0:0:0:0:
320,192,122269,1,0,0:0:0:0:
320,192,122519,1,0,0:0:0:0:
192,192,122769,1,0,0:0:0:0:
192,192,123019,1,0,0:0:0:0:
320,192,123269,1,0,0:0:0:0:
192,192,123519,1,0,0:0:0:0:
320,192,123769,1,0,0:0:0:0:
320,192,124019,1,0,0:0:0:0:
448,192,125019,1,0,0:0:0:0:
320,192,125019,1,0,0:0:0:0:
320,192,125269,1,0,0:0:0:0:
192,192,125269,1,0,0:0:0:0:
192,192,125519,1,0,0:0:0:0:
192,192,125769,1,0,0:0:0:0:
320,192,126019,1,0,0:0:0:0:
320,192,126269,1,0,0:0:0:0:
192,192,126269,1,0,0:0:0:0:
64,192,126769,1,0,0:0:0:0:
320,192,126769,1,0,0:0:0:0:
192,192,127519,1,0,0:0:0:0:
320,192,127519,1,0,0:0:0:0:
320,192,128019,1,0,0:0:0:0:
192,192,128019,1,0,0:0:0:0:
192,192,128269,1,0,0:0:0:0:
320,192,128519,1,0,0:0:0:0:
192,192,128769,1,0,0:0:0:0:
320,192,129019,1,0,0:0:0:0:
320,192,129269,1,0,0:0:0:0:
192,192,129269,1,0,0:0:0:0:
320,192,129769,1,0,0:0:0:0:
320,192,130019,1,0,0:0:0:0:
192,192,130269,1,0,0:0:0:0:
64,192,130519,1,0,0:0:0:0:
320,192,130519,1,0,0:0:0:0:
192,192,131019,1,0,0:0:0:0:
192,192,131269,1,0,0:0:0:0:
320,192,131519,1,0,0:0:0:0:
192,192,131769,1,0,0:0:0:0:
320,192,132769,1,0,0:0:0:0:
192,192,132769,1,0,0:0:0:0:
64,192,133269,1,0,0:0:0:0:
320,192,133269,1,0,0:0:0:0:
320,192,133519,1,0,0:0:0:0:
192,192,133769,1,0,0:0:0:0:
320,192,134269,1,0,0:0:0:0:
192,192,134269,1,0,0:0:0:0:
192,192,134769,1,0,0:0:0:0:
320,192,134769,1,0,0:0:0:0:
192,192,135519,1,0,0:0:0:0:
192,192,135769,1,0,0:0:0:0:
320,192,135769,1,0,0:0:0:0:
64,192,136269,1,0,0:0:0:0:
320,192,136269,1,0,0:0:0:0:
192,192,136769,1,0,0:0:0:0:
192,192,137019,1,0,0:0:0:0:
320,192,137269,1,0,0:0:0:0:
64,192,137519,1,0,0:0:0:0:
192,192,138019,1,0,0:0:0:0:
192,192,138269,1,0,0:0:0:0:
320,192,138269,1,0,0:0:0:0:
64,192,138769,1,0,0:0:0:0:
320,192,139019,1,0,0:0:0:0:
192,192,139269,1,0,0:0:0:0:
192,192,139519,1,0,0:0:0:0:
64,192,139769,1,0,0:0:0:0:
320,192,140019,1,0,0:0:0:0:
192,192,140519,1,0,0:0:0:0:
320,192,140519,1,0,0:0:0:0:
192,192,140769,1,0,0:0:0:0:
320,192,141019,1,0,0:0:0:0:
64,192,141269,1,0,0:0:0:0:
320,192,141519,1,0,0:0:0:0:
192,192,141769,1,0,0:0:0:0:
192,192,142019,1,0,0:0:0:0:
320,192,142019,1,0,0:0:0:0:
320,192,142519,1,0,0:0:0:0:
192,192,143019,1,0,0:0:0:0:
192,192,143269,1,0,0:0:0:0:
320,192,143769,1,0,0:0:0:0:
320,192,144269,1,0,0:0:0:0:
320,192,144519,1,0,0:0:0:0:
192,192,144769,128,0,145269:0:0:0:0:
448,192,145019,1,0,0:0:0:0:
320,192,145519,1,0,0:0:0:0:
320,192,145769,1,0,0:0:0:0:
192,192,146269,1,0,0:0:0:0:
320,192,146769,1,0,0:0:0:0:
320,192,147019,1,0,0:0:0:0:
448,192,147269,1,0,0:0:0:0:
192,192,147519,128,0,148019:0:0:0:0:
320,192,148019,1,0,0:0:0:0:
320,192,148269,1,0,0:0:0:0:
192,192,148519,1,0,0:0:0:0:
320,192,149269,1,0,0:0:0:0:
320,192,149519,1,0,0:0:0:0:
448,192,149769,1,0,0:0:0:0:
192,192,149769,128,0,150519:0:0:0:0:
320,192,150519,1,0,0:0:0:0:
320,192,150769,1,0,0:0:0:0:
192,192,151019,1,0,0:0:0:0:
320,192,151519,1,0,0:0:0:0:
64,192,151519,128,0,152519:0:0:0:0:
192,192,153269,128,0,153769:0:0:0:0:
320,192,153269,128,0,153519:0:0:0:0:
320,192,154019,1,0,0:0:0:0:
448,192,154769,128,0,155769:0:0:0:0:
192,192,154769,128,0,155769:0:0:0:0:
320,192,156019,128,0,156519:0:0:0:0:
64,192,156769,128,0,157269:0:0:0:0:
192,192,156769,128,0,157269:0:0:0:0:
320,192,157769,128,0,158269:0:0:0:0:
448,192,157769,128,0,158269:0:0:0:0:
192,192,158269,128,0,158519:0:0:0:0:
448,192,158769,1,0,0:0:0:0:
192,192,159019,128,0,159269:0:0:0:0:
320,192,159269,128,0,159519:0:0:0:0:
320,192,160269,128,0,160519:0:0:0:0:
192,192,160269,128,0,161019:0:0:0:0:
320,192,161269,128,0,161519:0:0:0:0:
192,192,161769,128,0,162269:0:0:0:0:
192,192,163519,1,0,0:0:0:0:
320,192,163519,128,0,163769:0:0:0:0:
320,192,164019,1,0,0:0:0:0:
192,192,164519,1,0,0:0:0:0:
192,192,164769,1,0,0:0:0:0:
320,192,164769,128,0,165019:0:0:0:0:
320,192,165269,1,0,0:0:0:0:
192,192,165269,1,0,0:0:0:0:
320,192,165769,1,0,0:0:0:0:
192,192,166019,128,0,166769:0:0:0:0:
448,192,166269,1,0,0:0:0:0:
320,192,167769,1,0,0:0:0:0:
192,192,168019,1,0,0:0:0:0:
64,192,168269,128,0,168769:0:0:0:0:
320,192,168519,1,0,0:0:0:0:
64,192,169019,1,0,0:0:0:0:
320,192,169269,1,0,0:0:0:0:
320,192,169769,1,0,0:0:0:0:
320,192,170519,1,0,0:0:0:0:
192,192,170519,128,0,171019:0:0:0:0:
192,192,171269,1,0,0:0:0:0:
192,192,171519,1,0,0:0:0:0:
192,192,171769,1,0,0:0:0:0:
320,192,172269,1,0,0:0:0:0:
192,192,172519,1,0,0:0:0:0:
64,192,173019,1,0,0:0:0:0:
320,192,173019,128,0,173519:0:0:0:0:
192,192,173269,1,0,0:0:0:0:
320,192,173769,1,0,0:0:0:0:
320,192,174519,1,0,0:0:0:0:
320,192,174769,1,0,0:0:0:0:
192,192,175019,1,0,0:0:0:0:
320,192,175269,128,0,175769:0:0:0:0:
64,192,175519,1,0,0:0:0:0:
64,192,175769,1,0,0:0:0:0:
192,192,176019,1,0,0:0:0:0:
192,192,176769,1,0,0:0:0:0:
192,192,177019,1,0,0:0:0:0:
448,192,177269,128,0,177769:0:0:0:0:
64,192,177519,1,0,0:0:0:0:
192,192,177769,1,0,0:0:0:0:
192,192,178019,1,0,0:0:0:0:
64,192,178519,1,0,0:0:0:0:
192,192,179269,1,0,0:0:0:0:
320,192,179269,128,0,179769:0:0:0:0:
192,192,179519,1,0,0:0:0:0:
320,192,180019,1,0,0:0:0:0:
192,192,180519,1,0,0:0:0:0:
192,192,180769,1,0,0:0:0:0:
320,192,181019,1,0,0:0:0:0:
320,192,181269,1,0,0:0:0:0:
192,192,181769,1,0,0:0:0:0:
192,192,182019,1,0,0:0:0:0:
320,192,182269,1,0,0:0:0:0:
320,192,182519,1,0,0:0:0:0:
192,192,182769,1,0,0:0:0:0:
192,192,183019,1,0,0:0:0:0:
64,192,183519,1,0,0:0:0:0:
320,192,184269,1,0,0:0:0:0:
192,192,184519,1,0,0:0:0:0:
192,192,184769,1,0,0:0:0:0:
320,192,185019,1,0,0:0:0:0:
320,192,185519,1,0,0:0:0:0:
192,192,185519,1,0,0:0:0:0:
192,192,185769,1,0,0:0:0:0:
192,192,186019,1,0,0:0:0:0:
192,192,186769,1,0,0:0:0:0:
64,192,187019,1,0,0:0:0:0:
64,192,187269,1,0,0:0:0:0:
192,192,187519,1,0,0:0:0:0:
192,192,187769,1,0,0:0:0:0:
320,192,188019,1,0,0:0:0:0:
64,192,188269,1,0,0:0:0:0:
192,192,188519,1,0,0:0:0:0:
192,192,188769,1,0,0:0:0:0:
448,192,189019,1,0,0:0:0:0:
192,192,189269,1,0,0:0:0:0:
320,192,189269,1,0,0:0:0:0:
192,192,189519,1,0,0:0:0:0:
448,192,190019,1,0,0:0:0:0:
192,192,190269,1,0,0:0:0:0:
192,192,190519,1,0,0:0:0:0:
320,192,190519,1,0,0:0:0:0:
64,192,191269,1,0,0:0:0:0:
192,192,192269,1,0,0:0:0:0:
320,192,192769,1,0,0:0:0:0:
448,192,192769,128,0,193019:0:0:0:0:
192,192,193269,1,0,0:0:0:0:
64,192,194019,1,0,0:0:0:0:
192,192,194519,1,0,0:0:0:0:
320,192,194519,128,0,195019:0:0:0:0:
320,192,195269,1,0,0:0:0:0:
192,192,195519,128,0,196019:0:0:0:0:
64,192,195519,1,0,0:0:0:0:
64,192,196519,1,0,0:0:0:0:
192,192,197019,1,0,0:0:0:0:
320,192,197019,128,0,197269:0:0:0:0:
320,192,197519,1,0,0:0:0:0:
192,192,198269,1,0,0:0:0:0:
320,192,198269,128,0,198519:0:0:0:0:
64,192,198769,1,0,0:0:0:0:
192,192,199519,1,0,0:0:0:0:
320,192,200019,1,0,0:0:0:0:
192,192,200769,1,0,0:0:0:0:
320,192,200769,128,0,201269:0:0:0:0:
64,192,201269,1,0,0:0:0:0:
192,192,202019,1,0,0:0:0:0:
320,192,202519,1,0,0:0:0:0:
192,192,202519,128,0,203019:0:0:0:0:
192,192,203269,1,0,0:0:0:0:
64,192,203769,1,0,0:0:0:0:
320,192,204019,128,0,204519:0:0:0:0:
192,192,204519,1,0,0:0:0:0:
320,192,205019,1,0,0:0:0:0:
320,192,205269,128,0,205519:0:0:0:0:
192,192,205769,1,0,0:0:0:0:
64,192,206269,1,0,0:0:0:0:
192,192,206769,1,0,0:0:0:0:
320,192,207019,128,0,207269:0:0:0:0:
320,192,207519,1,0,0:0:0:0:
192,192,208019,1,0,0:0:0:0:
320,192,208019,128,0,208769:0:0:0:0:
64,192,208769,1,0,0:0:0:0:
192,192,209269,1,0,0:0:0:0:
192,192,209519,128,0,210269:0:0:0:0:
320,192,210019,1,0,0:0:0:0:
448,192,210769,1,0,0:0:0:0:
448,192,211269,1,0,0:0:0:0:
448,192,211769,1,0,0:0:0:0:
448,192,212519,1,0,0:0:0:0:
320,192,213269,1,0,0:0:0:0:
192,192,213519,1,0,0:0:0:0:
320,192,213519,128,0,214019:0:0:0:0:
192,192,214019,1,0,0:0:0:0:
192,192,214269,1,0,0:0:0:0:
320,192,214769,1,0,0:0:0:0:
448,192,215019,1,0,0:0:0:0:
320,192,215269,1,0,0:0:0:0:
192,192,215269,128,0,215769:0:0:0:0:
64,192,215769,1,0,0:0:0:0:
192,192,216269,1,0,0:0:0:0:
320,192,216519,128,0,217019:0:0:0:0:
64,192,216769,1,0,0:0:0:0:
192,192,217269,1,0,0:0:0:0:
320,192,217519,1,0,0:0:0:0:
192,192,217769,1,0,0:0:0:0:
192,192,218019,128,0,218519:0:0:0:0:
320,192,218269,1,0,0:0:0:0:
448,192,218769,1,0,0:0:0:0:
320,192,219019,1,0,0:0:0:0:
320,192,219269,128,0,219769:0:0:0:0:
192,192,219769,1,0,0:0:0:0:
192,192,220019,1,0,0:0:0:0:
320,192,220269,1,0,0:0:0:0:
192,192,220269,128,0,220769:0:0:0:0:
192,192,220769,1,0,0:0:0:0:
192,192,221019,1,0,0:0:0:0:
64,192,221519,1,0,0:0:0:0:
192,192,222019,1,0,0:0:0:0:
192,192,222269,1,0,0:0:0:0:
320,192,222269,128,0,222519:0:0:0:0:
320,192,222769,1,0,0:0:0:0:
192,192,223019,1,0,0:0:0:0:
320,192,223519,1,0,0:0:0:0:
192,192,223769,1,0,0:0:0:0:
320,192,224269,1,0,0:0:0:0:
64,192,224269,128,0,224519:0:0:0:0:
192,192,224769,1,0,0:0:0:0:
64,192,225269,1,0,0:0:0:0:
192,192,225519,1,0,0:0:0:0:
448,192,225519,128,0,226019:0:0:0:0:
448,192,226019,1,0,0:0:0:0:
320,192,226519,1,0,0:0:0:0:
320,192,226769,1,0,0:0:0:0:
320,192,227269,1,0,0:0:0:0:
192,192,227269,128,0,227519:0:0:0:0:
192,192,227769,1,0,0:0:0:0:
64,192,227769,128,0,228269:0:0:0:0:
320,192,228019,1,0,0:0:0:0:
192,192,228769,1,0,0:0:0:0:
192,192,229019,1,0,0:0:0:0:
448,192,229269,128,0,229769:0:0:0:0:
320,192,229519,1,0,0:0:0:0:
192,192,229769,1,0,0:0:0:0:
320,192,230519,1,0,0:0:0:0:
320,192,230769,1,0,0:0:0:0:
320,192,231019,1,0,0:0:0:0:
320,192,231269,1,0,0:0:0:0:
192,192,231269,128,0,231519:0:0:0:0:
320,192,231519,1,0,0:0:0:0:
192,192,232269,1,0,0:0:0:0:
64,192,232519,1,0,0:0:0:0:
448,192,232519,128,0,233019:0:0:0:0:
192,192,233019,1,0,0:0:0:0:
320,192,233519,1,0,0:0:0:0:
320,192,233769,1,0,0:0:0:0:
64,192,233769,128,0,234019:0:0:0:0:
320,192,234269,1,0,0:0:0:0:
192,192,234769,1,0,0:0:0:0:
192,192,235019,1,0,0:0:0:0:
320,192,235269,128,0,236019:0:0:0:0:
192,192,235519,1,0,0:0:0:0:
320,192,236019,1,0,0:0:0:0:
192,192,236269,1,0,0:0:0:0:
320,192,236519,1,0,0:0:0:0:
192,192,237269,1,0,0:0:0:0:
320,192,237519,1,0,0:0:0:0:
192,192,237769,1,0,0:0:0:0:
64,192,237769,128,0,238269:0:0:0:0:
448,192,238519,1,0,0:0:0:0:
320,192,238769,1,0,0:0:0:0:
448,192,239019,1,0,0:0:0:0:
192,192,239769,1,0,0:0:0:0:
320,192,240019,1,0,0:0:0:0:
192,192,240269,1,0,0:0:0:0:
64,192,240769,1,0,0:0:0:0:
192,192,241519,1,0,0:0:0:0:
64,192,241769,1,0,0:0:0:0:
192,192,242019,1,0,0:0:0:0:
64,192,242519,1,0,0:0:0:0:
192,192,242769,1,0,0:0:0:0:
320,192,243019,1,0,0:0:0:0:
192,192,243519,1,0,0:0:0:0:
320,192,243769,1,0,0:0:0:0:
448,192,244269,1,0,0:0:0:0:
64,192,244269,128,0,244769:0:0:0:0:
448,192,244519,1,0,0:0:0:0:
320,192,245019,1,0,0:0:0:0:
192,192,245519,1,0,0:0:0:0:
192,192,245769,1,0,0:0:0:0:
320,192,246269,1,0,0:0:0:0:
192,192,246769,1,0,0:0:0:0:
64,192,247019,1,0,0:0:0:0:
192,192,247519,1,0,0:0:0:0:
320,192,248019,1,0,0:0:0:0:
448,192,248269,128,0,248769:0:0:0:0:
320,192,248519,1,0,0:0:0:0:
192,192,248769,1,0,0:0:0:0:
320,192,249269,1,0,0:0:0:0:
192,192,249519,1,0,0:0:0:0:
320,192,249769,1,0,0:0:0:0:
448,192,250019,1,0,0:0:0:0:
64,192,250019,128,0,251019:0:0:0:0:
320,192,250769,1,0,0:0:0:0:
192,192,251269,1,0,0:0:0:0:
320,192,252019,1,0,0:0:0:0:
64,192,252019,128,0,252769:0:0:0:0:
320,192,253019,1,0,0:0:0:0:
320,192,253269,1,0,0:0:0:0:
192,192,253769,1,0,0:0:0:0:
448,192,253769,128,0,254019:0:0:0:0:
192,192,254019,1,0,0:0:0:0:
64,192,254269,1,0,0:0:0:0:
320,192,254519,1,0,0:0:0:0:
320,192,254769,1,0,0:0:0:0:
64,192,254769,128,0,255019:0:0:0:0:
448,192,255269,1,0,0:0:0:0:
320,192,256019,1,0,0:0:0:0:
192,192,256269,1,0,0:0:0:0:
448,192,256269,128,0,256519:0:0:0:0:
64,192,256769,1,0,0:0:0:0:
192,192,257019,1,0,0:0:0:0:
192,192,257269,1,0,0:0:0:0:
320,192,257269,128,0,257519:0:0:0:0:
320,192,257769,1,0,0:0:0:0:
448,192,258269,128,0,258769:0:0:0:0:
192,192,258519,1,0,0:0:0:0:
192,192,258769,1,0,0:0:0:0:
64,192,259019,1,0,0:0:0:0:
320,192,259019,128,0,259519:0:0:0:0:
64,192,259269,1,0,0:0:0:0:
192,192,259769,1,0,0:0:0:0:
320,192,260019,1,0,0:0:0:0:
64,192,260019,128,0,260269:0:0:0:0:
192,192,260519,1,0,0:0:0:0:
64,192,260769,1,0,0:0:0:0:
192,192,261019,1,0,0:0:0:0:
320,192,261269,1,0,0:0:0:0:
64,192,261269,128,0,261519:0:0:0:0:
320,192,261769,1,0,0:0:0:0:
192,192,262019,1,0,0:0:0:0:
64,192,262269,1,0,0:0:0:0:
320,192,262269,128,0,262519:0:0:0:0:
64,192,262519,1,0,0:0:0:0:
320,192,263519,1,0,0:0:0:0:
192,192,263519,128,0,263769:0:0:0:0:
64,192,263769,1,0,0:0:0:0:
64,192,264019,1,0,0:0:0:0:
320,192,264519,1,0,0:0:0:0:
64,192,264519,128,0,265019:0:0:0:0:
192,192,264769,1,0,0:0:0:0:
320,192,265019,1,0,0:0:0:0:
320,192,265769,128,0,266269:0:0:0:0:
192,192,266019,1,0,0:0:0:0:
64,192,266269,1,0,0:0:0:0:
192,192,266519,1,0,0:0:0:0:
448,192,266769,128,0,267269:0:0:0:0:
320,192,267019,1,0,0:0:0:0:
192,192,267269,1,0,0:0:0:0:
192,192,267519,1,0,0:0:0:0:
320,192,268019,1,0,0:0:0:0:
192,192,268019,128,0,268519:0:0:0:0:
320,192,268269,1,0,0:0:0:0:
448,192,268519,1,0,0:0:0:0:
320,192,268769,1,0,0:0:0:0:
192,192,269019,1,0,0:0:0:0:
192,192,269519,1,0,0:0:0:0:
320,192,269519,128,0,269769:0:0:0:0:
64,192,269769,1,0,0:0:0:0:
192,192,270019,1,0,0:0:0:0:
192,192,270269,1,0,0:0:0:0:
448,192,270269,128,0,270519:0:0:0:0:
192,192,270519,1,0,0:0:0:0:
320,192,270769,1,0,0:0:0:0:
448,192,271019,1,0,0:0:0:0:
192,192,271269,128,0,271519:0:0:0:0:
448,192,271519,1,0,0:0:0:0:
320,192,271769,1,0,0:0:0:0:
320,192,272019,1,0,0:0:0:0:
192,192,272269,1,0,0:0:0:0:
64,192,272519,1,0,0:0:0:0:
320,192,272519,128,0,272769:0:0:0:0:
64,192,272769,1,0,0:0:0:0:
192,192,273019,1,0,0:0:0:0:
192,192,273269,1,0,0:0:0:0:
448,192,273269,128,0,273519:0:0:0:0:
320,192,273769,1,0,0:0:0:0:
320,192,274019,1,0,0:0:0:0:
448,192,274269,1,0,0:0:0:0:
192,192,274269,128,0,274519:0:0:0:0:
448,192,274519,1,0,0:0:0:0:
448,192,274769,1,0,0:0:0:0:
192,192,275019,1,0,0:0:0:0:
320,192,275269,128,0,276519:0:0:0:0:
320,192,277269,1,0,0:0:0:0:
64,192,277519,128,0,278269:0:0:0:0:
192,192,278769,128,0,279519:0:0:0:0:
64,192,279519,128,0,281019:0:0:0:0:
