osu file format v13

[General]
AudioFilename: Sistar - I Swear.mp3
AudioLeadIn: 0
PreviewTime: 74752
Countdown: 1
SampleSet: Normal
StackLeniency: 0.7
Mode: 0
LetterboxInBreaks: 1
WidescreenStoryboard: 0

[Editor]
Bookmarks: 16974
DistanceSpacing: 1.3
BeatDivisor: 4
GridSize: 4
TimelineZoom: 1

[Metadata]
Title:I Swear
TitleUnicode:아이 스웨어
Artist:SISTAR
ArtistUnicode:씨스타
Creator:K1dPoker
Version:Hard
Source:Sweet & Sour
Tags:kpop k-pop
BeatmapID:495667
BeatmapSetID:210744

[Difficulty]
HPDrainRate:7
CircleSize:4
OverallDifficulty:7
ApproachRate:8
SliderMultiplier:1.6
SliderTickRate:2

[Events]
//Background and Video events
Video,0,"SISTAR - I Swear.avi"
0,0,"bg.jpg",0,0
//Break Periods
2,103396,117557
2,177618,182446
//Storyboard Layer 0 (Background)
//Storyboard Layer 1 (Fail)
//Storyboard Layer 2 (Pass)
//Storyboard Layer 3 (Foreground)
//Storyboard Sound Samples
//Background Colour Transformations
3,100,163,162,255

[TimingPoints]
530,444.444444444444,4,1,0,60,1,0
74752,-100,4,1,0,80,0,1
103196,-100,4,1,0,60,0,0
147641,-100,4,1,0,80,0,1
175641,-100,4,1,0,60,0,0
192085,-100,4,1,0,80,0,1
220529,-100,4,1,0,60,0,0

[Colours]
Combo1 : 0,0,255
Combo2 : 0,191,244
Combo3 : 0,128,192
Combo4 : 128,128,255

[HitObjects]
216,328,16974,6,0,P|256:336|296:328,2,80,0|0|0,0:0|0:0|0:0,0:0:0:0:
256,232,17641,1,0,0:0:0:0:
256,232,17752,1,0,0:0:0:0:
256,232,17863,2,0,L|256:152,1,80
280,52,18307,2,0,P|320:60|360:52,1,80
456,92,18752,6,0,L|412:116,3,40,0|0|0|0,0:0|0:0|0:0|0:0,0:0:0:0:
408,136,19196,2,0,L|384:212,1,80
428,308,19641,2,0,P|388:320|352:312,1,80
256,268,20085,2,0,L|256:348,1,80
160,312,20529,2,0,P|120:320|84:308,2,80,0|0|0,0:0|0:0|0:0,0:0:0:0:
256,268,21196,1,0,0:0:0:0:
172,208,21418,6,0,P|152:136|208:80,1,160
292,144,22085,1,0,0:0:0:0:
352,228,22307,2,0,P|424:248|480:192,1,160
420,108,22974,1,0,0:0:0:0:
332,48,23196,2,0,B|256:8|256:88|180:48,1,160
176,256,24085,6,0,L|96:236,2,80,0|0|0,0:0|0:0|0:0,0:0:0:0:
212,352,24752,1,0,0:0:0:0:
236,340,24863,1,0,0:0:0:0:
256,320,24974,2,0,P|276:284|276:240,1,80
220,160,25418,2,0,L|296:128,1,80
388,84,25863,6,0,L|388:124,3,40,0|0|0|0,0:0|0:0|0:0|0:0,0:0:0:0:
388,152,26307,2,0,P|404:188|432:216,1,80
428,320,26752,2,0,L|348:304,1,80
256,260,27196,2,0,P|232:228|220:188,1,80
288,112,27641,2,0,P|324:96|352:68,2,80,0|0|0,0:0|0:0|0:0,0:0:0:0:
332,208,28307,1,0,0:0:0:0:
432,252,28529,6,0,L|456:92,1,160
364,40,29196,1,0,0:0:0:0:
288,112,29418,2,0,P|212:124|156:68,1,160
80,144,30085,1,0,0:0:0:0:
52,244,30307,2,0,L|32:324,2,80,0|0|0,0:0|0:0|0:0,0:0:0:0:
256,272,31196,6,0,L|256:232,2,40,0|0|0,0:0|0:0|0:0,0:0:0:0:
332,344,31641,1,0,0:0:0:0:
332,344,31752,1,0,0:0:0:0:
332,344,31863,2,0,L|412:332,1,80,0|0,0:0|0:0,0:0:0:0:
356,244,32307,1,0,0:0:0:0:
280,172,32529,5,0,0:0:0:0:
180,196,32752,2,0,P|144:176|116:148,2,80,0|0|0,0:0|0:0|0:0,0:0:0:0:
280,172,33418,1,0,0:0:0:0:
348,92,33641,1,0,0:0:0:0:
448,112,33863,6,0,L|468:192,1,80
372,228,34307,2,0,L|352:308,1,80
256,344,34752,1,0,0:0:0:0:
160,300,34974,1,0,0:0:0:0:
152,92,35418,6,0,L|72:96,1,80,0|0,0:0|0:0,0:0:0:0:
256,192,36085,5,0,0:0:0:0:
152,196,36307,1,0,0:0:0:0:
152,92,36529,1,0,0:0:0:0:
256,88,36752,1,0,0:0:0:0:
256,192,36974,5,0,0:0:0:0:
360,188,37196,1,0,0:0:0:0:
452,236,37418,2,0,L|432:320,2,80,0|0|0,0:0|0:0|0:0,0:0:0:0:
448,132,38085,1,0,0:0:0:0:
360,188,38307,5,0,0:0:0:0:
304,100,38529,1,0,0:0:0:0:
212,52,38752,1,0,0:0:0:0:
212,52,38863,1,0,0:0:0:0:
212,52,38974,2,0,P|172:52|132:64,1,80
132,272,39641,5,0,0:0:0:0:
216,332,39863,1,0,0:0:0:0:
112,348,40085,1,0,0:0:0:0:
52,260,40307,1,0,0:0:0:0:
68,156,40529,5,0,0:0:0:0:
136,76,40752,1,0,0:0:0:0:
136,76,40863,1,0,0:0:0:0:
136,76,40974,2,0,P|164:104|200:120,2,80,0|0|0,0:0|0:0|0:0,0:0:0:0:
224,20,41641,6,0,P|288:64|300:144,2,160,0|0|0,0:0|0:0|0:0,0:0:0:0:
200,120,42752,2,0,P|212:196|280:240,1,160,0|0,0:0|0:0,0:0:0:0:
348,316,43418,2,0,P|384:296|424:292,1,80
480,208,43863,1,0,0:0:0:0:
396,148,44085,5,0,0:0:0:0:
296,172,44307,1,0,0:0:0:0:
296,172,44418,1,0,0:0:0:0:
296,172,44529,2,0,L|308:92,2,80,0|0|0,0:0|0:0|0:0,0:0:0:0:
180,344,45418,5,0,0:0:0:0:
80,308,45641,1,0,0:0:0:0:
128,216,45863,1,0,0:0:0:0:
136,188,45974,1,0,0:0:0:0:
144,160,46085,2,0,B|128:124|128:124|132:84,1,80
236,92,46529,1,0,0:0:0:0:
340,108,46752,5,0,0:0:0:0:
404,192,46974,1,0,0:0:0:0:
404,192,47085,1,0,0:0:0:0:
404,192,47196,2,0,L|484:204,1,80
468,308,47641,1,0,0:0:0:0:
484,204,47863,1,0,0:0:0:0:
468,308,48085,6,0,L|388:296,1,80
316,220,48529,2,0,B|284:248|284:248|244:252,1,80
144,248,48974,2,0,B|172:280|172:280|176:320,2,80,0|0|0,0:0|0:0|0:0,0:0:0:0:
56,192,49641,1,0,0:0:0:0:
148,140,49863,2,0,P|108:76|32:92,1,160
56,192,50529,5,0,0:0:0:0:
56,192,50641,1,0,0:0:0:0:
56,192,50752,2,0,L|20:272,1,80
88,348,51196,1,0,0:0:0:0:
188,320,51418,1,0,0:0:0:0:
168,216,51641,2,0,P|244:196|304:248,1,160
356,332,52307,1,0,0:0:0:0:
448,284,52529,6,0,L|484:364,2,80,0|0|0,0:0|0:0|0:0,0:0:0:0:
360,228,53196,2,0,P|324:160|352:84,1,160
432,152,53863,1,0,0:0:0:0:
440,48,54085,1,0,0:0:0:0:
440,48,54196,1,0,0:0:0:0:
440,48,54307,2,0,L|360:56,1,80,0|0,0:0|0:0,0:0:0:0:
328,156,54752,5,0,0:0:0:0:
256,80,54974,1,0,0:0:0:0:
152,100,55196,2,0,B|124:128|124:128|80:136,2,80,0|0|0,0:0|0:0|0:0,0:0:0:0:
224,176,55863,2,0,L|196:252,1,80
296,280,56307,2,0,P|312:316|344:340,1,80,0|0,0:0|0:0,0:0:0:0:
396,248,56752,2,0,L|476:232,1,80,0|0,0:0|0:0,0:0:0:0:
416,148,57196,5,0,0:0:0:0:
396,248,57418,1,0,0:0:0:0:
320,180,57641,1,0,0:0:0:0:
416,148,57863,1,0,0:0:0:0:
416,44,58085,1,0,0:0:0:0:
316,76,58307,5,0,0:0:0:0:
320,180,58529,1,0,0:0:0:0:
256,264,58752,1,0,0:0:0:0:
156,296,58974,1,0,0:0:0:0:
156,296,59085,1,0,0:0:0:0:
156,296,59196,2,0,P|140:260|108:232,1,80,0|0,0:0|0:0,0:0:0:0:
56,320,59641,5,0,0:0:0:0:
56,320,59863,1,0,0:0:0:0:
20,224,60085,1,0,0:0:0:0:
28,120,60307,1,0,0:0:0:0:
28,120,60418,1,0,0:0:0:0:
28,120,60529,2,0,P|72:112|104:96,1,80
188,36,60974,5,0,0:0:0:0:
256,116,61196,1,0,0:0:0:0:
256,144,61307,1,0,0:0:0:0:
256,172,61418,2,0,L|336:156,1,80
436,136,61863,1,0,0:0:0:0:
484,44,62085,1,0,0:0:0:0:
380,44,62307,6,0,P|340:32|312:8,2,80,0|0|0,0:0|0:0|0:0,0:0:0:0:
436,136,62974,1,0,0:0:0:0:
380,224,63196,1,0,0:0:0:0:
444,308,63418,1,0,0:0:0:0:
348,348,63641,5,0,0:0:0:0:
256,300,63863,1,0,0:0:0:0:
220,204,64085,2,0,B|256:220|256:220|296:204,1,80
256,108,64529,1,0,0:0:0:0:
256,108,64752,1,0,0:0:0:0:
160,72,64974,2,0,B|176:108|176:108|160:148,1,80
116,240,65418,5,0,0:0:0:0:
196,308,65641,1,0,0:0:0:0:
256,224,65863,1,0,0:0:0:0:
256,224,66085,1,0,0:0:0:0:
316,308,66307,2,0,P|356:316|396:308,1,80
356,212,66752,5,0,0:0:0:0:
360,108,66974,1,0,0:0:0:0:
360,108,67085,1,0,0:0:0:0:
360,108,67196,1,0,0:0:0:0:
256,92,67418,1,0,0:0:0:0:
292,188,67641,2,0,P|320:216|336:256,1,80
256,320,68085,5,0,0:0:0:0:
256,320,68307,1,0,0:0:0:0:
352,360,68529,2,0,L|432:336,1,80
440,232,68974,1,0,0:0:0:0:
340,256,69196,5,0,0:0:0:0:
356,232,69307,1,0,0:0:0:0:
360,204,69418,2,0,P|360:164|340:128,2,80,0|0|0,0:0|0:0|0:0,0:0:0:0:
256,192,70085,1,0,0:0:0:0:
256,192,70307,2,0,L|184:156,1,80
88,112,70752,5,0,0:0:0:0:
20,192,70974,1,0,0:0:0:0:
60,288,71196,2,0,P|132:260|196:308,1,160
256,220,71863,1,0,0:0:0:0:
256,116,72085,5,0,0:0:0:0:
336,48,72307,1,0,0:0:0:0:
336,48,72418,1,0,0:0:0:0:
336,48,72529,1,0,0:0:0:0:
436,80,72752,1,0,0:0:0:0:
468,180,72974,1,0,0:0:0:0:
256,192,73196,12,0,74529,0:0:0:0:
232,104,74752,6,0,P|196:124|176:156,1,80
280,276,75196,2,0,P|316:256|336:224,1,80
336,120,75641,1,0,0:0:0:0:
232,104,75863,1,0,0:0:0:0:
296,20,76085,5,0,0:0:0:0:
296,20,76196,1,0,0:0:0:0:
296,20,76307,2,0,L|376:28,1,80
440,112,76752,1,0,0:0:0:0:
428,272,76974,2,0,P|400:240|392:204,1,80
380,44,77418,2,0,P|360:80|328:100,1,80
224,100,77863,5,0,0:0:0:0:
224,100,78085,1,0,0:0:0:0:
132,56,78307,2,0,P|120:96|128:136,1,80
204,204,78752,1,0,0:0:0:0:
100,216,78974,1,0,0:0:0:0:
156,304,79196,2,0,P|224:340|288:296,1,160
320,200,79863,1,0,0:0:0:0:
412,152,80085,5,0,0:0:0:0:
484,228,80307,1,0,0:0:0:0:
380,348,80529,2,0,P|340:336|308:316,1,80
248,168,80974,2,0,P|288:180|320:200,1,80
236,64,81418,2,0,P|196:52|164:32,1,80
72,80,81863,5,0,0:0:0:0:
44,180,82085,1,0,0:0:0:0:
72,180,82196,1,0,0:0:0:0:
100,180,82307,2,0,P|140:172|172:148,1,80
256,212,82752,2,0,L|256:296,1,80
344,348,83196,5,0,0:0:0:0:
448,332,83418,1,0,0:0:0:0:
396,240,83641,1,0,0:0:0:0:
488,192,83863,1,0,0:0:0:0:
400,132,84085,2,0,P|364:116|340:84,1,80
256,24,84529,2,0,P|252:92|172:108,1,160,0|0,0:0|0:0,0:0:0:0:
188,212,85196,1,0,0:0:0:0:
108,148,85418,6,0,B|136:120|136:120|176:108,1,80
108,256,85863,2,0,B|80:284|80:284|40:296,1,80
176,208,86307,2,0,B|260:208,1,80
360,208,86752,1,0,0:0:0:0:
440,276,86974,5,0,0:0:0:0:
440,276,87085,1,0,0:0:0:0:
440,276,87196,2,0,P|476:208|440:140,1,160
344,104,87863,1,0,0:0:0:0:
260,168,88085,2,0,P|224:152|196:124,1,80
100,160,88529,1,0,0:0:0:0:
36,244,88752,5,0,0:0:0:0:
44,272,88863,1,0,0:0:0:0:
64,292,88974,2,0,P|96:312|140:312,1,80
176,156,89418,2,0,P|144:184|124:220,1,80
256,312,89863,2,0,P|248:272|220:244,1,80
140,312,90307,5,0,0:0:0:0:
196,224,90529,1,0,0:0:0:0:
196,196,90641,1,0,0:0:0:0:
196,168,90752,2,0,B|216:136|216:136|212:92,1,80
300,36,91196,2,0,L|336:108,1,80
384,200,91641,1,0,0:0:0:0:
472,144,91863,1,0,0:0:0:0:
456,248,92085,2,0,L|448:328,1,80
348,296,92529,6,0,L|276:336,1,80
196,196,92974,2,0,L|268:236,1,80
184,96,93418,2,0,L|112:136,1,80
112,240,93863,1,0,0:0:0:0:
108,344,94085,1,0,0:0:0:0:
108,344,94196,1,0,0:0:0:0:
108,344,94307,2,0,B|148:336|148:336|180:312,1,80
256,240,94752,5,0,0:0:0:0:
256,240,94974,1,0,0:0:0:0:
332,312,95196,2,0,B|364:336|364:336|404:344,1,80
408,240,95641,2,0,L|436:160,1,80
412,64,96085,5,0,0:0:0:0:
324,120,96307,1,0,0:0:0:0:
256,40,96529,1,0,0:0:0:0:
168,96,96751,1,0,0:0:0:0:
156,200,96974,2,0,P|116:188|88:164,1,80
168,96,97418,6,0,P|208:108|236:132,1,80
256,236,97863,1,0,0:0:0:0:
256,340,98085,1,0,0:0:0:0:
360,340,98307,2,0,P|432:312|452:236,2,160,0|0|0,0:0|0:0|0:0,0:0:0:0:
256,340,99418,1,0,0:0:0:0:
188,260,99641,6,0,P|216:232|232:192,1,80
256,96,100085,1,0,0:0:0:0:
180,24,100307,1,0,0:0:0:0:
152,124,100529,2,0,L|72:144,1,80
84,248,100974,5,0,0:0:0:0:
188,260,101196,1,0,0:0:0:0:
124,344,101418,1,0,0:0:0:0:
20,332,101640,1,0,0:0:0:0:
84,248,101863,5,0,0:0:0:0:
84,248,101974,1,0,0:0:0:0:
84,248,102085,2,0,L|52:172,1,80
56,72,102529,1,0,0:0:0:0:
136,140,102752,2,0,P|192:192|268:176,1,160,0|0,0:0|0:0,0:0:0:0:
156,84,118307,5,0,0:0:0:0:
216,168,118529,1,0,0:0:0:0:
216,168,118641,1,0,0:0:0:0:
216,168,118752,2,0,P|256:160|296:168,1,80
256,264,119196,2,0,P|332:264|388:208,1,160
392,104,119863,6,0,L|468:80,1,80,0|0,0:0|0:0,0:0:0:0:
464,184,120307,2,0,L|388:208,1,80,0|0,0:0|0:0,0:0:0:0:
296,156,120752,1,0,0:0:0:0:
256,60,120974,1,0,0:0:0:0:
160,104,121196,1,0,0:0:0:0:
60,72,121418,1,0,0:0:0:0:
76,176,121641,2,0,L|88:256,1,80
160,332,122085,5,0,0:0:0:0:
160,332,122196,1,0,0:0:0:0:
160,332,122307,1,0,0:0:0:0:
56,328,122529,1,0,0:0:0:0:
132,256,122752,2,0,P|188:204|172:128,1,160
256,68,123418,6,0,L|328:108,1,80
272,196,123863,2,0,B|308:216|308:216|328:252,2,80,0|0|0,0:0|0:0|0:0,0:0:0:0:
168,188,124529,1,0,0:0:0:0:
80,248,124752,1,0,0:0:0:0:
80,248,124974,1,0,0:0:0:0:
32,156,125196,2,0,P|44:116|40:72,1,80
140,40,125641,5,0,0:0:0:0:
140,40,125752,1,0,0:0:0:0:
140,40,125863,2,0,B|180:48|180:48|220:40,1,80
300,104,126307,2,0,P|320:68|352:48,2,80,0|0|0,0:0|0:0|0:0,0:0:0:0:
356,192,126974,1,0,0:0:0:0:
352,296,127196,2,0,B|276:336|276:256|200:296,1,160
108,340,127863,1,0,0:0:0:0:
28,272,128085,6,0,P|16:232|28:196,1,80
128,168,128529,2,0,P|140:128|128:92,1,80
40,152,128974,2,0,P|56:228|128:260,1,160
220,220,129641,1,0,0:0:0:0:
220,220,129752,1,0,0:0:0:0:
220,220,129863,2,0,P|252:196|292:192,1,80
380,240,130307,5,0,0:0:0:0:
456,168,130529,2,0,L|484:244,1,80
432,332,130974,1,0,0:0:0:0:
328,332,131196,2,0,L|280:332,2,40,0|0|0,0:0|0:0|0:0,0:0:0:0:
380,240,131641,5,0,0:0:0:0:
356,140,131863,1,0,0:0:0:0:
432,68,132085,2,0,P|368:24|296:52,1,160
256,148,132752,1,0,0:0:0:0:
256,148,132974,1,0,0:0:0:0:
256,252,133196,5,0,0:0:0:0:
256,280,133307,1,0,0:0:0:0:
256,308,133418,2,0,B|208:328|208:328|176:328,1,80
76,324,133863,1,0,0:0:0:0:
28,232,134085,5,0,0:0:0:0:
52,216,134196,1,0,0:0:0:0:
72,196,134307,2,0,P|88:160|84:120,1,80
32,32,134752,1,0,0:0:0:0:
136,32,134974,5,0,0:0:0:0:
136,32,135085,1,0,0:0:0:0:
136,32,135196,2,0,L|176:104,1,80
184,208,135641,2,0,B|248:208|276:140|276:140|300:168,1,160
348,260,136307,5,0,0:0:0:0:
452,260,136529,1,0,0:0:0:0:
404,168,136752,1,0,0:0:0:0:
404,140,136863,1,0,0:0:0:0:
404,112,136974,2,0,B|412:72|412:72|440:44,1,80
336,48,137418,5,0,0:0:0:0:
256,116,137641,1,0,0:0:0:0:
256,232,137863,2,0,P|292:248|320:276,1,80,0|0,0:0|0:0,0:0:0:0:
232,332,138307,1,0,0:0:0:0:
232,332,138529,1,0,0:0:0:0:
140,280,138752,6,0,B|100:296|100:296|64:296,2,80,0|0|0,0:0|0:0|0:0,0:0:0:0:
164,180,139418,1,0,0:0:0:0:
64,144,139641,1,0,0:0:0:0:
104,48,139863,1,0,0:0:0:0:
128,36,139974,1,0,0:0:0:0:
156,32,140085,2,0,P|196:36|232:60,1,80
256,156,140529,6,0,L|328:116,1,80
364,216,140974,2,0,L|436:176,1,80
476,272,141418,1,0,0:0:0:0:
408,348,141641,1,0,0:0:0:0:
308,324,141863,6,0,P|268:312|228:316,1,80
140,260,142307,2,0,P|124:296|128:336,1,80
24,336,142752,2,0,P|28:296|12:260,1,80
76,176,143196,1,0,0:0:0:0:
76,72,143418,5,0,0:0:0:0:
76,72,143529,1,0,0:0:0:0:
76,72,143641,2,0,L|156:72,1,80
196,168,144085,2,0,L|252:112,1,80
252,8,144529,2,0,P|324:40|356:112,1,160
296,196,145196,5,0,0:0:0:0:
296,196,145307,1,0,0:0:0:0:
296,196,145418,1,0,0:0:0:0:
228,276,145641,1,0,0:0:0:0:
124,276,145863,1,0,0:0:0:0:
256,192,146085,12,0,147418,0:0:0:0:
348,284,147641,6,0,P|368:320|400:340,1,80
412,180,148085,2,0,P|392:144|360:124,1,80
256,136,148529,1,0,0:0:0:0:
176,204,148752,1,0,0:0:0:0:
176,100,148974,1,0,0:0:0:0:
256,32,149196,2,0,B|288:36|288:68|324:72,2,80,0|0|0,0:0|0:0|0:0,0:0:0:0:
152,32,149863,5,0,0:0:0:0:
76,100,150085,1,0,0:0:0:0:
124,192,150307,2,0,P|92:224|60:240,2,80,0|0|0,0:0|0:0|0:0,0:0:0:0:
176,100,150974,1,0,0:0:0:0:
216,196,151196,6,0,P|256:204|300:196,1,80
376,60,151641,2,0,P|336:52|292:60,1,80
380,196,152085,2,0,P|420:204|464:196,1,80
464,300,152529,2,0,L|400:352,1,80
308,308,152974,1,0,0:0:0:0:
204,308,153196,1,0,0:0:0:0:
110,350,153418,6,0,L|48:300,1,80
120,224,153863,2,0,L|88:148,1,80
192,140,154307,2,0,L|224:64,1,80
308,128,154752,5,0,0:0:0:0:
392,192,154974,1,0,0:0:0:0:
304,248,155196,2,0,L|276:324,1,80
376,352,155641,2,0,L|404:276,1,80
464,192,156085,5,0,0:0:0:0:
428,96,156307,1,0,0:0:0:0:
332,52,156529,1,0,0:0:0:0:
256,124,156752,1,0,0:0:0:0:
180,52,156974,5,0,0:0:0:0:
84,96,157196,1,0,0:0:0:0:
48,192,157418,2,0,P|48:268|112:316,1,160
148,216,158085,1,0,0:0:0:0:
256,100,158307,6,0,L|256:180,1,80
304,332,158752,2,0,P|340:312|360:280,1,80
208,332,159196,2,0,P|172:312|152:280,1,80
256,252,159641,1,0,0:0:0:0:
256,148,159863,5,0,0:0:0:0:
256,120,159974,1,0,0:0:0:0:
256,92,160085,2,0,P|320:48|396:68,1,160
464,148,160752,1,0,0:0:0:0:
464,252,160974,2,0,P|424:244|388:220,1,80,0|0,0:0|0:0,0:0:0:0:
316,152,161418,1,0,0:0:0:0:
280,248,161641,5,0,0:0:0:0:
268,272,161752,1,0,0:0:0:0:
256,296,161863,2,0,B|220:320|220:320|184:324,1,80
80,204,162307,2,0,B|116:228|116:228|152:232,1,80
256,108,162752,2,0,B|220:132|220:132|184:136,1,80
88,100,163196,1,0,0:0:0:0:
80,204,163418,5,0,0:0:0:0:
80,204,163529,1,0,0:0:0:0:
80,204,163641,2,0,P|104:236|140:256,1,80
240,248,164085,2,0,L|216:324,1,80
116,348,164529,1,0,0:0:0:0:
28,296,164752,1,0,0:0:0:0:
80,204,164974,2,0,L|12:160,1,80
112,136,165418,6,0,P|148:120|176:92,1,80
336,92,165863,2,0,P|364:120|400:136,1,80
296,260,166307,2,0,P|256:252|216:260,1,80
256,356,166752,1,0,0:0:0:0:
256,356,166863,1,0,0:0:0:0:
256,356,166974,2,0,P|296:364|336:356,1,80
400,276,167418,1,0,0:0:0:0:
364,180,167641,5,0,0:0:0:0:
448,120,167863,1,0,0:0:0:0:
352,80,168085,2,0,B|316:64|316:64|292:28,1,80
256,128,168529,2,0,L|216:200,1,80
132,256,168974,5,0,0:0:0:0:
204,332,169196,1,0,0:0:0:0:
308,332,169418,1,0,0:0:0:0:
204,332,169641,1,0,0:0:0:0:
256,240,169863,2,0,P|272:204|304:180,1,80
408,180,170307,2,0,P|440:156|456:120,1,80
456,16,170752,5,0,0:0:0:0:
356,40,170974,1,0,0:0:0:0:
320,136,171196,2,0,P|256:176|188:132,2,160,0|0|0,0:0|0:0|0:0,0:0:0:0:
256,52,172307,1,0,0:0:0:0:
152,40,172529,5,0,0:0:0:0:
88,124,172752,1,0,0:0:0:0:
168,192,172974,2,0,P|156:228|128:260,1,80
32,296,173418,2,0,P|52:332|84:352,1,80
188,348,173863,5,0,0:0:0:0:
256,272,174085,1,0,0:0:0:0:
324,352,174307,1,0,0:0:0:0:
428,352,174529,1,0,0:0:0:0:
428,352,174641,1,0,0:0:0:0:
428,352,174752,2,0,P|460:332|480:296,1,80
384,260,175196,2,0,P|344:196|380:128,1,160
256,192,175863,12,0,177418,0:0:0:0:
256,88,183196,5,0,0:0:0:0:
256,88,183418,1,0,0:0:0:0:
328,164,183641,1,0,0:0:0:0:
428,144,183863,1,0,0:0:0:0:
328,164,184085,5,0,0:0:0:0:
396,240,184307,1,0,0:0:0:0:
332,320,184529,1,0,0:0:0:0:
256,248,184752,1,0,0:0:0:0:
256,248,184863,1,0,0:0:0:0:
256,248,184974,2,0,P|200:304|124:292,1,160
96,192,185641,5,0,0:0:0:0:
164,112,185863,1,0,0:0:0:0:
96,32,186085,1,0,0:0:0:0:
164,112,186307,1,0,0:0:0:0:
256,60,186529,5,0,0:0:0:0:
256,60,186641,1,0,0:0:0:0:
256,60,186752,2,0,B|296:136|216:136|256:212,1,160
320,296,187418,5,0,0:0:0:0:
424,276,187641,2,0,P|424:316|404:356,1,80
320,296,188085,2,0,P|320:256|340:216,1,80
256,192,188529,12,0,190307,0:0:0:0:
256,84,192085,6,0,B|216:100|216:68|176:84,1,80
296,192,192529,2,0,B|336:208|336:176|376:192,1,80
296,332,192974,2,0,P|256:340|216:332,2,80,0|0|0,0:0|0:0|0:0,0:0:0:0:
256,236,193641,1,0,0:0:0:0:
256,208,193752,1,0,0:0:0:0:
256,180,193863,6,0,B|272:140|240:140|256:100,1,80
336,36,194307,5,0,0:0:0:0:
432,80,194529,1,0,0:0:0:0:
380,172,194752,2,0,B|416:192|416:192|456:192,1,80
440,296,195196,2,0,L|368:336,1,80
296,260,195641,6,0,P|260:240|240:208,1,80
288,116,196085,1,0,0:0:0:0:
184,112,196307,1,0,0:0:0:0:
184,112,196418,1,0,0:0:0:0:
184,112,196529,2,0,P|148:92|128:60,1,80
44,124,196974,2,0,P|100:180|100:256,1,160
40,340,197641,5,0,0:0:0:0:
144,352,197863,1,0,0:0:0:0:
208,272,198085,1,0,0:0:0:0:
176,172,198307,2,0,P|216:156|244:128,1,80
404,116,198752,2,0,P|364:132|336:160,1,80
312,260,199196,5,0,0:0:0:0:
404,312,199418,1,0,0:0:0:0:
468,230,199641,2,0,L|392:208,1,80
404,312,200085,2,0,L|324:336,1,80
256,260,200529,5,0,0:0:0:0:
184,332,200752,1,0,0:0:0:0:
184,332,200863,1,0,0:0:0:0:
184,334,200974,2,0,L|108:312,1,80,0|0,0:0|0:0,0:0:0:0:
172,232,201418,5,0,0:0:0:0:
172,232,201641,1,0,0:0:0:0:
76,192,201863,2,0,P|128:136|208:136,1,160
292,192,202529,1,0,0:0:0:0:
364,264,202752,6,0,P|340:296|300:316,1,80
392,180,203196,2,0,P|428:200|448:232,1,80
292,192,203641,2,0,B|268:160|268:160|268:120,1,80
192,52,204085,1,0,0:0:0:0:
168,152,204307,5,0,0:0:0:0:
144,168,204418,1,0,0:0:0:0:
112,172,204529,2,0,P|72:164|40:140,2,80,0|0|0,0:0|0:0|0:0,0:0:0:0:
116,68,205196,1,0,0:0:0:0:
212,108,205418,2,0,P|256:88|276:64,1,80
380,68,205863,1,0,0:0:0:0:
460,132,206085,5,0,0:0:0:0:
460,160,206196,1,0,0:0:0:0:
460,188,206307,2,0,B|444:224|444:224|412:248,1,80
320,296,206752,1,0,0:0:0:0:
256,212,206974,1,0,0:0:0:0:
168,268,207196,2,0,P|128:260|112:228,1,80
176,144,207641,5,0,0:0:0:0:
148,44,207863,1,0,0:0:0:0:
176,44,207974,1,0,0:0:0:0:
204,44,208085,2,0,L|284:44,1,80
388,44,208529,6,0,L|444:100,1,80
324,208,208974,2,0,L|324:128,1,80
260,276,209418,2,0,L|204:332,1,80
100,332,209863,5,0,0:0:0:0:
104,228,210085,1,0,0:0:0:0:
104,200,210196,1,0,0:0:0:0:
104,172,210307,2,0,P|132:144|172:132,1,80
256,192,210752,1,0,0:0:0:0:
256,192,210974,1,0,0:0:0:0:
328,264,211196,6,0,P|404:248|444:180,1,160
444,76,211863,1,0,0:0:0:0:
444,76,212085,1,0,0:0:0:0:
444,76,212307,1,0,0:0:0:0:
348,112,212529,2,0,P|312:96|284:68,1,80
204,136,212974,2,0,P|184:100|180:60,1,80
84,108,213418,5,0,0:0:0:0:
60,208,213641,1,0,0:0:0:0:
160,236,213863,1,0,0:0:0:0:
136,336,214086,1,0,0:0:0:0:
232,300,214307,6,0,L|304:336,1,80
292,232,214752,2,0,L|260:156,1,80
224,60,215196,1,0,0:0:0:0:
224,60,215418,1,0,0:0:0:0:
316,112,215641,2,0,P|392:132|456:88,2,160,0|0|0,0:0|0:0|0:0,0:0:0:0:
224,60,216752,5,0,0:0:0:0:
160,144,216974,2,0,P|136:176|100:200,1,80
64,100,217418,1,0,0:0:0:0:
128,16,217641,1,0,0:0:0:0:
224,60,217863,2,0,L|268:128,1,80
324,216,218307,5,0,0:0:0:0:
220,228,218529,1,0,0:0:0:0:
284,312,218751,1,0,0:0:0:0:
388,300,218973,1,0,0:0:0:0:
324,216,219196,5,0,0:0:0:0:
324,216,219307,1,0,0:0:0:0:
324,216,219418,2,0,L|356:140,1,80
452,104,219863,5,0,0:0:0:0:
372,36,220085,1,0,0:0:0:0:
372,36,220196,1,0,0:0:0:0:
372,36,220307,2,0,L|292:56,1,80
