osu file format v12

[General]
AudioFilename: VIP.mp3
AudioLeadIn: 500
PreviewTime: 56478
Countdown: 0
SampleSet: Soft
StackLeniency: 0.3
Mode: 0
LetterboxInBreaks: 1
WidescreenStoryboard: 0

[Editor]
DistanceSpacing: 1.5
BeatDivisor: 4
GridSize: 32

[Metadata]
Title:V.I.P (TV Size)
TitleUnicode:V.I.P (TV Size)
Artist:SID
ArtistUnicode:シド
Creator:No_Gu
Version:Pokie
Source:Magi: The Labyrinth of Magic
Tags:マギ Pokie Flask
BeatmapID:222621
BeatmapSetID:79856

[Difficulty]
HPDrainRate:7
CircleSize:4
OverallDifficulty:8
ApproachRate:9
SliderMultiplier:1.76
SliderTickRate:1

[Events]
//Background and Video events
0,0,"BG.jpg",0,0
Video,364,"video.avi"
//Break Periods
//Storyboard Layer 0 (Background)
//Storyboard Layer 1 (Fail)
//Storyboard Layer 2 (Pass)
//Storyboard Layer 3 (Foreground)
//Storyboard Sound Samples
//Background Colour Transformations
3,100,163,162,255

[TimingPoints]
535,324.324324324324,4,1,1,50,1,0
1913,-100,4,1,1,20,0,0
1994,-100,4,1,1,50,0,0
2562,-100,4,1,1,20,0,0
2643,-100,4,1,1,50,0,0
2967,-133.333333333333,4,1,1,50,0,0
7021,-133.333333333333,4,2,1,50,0,0
12210,-133.333333333333,4,1,1,50,0,1
14562,-133.333333333333,4,1,1,50,0,0
14643,-100,4,1,1,50,0,1
14724,-100,4,1,1,50,0,0
16021,-100,4,1,1,20,0,0
16102,-100,4,1,1,50,0,0
17480,-100,4,1,1,20,0,0
17562,-100,4,1,1,50,0,0
40751,-133.333333333333,4,1,1,50,0,0
54859,-100,4,1,1,50,0,0
55345,-200,4,1,1,50,0,0
55426,-200,4,2,1,5,0,0
56318,-100,4,2,1,60,0,0
57129,-133.333333333333,4,2,1,60,0,0
57453,-100,4,3,1,70,0,1
65886,-100,4,1,1,70,0,1
67832,-83.3333333333333,4,1,1,70,0,1
68075,-83.3333333333333,4,1,1,20,0,1
68156,-83.3333333333333,4,1,1,70,0,1
68724,-83.3333333333333,4,1,1,20,0,1
68805,-83.3333333333333,4,1,1,70,0,1
69210,-100,4,3,1,70,0,0
69291,-100,4,2,1,70,0,1
69372,-100,4,2,1,70,0,0
71886,-100,4,1,1,40,0,0
73183,-100,4,2,1,70,0,0
78372,-100,4,1,1,70,0,1
80156,-100,4,1,1,85,0,1
80318,-100,4,1,1,70,0,1
80643,-100,4,1,1,85,0,1
80805,-100,4,1,1,70,0,1
82021,-100,4,3,1,70,0,0
82102,-100,4,3,1,70,0,1
82183,-100,4,2,1,5,0,0

[Colours]
Combo1 : 255,255,255
Combo2 : 255,255,128
Combo3 : 255,128,192
Combo4 : 128,255,255
Combo5 : 128,255,128
Combo6 : 245,39,16

[HitObjects]
126,254,697,1,0,0:0:0:0:
202,147,859,1,0,0:0:0:0:
222,153,940,1,0,0:0:0:0:
242,160,1021,1,0,0:0:0:0:
260,148,1102,1,0,0:0:0:0:
277,134,1183,5,0,0:0:0:0:
298,131,1264,1,0,0:0:0:0:
319,127,1345,1,0,0:0:0:0:
340,124,1426,1,0,0:0:0:0:
367,151,1507,1,0,0:0:0:0:
388,148,1589,1,0,0:0:0:0:
409,144,1670,38,0,P|460:168|462:241,1,132,0|0,0:0|0:0,0:0:0:0:
372,230,1994,1,0,0:0:0:0:
372,230,2480,6,0,L|317:223,1,44
242,253,2643,1,0,0:0:0:0:
242,253,3129,6,0,B|160:308|160:308|60:276,1,198.000007553101,4|0,0:2|0:0,0:0:0:0:
49,274,3697,1,0,0:0:0:0:
33,269,3778,2,0,P|8:220|46:153,1,132.000005035401
133,97,4264,1,0,0:0:0:0:
317,201,4426,6,0,P|342:250|304:317,1,132.000005035401,4|0,0:0|2:0,0:0:0:0:
125,210,5075,2,0,P|100:161|138:94,1,132.000005035401,4|0,0:0|2:0,0:0:0:0:
284,26,5724,2,0,L|344:31,2,44.0000016784669
420,19,6048,2,0,L|445:73,2,44.0000016784669
508,125,6372,2,0,L|473:174,2,44.0000016784669
498,250,6697,1,4,0:0:0:0:
382,351,7021,38,0,P|321:368|259:318,1,132.000005035401,4|0,0:0|0:0,0:0:0:0:
241,185,7507,1,0,0:0:0:0:
241,185,7670,2,0,L|89:202,1,132.000005035401,8|0,0:0|0:0,0:0:0:0:
17,211,8156,1,0,0:0:0:0:
66,53,8318,2,0,L|144:46,1,66.0000025177003,0|0,3:0|0:0,0:0:0:0:
312,87,8643,2,0,L|234:94,1,66.0000025177003
93,281,8967,2,8,L|169:294,1,66.0000025177003
258,311,9291,1,0,0:0:0:0:
289,287,9453,1,0,0:0:0:0:
321,263,9616,6,0,P|381:292|451:271,1,132.000005035401,4|0,0:0|0:0,0:0:0:0:
512,110,10102,1,0,0:0:0:0:
512,110,10264,2,0,L|380:128,1,132.000005035401,8|0,0:0|0:0,0:0:0:0:
243,150,10751,1,0,0:0:0:0:
135,103,10913,2,0,L|53:92,1,66.0000025177003,0|0,3:0|0:0,0:0:0:0:
95,301,11237,2,0,L|177:312,1,66.0000025177003
326,123,11562,2,0,P|286:73|207:73,1,132.000005035401,8|0,0:0|0:0,0:0:0:0:
300,347,12210,6,0,P|367:356|423:315,1,132.000005035401,4|0,0:0|0:0,0:0:0:0:
455,244,12697,1,0,0:0:0:0:
431,154,12859,1,0,0:0:0:0:
343,108,13021,1,0,0:0:0:0:
239,130,13183,1,0,0:0:0:0:
164,214,13345,1,0,0:0:0:0:
94,102,13507,5,0,0:0:0:0:
21,300,13670,1,0,0:0:0:0:
229,262,13832,2,0,L|304:250,1,66.0000025177003
313,255,14075,1,0,0:0:0:0:
332,260,14156,1,0,0:0:0:0:
506,180,14318,1,0,0:0:0:0:
486,174,14399,1,0,0:0:0:0:
466,168,14480,1,0,0:0:0:0:
366,34,14643,38,0,P|281:5|213:59,1,176,6|2,0:2|0:0,0:0:0:0:
128,205,15129,2,0,L|30:197,1,88,8|0,0:0|0:0,0:0:0:0:
161,185,15453,5,2,0:0:0:0:
45,297,15616,1,2,0:0:0:0:
195,165,15778,2,0,L|349:176,1,132,8|0,0:0|0:0,0:0:0:0:
390,229,16102,6,0,P|438:234|475:210,1,88,2|0,0:0|0:0,0:0:0:0:
507,101,16426,1,8,0:0:0:0:
388,63,16589,1,0,0:0:0:0:
312,159,16751,5,2,1:2:0:0:
379,262,16913,1,0,0:0:0:0:
497,229,17075,1,10,1:0:0:0:
419,160,17237,2,0,B|387:118|387:118|308:112,1,132,2|0,0:0|0:0,0:0:0:0:
230,107,17562,38,0,L|128:101,1,88,2|10,0:0|0:0,0:0:0:0:
37,39,17886,1,0,0:0:0:0:
31,224,18048,2,0,L|122:205,2,88,2|2|8,0:0|0:0|0:0,0:0:0:0:
108,324,18535,6,0,P|140:358|188:362,1,88,2|0,0:0|0:0,0:0:0:0:
311,244,18859,2,0,P|271:219|223:228,1,88,2|8,0:0|0:0,0:0:0:0:
377,353,19183,2,0,P|421:366|465:345,1,88,2|0,0:0|0:0,0:0:0:0:
494,125,19507,2,0,P|447:123|410:154,1,88,2|8,0:0|0:0,0:0:0:0:
484,232,19832,1,0,0:0:0:0:
509,86,19994,6,0,P|434:76|364:153,1,176,6|8,0:2|0:0,0:0:0:0:
328,239,20480,1,0,0:0:0:0:
302,220,20562,1,0,0:0:0:0:
277,201,20643,2,0,L|177:212,1,88
33,347,20967,2,0,L|133:336,1,88,8|0,0:0|0:0,0:0:0:0:
380,308,21291,5,0,0:0:0:0:
292,155,21453,1,0,0:0:0:0:
424,231,21616,1,8,0:0:0:0:
292,308,21778,1,0,0:0:0:0:
380,155,21940,37,0,0:0:0:0:
248,231,22102,1,0,0:0:0:0:
128,140,22264,2,0,L|32:136,1,88,8|0,0:0|0:0,0:0:0:0:
157,37,22589,6,0,P|244:38|341:45,1,176,0|8,0:0|0:0,0:0:0:0:
445,65,23075,1,0,0:0:0:0:
465,87,23156,1,0,0:0:0:0:
484,110,23237,2,0,P|476:155|478:199,1,88
361,366,23562,2,0,P|369:321|367:277,1,88,8|0,0:0|0:0,0:0:0:0:
245,174,23886,5,0,0:0:0:0:
62,210,24048,1,0,0:0:0:0:
195,258,24210,5,8,0:0:0:0:
58,121,24372,1,0,0:0:0:0:
108,312,24534,37,0,0:0:0:0:
54,34,24697,1,0,0:0:0:0:
145,174,24859,5,8,0:0:0:0:
25,288,25021,1,0,0:0:0:0:
152,373,25183,6,0,P|243:388|359:370,1,176,4|8,0:2|0:0,0:0:0:0:
496,284,25670,2,0,P|405:269|289:287,1,176
236,208,26156,2,0,L|227:102,1,88,8|0,0:0|0:0,0:0:0:0:
304,32,26480,5,0,0:0:0:0:
318,171,26643,1,0,0:0:0:0:
191,111,26805,2,0,L|99:107,1,88,8|0,0:0|0:0,0:0:0:0:
25,228,27129,37,0,0:0:0:0:
136,301,27291,1,0,0:0:0:0:
236,208,27453,2,0,L|323:204,1,88,8|0,0:0|0:0,0:0:0:0:
471,313,27778,6,0,P|415:384|323:375,1,176,2|8,0:0|0:0,0:0:0:0:
167,319,28264,2,0,P|223:248|315:257,1,176,2|0,0:0|0:0,0:0:0:0:
397,202,28751,2,0,L|409:103,1,88,8|0,0:0|0:0,0:0:0:0:
224,34,29075,6,0,L|212:133,1,88
66,226,29399,2,0,L|157:186,1,88,8|0,0:0|0:0,0:0:0:0:
316,265,29724,2,0,L|236:205,1,88
21,364,30048,2,0,L|168:353,1,132,8|0,0:0|0:0,0:0:0:0:
227,348,30372,6,0,P|300:385|396:359,1,176,4|8,0:2|0:0,0:0:0:0:
459,286,30859,1,0,0:0:0:0:
408,193,31021,2,0,L|297:176,1,88
188,37,31345,2,0,L|299:54,1,88,8|0,0:0|0:0,0:0:0:0:
454,78,31670,37,0,0:0:0:0:
474,226,31832,1,0,0:0:0:0:
336,168,31994,1,8,0:0:0:0:
454,78,32156,5,0,0:0:0:0:
474,226,32318,1,0,0:0:0:0:
336,168,32480,1,0,0:0:0:0:
211,248,32643,2,0,L|111:254,1,88,8|0,0:0|0:0,0:0:0:0:
19,141,32967,6,0,P|107:134|196:132,1,176,0|8,0:0|0:0,0:0:0:0:
284,76,33453,1,0,0:0:0:0:
336,168,33616,2,0,P|382:172|425:175,1,88
495,357,33940,2,0,P|449:353|406:350,1,88,8|0,0:0|0:0,0:0:0:0:
381,347,34183,1,0,0:0:0:0:
354,345,34264,5,0,0:0:0:0:
261,237,34426,1,0,0:0:0:0:
184,343,34589,37,8,0:0:0:0:
278,212,34751,1,0,0:0:0:0:
407,243,34913,5,0,0:0:0:0:
260,186,35075,1,0,0:0:0:0:
120,205,35237,5,8,0:0:0:0:
270,152,35399,1,0,0:0:0:0:
362,58,35562,6,0,P|279:17|187:42,1,176,4|8,0:2|0:0,0:0:0:0:
181,155,36048,2,0,P|102:171|19:130,1,176
113,77,36534,1,8,0:0:0:0:
182,259,36697,1,0,0:0:0:0:
77,273,36859,37,0,0:0:0:0:
228,368,37021,1,0,0:0:0:0:
381,281,37183,2,0,P|424:277|475:276,1,88,8|0,0:0|0:0,0:0:0:0:
333,206,37507,5,0,0:0:0:0:
431,362,37670,1,0,0:0:0:0:
501,192,37832,2,0,P|501:146|491:97,1,88,8|0,0:0|0:0,0:0:0:0:
350,37,38156,6,0,P|268:31|210:100,1,176,2|8,0:0|0:0,0:0:0:0:
194,266,38643,2,0,P|276:272|334:203,1,176
218,105,39129,1,8,0:0:0:0:
73,151,39291,6,0,P|54:188|59:234,1,88
180,347,39616,2,0,P|199:310|194:264,1,88,0|8,0:0|0:0,0:0:0:0:
314,190,39940,2,0,L|416:180,1,88,8|0,0:0|0:0,0:0:0:0:
477,254,40264,1,0,0:0:0:0:
493,83,40426,2,0,P|442:43|367:51,1,132
313,88,40751,38,0,L|172:98,1,132.000005035401,4|8,0:2|0:0,0:0:0:0:
38,293,41399,2,0,P|67:311|104:311,1,66.0000025177003
168,274,41724,1,8,0:0:0:0:
223,330,41886,6,0,L|315:324,1,66.0000025177003
438,341,42210,2,0,L|372:345,1,66.0000025177003,0|8,0:0|0:0,0:0:0:0:
246,307,42534,6,0,L|338:301,1,66.0000025177003
461,318,42859,2,0,L|395:322,1,66.0000025177003,0|8,0:0|0:0,0:0:0:0:
268,200,43183,2,0,P|314:154|388:163,1,132.000005035401
443,200,43670,1,8,0:0:0:0:
491,137,43832,2,0,L|474:61,1,66.0000025177003
352,4,44156,2,0,L|366:68,1,66.0000025177003,0|8,0:0|0:0,0:0:0:0:
342,234,44480,6,0,P|296:280|222:271,1,132.000005035401,0|0,0:0|0:0,0:0:0:0:
178,219,44967,1,8,0:0:0:0:
128,280,45129,2,0,L|116:350,1,66.0000025177003
25,212,45453,2,0,L|37:142,1,66.0000025177003,0|8,0:0|0:0,0:0:0:0:
36,147,45940,38,0,P|82:101|156:110,1,132.000005035401,2|8,0:0|0:0,0:0:0:0:
215,139,46426,1,0,0:0:0:0:
289,110,46589,2,0,L|359:114,1,66.0000025177003
471,166,46913,1,8,0:0:0:0:
387,249,47075,2,0,L|243:241,1,132.000005035401
123,278,47562,5,8,0:0:0:0:
161,376,47724,2,0,L|292:383,1,132.000005035401
408,285,48210,2,0,L|325:282,1,66.0000025177003,8|0,0:0|0:0,0:0:0:0:
225,197,48534,6,0,P|264:146|332:145,1,132.000005035401,4|8,0:2|0:0,0:0:0:0:
430,84,49021,2,0,P|454:143|421:202,1,132.000005035401
316,256,49507,1,8,0:0:0:0:
225,197,49670,2,0,P|200:137|233:78,1,132.000005035401
326,41,50156,6,0,L|401:47,1,66.0000025177003,8|0,0:0|0:0,0:0:0:0:
189,102,50480,2,0,L|123:107,1,66.0000025177003,0|0,0:0|0:0,0:0:0:0:
305,178,50805,2,0,L|370:183,1,66.0000025177003,8|0,0:0|0:0,0:0:0:0:
232,284,51129,38,0,P|181:328|120:321,1,132.000005035401,4|8,0:2|0:0,0:0:0:0:
63,265,51616,1,0,0:0:0:0:
81,188,51778,2,0,L|95:114,1,66.0000025177003
182,82,52102,1,8,0:0:0:0:
257,143,52264,6,0,L|334:146,1,66.0000025177003
398,219,52589,2,0,L|475:222,1,66.0000025177003,0|8,0:0|0:0,0:0:0:0:
238,161,52913,6,0,L|315:164,1,66.0000025177003
379,237,53237,2,0,L|456:240,1,66.0000025177003,0|8,0:0|0:0,0:0:0:0:
288,335,53562,2,0,P|235:370|168:350,1,132.000005035401,4|0,0:2|0:0,0:0:0:0:
222,260,54048,1,8,0:0:0:0:
222,260,54372,5,0,0:0:0:0:
242,156,54534,1,0,0:0:0:0:
222,260,54697,1,8,0:0:0:0:
113,95,54859,2,0,P|169:40|277:67,1,176
259,51,55345,22,0,B|218:103|232:159|232:159|275:198|275:198|237:232|237:232|254:249|250:283,1,264,4|2,0:0|0:0,0:0:0:0:
296,333,56480,5,0,0:0:0:0:
371,356,56643,1,2,0:0:0:0:
446,331,56805,1,2,0:0:0:0:
479,259,56967,1,0,0:0:0:0:
360,208,57129,2,0,L|364:141,1,66.0000025177003
424,75,57453,6,0,B|443:45|443:45|360:15|293:60,1,176,4|0,0:0|0:0,0:0:0:0:
197,152,57940,1,8,2:0:0:0:
197,152,58264,2,0,L|105:143,1,88
0,296,58589,1,8,2:0:0:0:
0,296,58751,6,0,B|-19:326|-19:326|64:356|131:311,1,176,0|0,0:0|0:0,0:0:0:0:
292,260,59237,2,0,B|311:230|311:230|228:200|161:245,1,176,8|0,2:2|0:0,0:0:0:0:
229,374,59724,2,0,P|270:385|322:380,1,88,0|8,0:0|2:0,0:0:0:0:
423,338,60048,1,0,0:0:0:0:
502,146,60210,6,0,P|514:214|506:236,1,88
350,314,60534,1,8,2:0:0:0:
350,314,60859,2,0,L|257:308,1,88
155,227,61183,1,8,2:0:0:0:
58,160,61345,38,0,B|39:130|39:130|122:100|189:145,1,176,0|0,0:0|0:0,0:0:0:0:
350,196,61831,2,0,B|369:226|369:226|286:256|219:211,1,176,8|0,2:0|0:0,0:0:0:0:
36,247,62318,1,0,0:0:0:0:
45,52,62480,2,0,P|89:44|143:47,1,88,8|0,2:0|2:0,0:0:0:0:
270,81,62805,6,0,P|353:114|440:80,1,176,4|8,0:0|2:0,0:0:0:0:
506,196,63291,1,0,2:0:0:0:
487,207,63372,1,0,2:0:0:0:
467,217,63453,2,0,P|449:258|454:309,1,88
296,373,63778,2,0,P|314:332|309:281,1,88,8|0,2:0|2:0,0:0:0:0:
246,159,64102,6,0,P|163:126|76:160,1,176,4|8,0:0|2:0,0:0:0:0:
0,253,64589,2,0,P|83:286|170:252,1,176,0|0,0:0|0:0,0:0:0:0:
246,159,65075,2,0,L|340:150,1,88,8|0,2:0|0:0,0:0:0:0:
472,80,65399,6,0,P|421:30|314:25,1,176,4|8,0:0|2:0,0:0:0:0:
183,82,65886,2,0,L|132:73,2,44
273,222,66210,2,0,L|327:210,2,44
250,240,66453,37,0,0:0:0:0:
228,234,66534,1,0,0:0:0:0:
207,226,66616,1,0,0:0:0:0:
185,221,66697,2,0,L|96:233,1,88,8|0,0:0|0:0,0:0:0:0:
348,351,67021,2,0,L|259:363,1,88,8|0,0:0|0:0,0:0:0:0:
357,121,67345,2,0,L|268:133,1,88,8|0,0:0|0:0,0:0:0:0:
248,128,67589,1,0,0:0:0:0:
226,123,67670,1,8,0:0:0:0:
395,30,67832,54,0,P|454:45|470:145,1,158.399995166016,0|0,0:0|0:0,0:0:0:0:
414,218,68156,1,0,0:0:0:0:
414,218,68643,6,0,L|357:230,1,52.7999983886719
243,214,68805,1,0,0:0:0:0:
243,214,69291,6,0,P|237:296|393:333,1,264,4|0,1:0|1:0,0:0:0:0:
404,327,69859,1,0,1:0:0:0:
421,314,69940,2,0,L|511:326,1,88,8|8,0:3|0:3,0:0:0:0:
448,173,70264,2,0,L|358:185,1,88,8|8,0:3|0:3,0:0:0:0:
150,220,70589,6,0,B|115:240|115:240|82:174|146:110,1,176,4|0,1:0|0:0,0:0:0:0:
232,158,71075,1,0,0:0:0:0:
309,104,71237,6,0,B|344:84|344:84|377:150|313:214,1,176,4|0,1:0|0:0,0:0:0:0:
239,166,71724,1,0,0:0:0:0:
183,311,71886,2,0,L|120:296,2,58.6666666666667
116,188,72210,2,0,L|97:126,2,58.6666666666667,8|0|0,0:0|0:0|0:0,0:0:0:0:
189,69,72534,2,0,L|233:22,2,58.6666666666667
328,73,72859,1,8,0:0:0:0:
109,159,73075,1,8,0:0:0:0:
109,159,73183,38,0,P|174:198|269:159,1,176,4|0,3:0|0:0,0:0:0:0:
361,57,73670,1,0,0:0:0:0:
361,57,73832,2,0,L|380:236,1,176,8|0,0:0|0:0,0:0:0:0:
498,357,74318,1,0,0:0:0:0:
498,357,74480,2,0,L|503:255,1,88,0|0,3:0|0:0,0:0:0:0:
291,148,74805,2,0,L|286:250,1,88
159,365,75129,2,8,P|118:375|66:376,1,88
0,184,75453,1,0,3:0:0:0:
23,144,75616,1,0,0:0:0:0:
43,108,75778,6,0,P|92:86|202:148,1,176,4|0,3:0|0:0,0:0:0:0:
265,291,76264,1,0,0:0:0:0:
265,291,76426,2,0,L|452:273,1,176,8|0,0:0|0:0,0:0:0:0:
350,111,76913,2,0,L|241:96,1,88,0|0,0:0|3:0,0:0:0:0:
90,233,77237,2,0,L|177:244,1,88,8|0,0:0|0:0,0:0:0:0:
322,364,77562,1,0,3:0:0:0:
427,203,77724,2,0,P|349:155|268:176,1,176,8|0,0:0|0:0,0:0:0:0:
11,279,78372,6,0,P|66:351|149:361,1,176,4|0,0:0|0:0,0:0:0:0:
240,339,78859,1,0,0:0:0:0:
309,260,79021,1,0,0:0:0:0:
302,145,79183,1,0,0:0:0:0:
194,85,79345,1,0,0:0:0:0:
70,130,79507,1,0,0:0:0:0:
192,242,79670,5,0,0:0:0:0:
247,0,79832,1,0,0:0:0:0:
5,56,79994,1,0,0:0:0:0:
158,161,80156,38,0,L|253:164,1,88,0|0,0:0|0:0,0:0:0:0:
487,361,80480,2,0,L|392:358,1,88,0|0,0:0|0:0,0:0:0:0:
256,288,80805,1,4,0:0:0:0:
256,192,80886,12,4,82102,1:0:0:0:
256,192,82183,12,0,87940,0:0:0:0:
