osu file format v12

[General]
AudioFilename: VIP.mp3
AudioLeadIn: 500
PreviewTime: 56478
Countdown: 0
SampleSet: Normal
StackLeniency: 0.3
Mode: 0
LetterboxInBreaks: 1
WidescreenStoryboard: 0

[Editor]
DistanceSpacing: 0.8
BeatDivisor: 4
GridSize: 8

[Metadata]
Title:V.I.P (TV Size)
TitleUnicode:V.I.P (TV Size)
Artist:SID
ArtistUnicode:シド
Creator:No_Gu
Version:Hard
Source:Magi: The Labyrinth of Magic
Tags:マギ Pokie Flask
BeatmapID:222620
BeatmapSetID:79856

[Difficulty]
HPDrainRate:6
CircleSize:4
OverallDifficulty:7
ApproachRate:8
SliderMultiplier:1.6
SliderTickRate:1

[Events]
//Background and Video events
0,0,"BG.jpg",0,0
Video,364,"video.avi"
//Break Periods
//Storyboard Layer 0 (Background)
//Storyboard Layer 1 (Fail)
//Storyboard Layer 2 (Pass)
//Storyboard Layer 3 (Foreground)
//Storyboard Sound Samples
//Background Colour Transformations
3,100,163,162,255

[TimingPoints]
535,324.324324324324,4,1,1,60,1,0
1670,-200,4,1,1,60,0,0
2480,-100,4,1,1,60,0,0
3129,-200,4,1,1,60,0,0
3453,-200,4,2,1,60,0,0
5724,-200,4,1,1,60,0,0
7021,-200,4,2,1,60,0,0
12210,-100,4,1,1,60,0,1
14562,-100,4,1,1,60,0,0
14643,-100,4,1,1,60,0,1
14724,-100,4,2,1,60,0,0
40751,-133.333333333333,4,2,1,60,0,0
55345,-200,4,2,1,60,0,0
55426,-200,4,2,1,5,0,0
56318,-100,4,2,1,50,0,0
57453,-100,4,3,1,70,0,1
69210,-100,4,3,1,70,0,0
69291,-200,4,2,1,70,0,1
69372,-200,4,2,1,70,0,0
78372,-100,4,1,1,70,0,1
81291,-100,4,1,1,85,0,1
81453,-100,4,1,1,70,0,1
82021,-100,4,3,1,70,0,0
82102,-100,4,3,1,70,0,1
82183,-100,4,2,1,5,0,0

[Colours]
Combo1 : 255,255,255
Combo2 : 255,255,128
Combo3 : 255,128,192
Combo4 : 128,255,255
Combo5 : 128,255,128
Combo6 : 245,39,16

[HitObjects]
64,56,697,1,0,0:0:0:0:
128,112,859,2,0,L|168:104,8,40
48,136,1670,6,0,P|40:184|48:224,1,80
104,280,2480,1,0,0:0:0:0:
104,280,2643,1,0,0:0:0:0:
176,232,3129,6,0,P|256:224|320:280,1,160,4|0,0:0|0:0,0:0:0:0:
392,336,4102,1,0,0:0:0:0:
456,272,4426,2,0,L|448:192,1,80,4|0,1:0|0:0,0:0:0:0:
328,72,5075,2,0,L|336:152,1,80,4|0,1:0|0:0,0:0:0:0:
240,96,5724,6,0,L|208:104,5,26.6666666666667
224,120,6372,2,0,L|198:126,5,26.6666666666667
184,144,7021,6,0,P|152:160|96:152,1,80,4|0,3:1|0:0,0:0:0:0:
32,104,7670,1,8,0:0:0:0:
24,192,7994,2,0,P|16:216|16:232,1,40
40,272,8318,2,0,P|48:312|40:360,1,80,0|0,3:0|0:0,0:0:0:0:
136,320,8967,1,8,0:0:0:0:
136,320,9129,2,0,L|224:328,1,80,8|0,0:0|0:0,0:0:0:0:
248,304,9616,6,0,P|272:248|264:152,1,160,4|8,3:1|0:0,0:0:0:0:
192,80,10589,1,0,0:0:0:0:
112,136,10913,2,0,P|72:136|32:120,1,80,0|0,3:0|0:0,0:0:0:0:
200,176,11562,2,0,L|192:256,1,80,8|0,0:0|3:3,0:0:0:0:
384,80,12210,6,0,P|432:80|464:96,2,80
320,144,12697,2,0,P|296:102|293:66,2,80
408,176,13183,2,0,P|384:217|354:237,2,80
344,56,13670,5,0,0:0:0:0:
208,64,13832,1,0,0:0:0:0:
160,192,13994,2,0,L|152:152,2,40
216,280,14318,2,0,L|208:320,2,40
312,240,14643,6,0,P|384:232|448:288,1,160,4|0,3:0|0:0,0:0:0:0:
360,328,15129,1,8,0:0:0:0:
360,328,15453,1,0,3:0:0:0:
312,240,15616,2,0,P|304:184|312:160,1,80,0|8,3:0|0:0,0:0:0:0:
376,104,15940,1,0,0:0:0:0:
288,72,16102,6,0,P|168:72|128:88,1,160,0|8,3:0|0:0,0:0:0:0:
72,152,16589,1,0,0:0:0:0:
96,232,16751,2,0,L|80:320,1,80,0|0,3:0|3:0,0:0:0:0:
200,368,17075,2,0,L|214:289,1,80,8|0,0:0|0:0,0:0:0:0:
352,200,17562,5,0,0:0:0:0:
352,200,17724,1,8,0:0:0:0:
448,336,18048,1,0,3:0:0:0:
448,336,18210,2,0,P|456:288|448:256,1,80,0|8,3:0|0:0,0:0:0:0:
384,200,18534,6,0,L|224:216,1,160,0|0,0:0|3:0,0:0:0:0:
152,184,19021,1,8,0:0:0:0:
136,104,19183,2,0,P|136:64|160:24,1,80,0|0,0:0|3:0,0:0:0:0:
80,160,19507,2,0,P|45:180|-1:179,1,80,0|8,3:0|0:0,0:0:0:0:
256,328,19994,6,0,P|336:312|416:320,1,160,4|8,3:0|0:0,0:0:0:0:
496,368,20480,1,0,0:0:0:0:
496,280,20643,2,0,L|480:200,1,80,0|0,3:0|3:0,0:0:0:0:
368,152,20967,2,0,L|383:230,1,80,8|0,0:0|0:0,0:0:0:0:
336,312,21291,5,0,3:0:0:0:
265,347,21453,1,0,3:0:0:0:
185,346,21615,1,8,0:0:0:0:
115,310,21777,1,0,0:0:0:0:
80,240,21940,2,0,P|72:200|88:152,1,80,0|0,3:0|3:0,0:0:0:0:
224,128,22264,2,0,P|232:168|222:205,1,80,8|0,0:0|0:0,0:0:0:0:
176,280,22589,6,0,B|224:304|272:272|272:272|312:280|328:312,1,160,0|8,3:0|0:0,0:0:0:0:
392,368,23075,2,0,B|432:328|416:248|368:224,1,160,0|0,0:0|3:0,0:0:0:0:
320,152,23562,2,0,P|320:112|344:72,1,80,8|0,0:0|0:0,0:0:0:0:
288,240,23886,6,0,L|200:232,1,80,0|0,3:0|3:0,0:0:0:0:
88,160,24210,2,0,P|96:96|136:56,1,120,8|0,0:0|0:0,0:0:0:0:
160,72,24534,2,0,P|200:64|240:72,1,80,0|0,3:0|3:0,0:0:0:0:
320,152,24859,2,0,P|360:160|400:152,1,80,8|0,0:0|0:0,0:0:0:0:
480,256,25183,6,0,B|464:232|432:224|432:224|384:248|328:232,1,160,4|8,3:0|0:0,0:0:0:0:
256,200,25670,2,0,P|232:288|256:352,1,160,0|0,0:0|3:0,0:0:0:0:
336,376,26156,1,8,0:0:0:0:
336,376,26479,5,0,3:0:0:0:
408,336,26642,1,0,3:0:0:0:
496,336,26804,1,8,0:0:0:0:
496,336,27128,1,0,3:0:0:0:
456,264,27291,1,0,3:0:0:0:
456,176,27454,1,8,0:0:0:0:
456,176,27778,6,0,P|392:144|296:152,1,160,0|8,3:0|0:0,0:0:0:0:
248,216,28264,2,0,L|256:304,1,80,0|0,0:0|3:0,0:0:0:0:
192,352,28589,1,0,3:0:0:0:
112,328,28751,2,0,P|72:328|32:344,1,80,8|0,0:0|0:0,0:0:0:0:
32,200,29075,6,0,P|112:208|176:256,1,160,0|8,3:0|0:0,0:0:0:0:
256,272,29562,1,0,0:0:0:0:
328,232,29724,2,0,P|344:192|336:144,1,80,0|0,3:0|3:0,0:0:0:0:
296,80,30048,1,8,0:0:0:0:
296,80,30372,6,0,B|264:104|264:104|200:72|152:120,1,160,4|8,3:0|0:0,0:0:0:0:
136,216,30859,1,0,0:0:0:0:
216,256,31021,2,0,P|224:216|216:176,1,80,0|0,3:0|3:0,0:0:0:0:
144,304,31345,2,0,P|174:330|213:344,1,80,8|0,0:0|0:0,0:0:0:0:
136,216,31670,6,0,P|97:229|66:256,1,80,0|0,3:0|3:0,0:0:0:0:
136,384,31994,2,0,L|144:304,1,80,8|0,0:0|0:0,0:0:0:0:
296,256,32318,2,0,L|288:336,1,80,0|0,3:0|3:0,0:0:0:0:
424,384,32643,2,0,L|432:304,1,80,8|0,0:0|0:0,0:0:0:0:
488,240,32967,6,0,B|464:208|416:216|416:216|376:192|384:128,2,160,0|8|0,3:0|0:0|3:0,0:0:0:0:
360,320,33778,1,0,3:0:0:0:
216,288,33940,1,8,0:0:0:0:
216,288,34264,6,0,P|232:240|224:208,1,80,0|0,3:0|3:0,0:0:0:0:
272,136,34589,2,0,P|224:120|192:128,1,80,8|0,0:0|0:0,0:0:0:0:
112,80,34913,2,0,P|96:128|104:160,1,80,0|0,3:0|3:0,0:0:0:0:
56,232,35238,2,0,P|104:248|136:240,1,80,8|0,0:0|0:0,0:0:0:0:
232,160,35562,6,0,P|240:272|232:328,1,160,4|8,3:0|0:0,0:0:0:0:
368,360,36048,2,0,P|360:248|368:192,1,160,0|0,0:0|3:0,0:0:0:0:
440,136,36534,1,8,0:0:0:0:
360,72,36697,1,0,0:0:0:0:
360,72,36778,1,0,0:0:0:0:
360,72,36859,6,0,P|312:64|192:96,1,160,0|8,3:0|0:0,0:0:0:0:
144,160,37345,1,0,0:0:0:0:
120,240,37507,2,0,L|128:320,1,80,0|0,3:0|3:0,0:0:0:0:
216,360,37832,2,0,L|224:280,1,80,8|0,0:0|0:0,0:0:0:0:
296,216,38156,6,0,P|328:200|440:232,1,160,0|8,3:0|0:0,0:0:0:0:
352,368,38643,2,0,P|352:328|360:288,1,80,0|0,0:0|3:0,0:0:0:0:
440,232,38967,1,0,3:0:0:0:
264,280,39129,2,0,P|208:280|128:208,1,160,8|0,0:0|3:0,0:0:0:0:
112,136,39616,5,0,3:0:0:0:
112,56,39778,1,8,0:0:0:0:
240,168,39940,1,8,0:0:0:0:
376,64,40102,1,0,0:0:0:0:
370,143,40264,1,0,3:0:0:0:
365,223,40426,1,0,3:0:0:0:
360,303,40588,1,0,3:0:0:0:
296,360,40751,6,0,B|240:368|200:344|200:344|168:360,1,120.000004577637,4|8,0:0|0:0,0:0:0:0:
104,368,41237,2,0,P|88:304|96:240,1,120.000004577637,2|0,0:0|0:0,0:0:0:0:
136,176,41724,1,8,0:0:0:0:
216,144,41886,6,0,L|336:160,1,120.000004577637,2|0,0:0|0:0,0:0:0:0:
416,128,42372,2,0,B|464:72|424:16|424:16|416:48|384:64,1,180.000006866455,8|2,0:0|0:0,0:0:0:0:
288,24,43021,1,8,0:0:0:0:
200,88,43183,1,0,0:0:0:0:
200,88,43264,1,0,0:0:0:0:
200,88,43345,6,0,P|160:104|80:80,1,120.000004577637,2|8,0:0|0:0,0:0:0:0:
48,16,43832,2,0,L|24:144,1,120.000004577637,2|0,0:0|0:0,0:0:0:0:
72,216,44318,1,8,0:0:0:0:
256,224,44480,6,0,B|216:184|160:208|160:208|152:160|120:144,2,180.000006866455,2|8|2,0:0|0:0|0:0,0:0:0:0:
328,344,45616,1,8,0:0:0:0:
328,344,45940,6,0,P|336:288|336:224,1,120.000004577637,4|8,0:0|0:0,0:0:0:0:
200,200,46426,2,0,P|192:144|192:80,1,120.000004577637,2|0,0:0|0:0,0:0:0:0:
256,32,46913,1,8,0:0:0:0:
112,80,47075,2,0,L|48:72,1,60.0000022888184,2|0,0:0|0:0,0:0:0:0:
0,144,47399,6,0,L|59:151,1,60.0000022888184,2|8,0:0|0:0,0:0:0:0:
96,232,47724,2,0,L|32:224,1,60.0000022888184,2|0,0:0|0:0,0:0:0:0:
0,296,48048,2,0,L|59:303,1,60.0000022888184,2|8,0:0|0:0,0:0:0:0:
160,360,48372,1,0,0:0:0:0:
248,288,48534,6,0,P|264:248|264:168,1,120.000004577637,4|8,0:0|0:0,0:0:0:0:
208,112,49021,2,0,L|80:120,1,120.000004577637
24,72,49507,1,8,0:0:0:0:
24,72,49832,5,2,0:0:0:0:
24,72,50156,2,0,P|8:96|8:144,1,60.0000022888184,8|0,0:0|0:0,0:0:0:0:
72,208,50480,2,0,L|64:168,4,30.0000011444092,0|0|0|0|8,0:0|0:0|0:0|0:0|0:0,0:0:0:0:
136,272,50967,1,0,0:0:0:0:
216,240,51129,6,0,P|264:232|336:272,1,120.000004577637,4|8,0:0|0:0,0:0:0:0:
384,328,51616,1,0,0:0:0:0:
456,280,51778,2,0,P|464:208|464:144,1,120.000004577637,0|8,0:0|0:0,0:0:0:0:
368,80,52264,6,0,P|368:127|376:199,1,120.000004577637,2|0,0:0|0:0,0:0:0:0:
312,272,52751,1,8,0:0:0:0:
224,240,52913,2,0,L|160:248,1,60.0000022888184,0|2,0:0|0:0,0:0:0:0:
104,168,53237,2,0,L|163:160,1,60.0000022888184,0|8,0:0|0:0,0:0:0:0:
216,0,53562,6,4,P|240:56|224:112,1,120.000004577637,4|0,0:0|0:0,0:0:0:0:
152,200,54048,2,0,B|152:152|152:152|144:128|144:128|144:80,1,120.000004577637,8|0,0:0|0:0,0:0:0:0:
72,32,54534,1,2,0:0:0:0:
16,96,54697,1,8,0:0:0:0:
104,256,54859,2,0,P|176:232|232:240,1,120.000004577637,4|2,0:0|0:0,0:0:0:0:
280,296,55345,6,0,P|400:312|480:224,1,240,4|2,0:0|0:0,0:0:0:0:
464,144,56480,1,0,0:0:0:0:
368,24,56643,1,0,0:0:0:0:
360,104,56805,1,2,0:0:0:0:
352,184,57453,6,0,P|280:208|192:192,1,160,4|0,0:0|0:0,0:0:0:0:
128,232,57940,1,8,2:0:0:0:
128,232,58264,2,0,L|120:312,1,80,2|2,0:0|0:0,0:0:0:0:
184,368,58589,1,8,2:0:0:0:
256,320,58751,6,0,P|296:304|408:352,1,160,2|0,0:0|0:0,0:0:0:0:
408,208,59237,2,0,P|368:224|263:186,1,160,8|2,2:0|0:0,0:0:0:0:
232,112,59724,1,0,0:0:0:0:
240,32,59886,2,0,P|272:8|320:0,1,80,10|0,2:0|2:0,0:0:0:0:
160,64,60210,6,0,L|72:56,1,80,2|2,0:0|0:0,0:0:0:0:
0,128,60534,1,8,2:0:0:0:
288,272,60859,2,0,L|376:264,1,80,2|2,0:0|0:0,0:0:0:0:
448,336,61183,1,8,2:0:0:0:
472,232,61345,6,0,P|496:168|464:80,1,160,2|0,0:0|0:0,0:0:0:0:
400,160,61832,2,0,P|320:184|256:128,1,160,8|0,2:0|0:0,0:0:0:0:
344,32,62318,2,0,P|352:72|336:112,1,80,0|8,0:0|2:0,0:0:0:0:
264,64,62643,1,2,2:0:0:0:
264,64,62724,1,2,2:0:0:0:
264,64,62805,6,0,P|192:56|112:104,1,160,4|8,0:0|2:0,0:0:0:0:
168,304,63291,2,0,P|210:245|209:152,1,160,0|0,0:0|0:0,0:0:0:0:
8,96,63778,2,0,P|37:162|118:207,1,160,10|4,2:0|0:0,0:0:0:0:
213,160,64264,5,0,0:0:0:0:
288,248,64426,2,0,P|296:288|280:328,1,80,8|0,2:0|2:0,0:0:0:0:
400,104,64913,2,0,P|392:64|408:24,1,80,0|8,0:0|2:0,0:0:0:0:
480,80,65237,1,0,2:0:0:0:
464,168,65399,6,0,P|392:184|320:136,1,160,4|8,0:0|2:0,0:0:0:0:
304,40,65886,1,0,2:0:0:0:
240,104,66048,2,0,L|192:96,3,40,8|0|0|0,0:2|0:0|0:0|0:0,0:0:0:0:
160,112,66372,2,0,L|112:104,3,40,8|0|0|0,2:0|0:0|0:0|0:0,0:0:0:0:
80,120,66697,1,8,2:0:0:0:
56,248,66859,5,8,0:3:0:0:
160,328,67021,2,0,L|168:288,3,40,8|0|0|0,0:2|0:0|0:0|0:0,0:0:0:0:
200,264,67345,2,0,L|208:224,3,40,8|0|0|0,0:2|0:0|0:0|0:0,0:0:0:0:
240,200,67670,1,8,2:0:0:0:
336,88,67832,6,0,B|392:80|432:128|432:128|464:128|480:104,1,160,4|2,0:2|0:0,0:0:0:0:
352,176,68643,2,8,L|360:256,1,80,8|8,0:2|0:2,0:0:0:0:
144,88,69291,6,0,P|96:80|40:128,1,120,4|0,1:0|3:3,0:0:0:0:
32,144,69859,1,0,3:3:0:0:
24,168,69940,2,0,L|32:216,1,40,0|0,3:0|3:0,0:0:0:0:
104,248,70264,2,0,L|112:296,1,40,0|0,3:0|3:0,0:0:0:0:
176,344,70589,6,0,P|248:328|336:360,2,160,4|4|4,3:1|1:0|3:1,0:0:0:0:
256,192,71967,12,4,73183,3:0:0:0:
256,192,73832,5,8,0:0:0:0:
256,192,74480,6,0,P|200:144|112:152,1,160,0|8,3:0|0:0,0:0:0:0:
56,224,75291,2,0,P|104:248|176:224,1,120,8|4,0:0|3:0,0:0:0:0:
256,64,76426,5,12,0:0:0:0:
368,216,77075,6,0,L|416:208,1,40,0|8,3:0|0:0,0:0:0:0:
512,336,77562,2,0,L|472:342,1,40,0|8,3:0|0:0,0:0:0:0:
360,320,78048,1,0,3:0:0:0:
184,96,78372,6,0,L|249:142,2,80,0|0|0,0:0|0:0|0:0,0:0:0:0:
152,184,78859,2,0,L|78:217,2,80
96,112,79345,2,0,L|104:32,2,80
208,240,79832,5,0,0:0:0:0:
336,128,79994,1,0,0:0:0:0:
336,128,80318,2,0,P|288:120|256:128,1,80
184,176,80643,1,0,0:0:0:0:
176,88,80805,6,0,P|192:72|328:40,1,160,4|0,0:0|0:0,0:0:0:0:
432,120,81291,2,0,L|416:216,1,80,0|0,0:0|0:0,0:0:0:0:
344,296,81616,2,0,L|350:335,6,40,0|0|0|0|0|0|4,0:0|0:0|0:0|0:0|0:0|1:0|0:0,0:0:0:0:
256,192,82183,12,0,87940,0:0:0:0:
