osu file format v12

[General]
AudioFilename: VIP.mp3
AudioLeadIn: 500
PreviewTime: 56478
Countdown: 0
SampleSet: None
StackLeniency: 0.3
Mode: 0
LetterboxInBreaks: 1
WidescreenStoryboard: 0

[Editor]
DistanceSpacing: 1.2
BeatDivisor: 4
GridSize: 8

[Metadata]
Title:V.I.P (TV Size)
TitleUnicode:V.I.P (TV Size)
Artist:SID
ArtistUnicode:シド
Creator:No_Gu
Version:Easy
Source:Magi: The Labyrinth of Magic
Tags:マギ Pokie Flask
BeatmapID:262270
BeatmapSetID:79856

[Difficulty]
HPDrainRate:2
CircleSize:3
OverallDifficulty:2
ApproachRate:3
SliderMultiplier:0.8
SliderTickRate:1

[Events]
//Background and Video events
0,0,"BG.jpg",0,0
Video,364,"video.avi"
//Break Periods
//Storyboard Layer 0 (Background)
//Storyboard Layer 1 (Fail)
//Storyboard Layer 2 (Pass)
//Storyboard Layer 3 (Foreground)
//Storyboard Sound Samples
//Background Colour Transformations
3,100,163,162,255

[TimingPoints]
535,324.324324324324,4,1,1,60,1,0
1670,-100,4,1,1,60,0,0
3453,-100,4,2,1,60,0,0
5724,-100,4,1,1,60,0,0
7021,-100,4,2,1,60,0,0
12210,-100,4,1,1,60,0,1
14562,-100,4,1,1,60,0,0
14643,-100,4,1,1,60,0,1
14724,-100,4,2,1,60,0,0
55426,-100,4,2,1,5,0,0
57453,-100,4,3,1,70,0,1
69210,-100,4,3,1,70,0,0
69291,-100,4,2,1,70,0,1
69372,-100,4,2,1,70,0,0
78372,-100,4,1,1,70,0,1
82021,-100,4,3,1,70,0,0
82102,-100,4,3,1,70,0,1
82183,-100,4,2,1,5,0,0

[Colours]
Combo1 : 255,255,255
Combo2 : 255,255,128
Combo3 : 255,128,192
Combo4 : 128,255,255
Combo5 : 128,255,128
Combo6 : 245,39,16

[HitObjects]
56,80,697,2,0,B|88:56|88:56|216:56|200:192,1,240
160,272,1994,1,0,0:0:0:0:
288,336,2480,2,0,L|328:328,1,40
311,183,3129,2,0,B|296:56|424:56|424:56|456:80,1,240
256,192,4426,12,4,7021,0:0:0:0:
224,136,7670,5,8,0:0:0:0:
224,136,8318,2,0,P|152:96|72:112,1,160,0|8,0:0|0:0,0:0:0:0:
48,296,9616,2,0,P|120:336|200:320,1,160,4|8,0:0|0:0,0:0:0:0:
336,192,10913,6,0,L|504:216,2,160,0|8|0,0:0|0:0|0:0,0:0:0:0:
272,120,12534,2,0,P|264:96|280:40,2,80
240,208,13507,2,0,L|184:216,2,40
440,336,14643,6,0,P|464:280|456:208,1,120,4|8,0:0|0:0,0:0:0:0:
392,160,15453,2,0,L|312:168,1,80,0|8,0:0|0:0,0:0:0:0:
256,88,16102,1,0,0:0:0:0:
200,168,16426,2,0,L|120:160,1,80,8|0,0:0|0:0,0:0:0:0:
64,232,17075,6,8,P|96:312|168:320,1,160
256,296,18048,1,0,0:0:0:0:
350,322,18372,2,8,P|416:312|448:232,1,160
400,144,19345,2,0,L|312:128,1,80,0|8,0:0|0:0,0:0:0:0:
256,56,19994,5,4,0:0:0:0:
192,128,20318,2,8,P|152:192|72:192,1,160
24,272,21291,1,0,0:0:0:0:
80,352,21616,2,8,P|152:368|216:312,1,160
256,232,22589,5,0,0:0:0:0:
297,316,22913,2,8,P|360:368|432:352,1,160
488,272,23886,1,0,0:0:0:0:
437,193,24210,2,8,P|360:192|320:128,1,160
256,40,25183,5,4,0:0:0:0:
200,120,25507,2,8,L|32:112,2,160
256,200,27129,1,0,0:0:0:0:
312,120,27453,6,8,L|480:112,2,160
360,208,29075,2,0,P|368:248|352:288,1,80,0|8,0:0|0:0,0:0:0:0:
264,312,29724,2,0,P|256:272|272:232,1,80,0|8,0:0|0:0,0:0:0:0:
296,144,30372,5,4,0:0:0:0:
216,96,30697,2,8,P|152:80|64:128,1,160
8,192,31670,1,0,0:0:0:0:
70,264,31994,2,8,P|152:304|216:288,1,160
240,192,32967,5,0,0:0:0:0:
320,144,33291,2,8,L|480:160,1,160
512,248,34264,2,0,P|512:288|496:336,1,80,0|8,0:0|0:0,0:0:0:0:
408,312,34913,2,0,P|408:272|424:224,1,80,0|8,0:0|0:0,0:0:0:0:
336,184,35562,5,4,0:0:0:0:
328,88,35886,2,8,B|280:88|256:120|256:120|224:88|184:88,1,160
176,184,36859,1,0,0:0:0:0:
184,280,37183,2,8,B|232:280|256:248|256:248|288:280|328:280,1,160
408,232,38156,6,0,L|496:240,1,80,0|8,0:0|0:0,0:0:0:0:
487,144,38805,2,0,L|408:152,1,80,0|8,0:0|0:0,0:0:0:0:
320,112,39453,2,0,P|288:64|296:0,2,120,0|8|0,0:0|0:0|3:0,0:0:0:0:
320,208,40751,5,4,0:0:0:0:
328,304,41075,2,8,P|256:336|184:304,1,160
192,208,42048,1,0,0:0:0:0:
184,112,42372,2,8,P|256:80|328:112,1,160
416,72,43345,5,0,0:0:0:0:
408,168,43670,2,8,B|400:224|400:224|424:264|424:264|416:328,1,160
328,288,44643,1,0,0:0:0:0:
256,224,44967,2,8,P|288:144|272:64,1,160
184,96,45940,5,4,0:0:0:0:
95,63,46265,2,8,B|88:120|88:120|112:160|112:160|104:216,1,160
96,312,47237,1,0,0:0:0:0:
184,360,47562,2,0,P|224:368|264:352,1,80,8|0,0:0|0:0,0:0:0:0:
344,312,48210,2,0,P|384:304|424:320,1,80,8|4,0:0|0:0,0:0:0:0:
496,256,48859,6,8,P|456:184|464:96,1,160
384,56,49832,1,0,0:0:0:0:
336,136,50156,2,8,L|176:136,1,160
128,56,51129,5,4,0:0:0:0:
52,108,51453,2,8,P|56:184|16:256,1,160
72,336,52426,2,0,L|160:328,1,80,0|8,0:0|0:0,0:0:0:0:
224,272,53075,2,0,L|312:280,1,80,0|8,0:0|0:0,0:0:0:0:
344,256,53562,6,0,P|384:200|376:144,1,120,4|8,0:0|0:0,0:0:0:0:
312,88,54372,2,0,L|232:96,1,80,0|8,0:0|0:0,0:0:0:0:
192,64,54859,2,0,L|64:80,1,120,4|4,0:0|0:0,0:0:0:0:
256,192,55507,12,2,56805,0:0:0:0:
64,104,57453,6,0,P|120:80|184:88,1,120,4|8,0:0|2:0,0:0:0:0:
248,152,58264,2,0,P|304:176|368:168,2,120,0|2|8,0:0|2:0|2:0,0:0:0:0:
152,184,59562,2,0,L|144:360,1,160,0|2,0:0|2:0,0:0:0:0:
304,240,60859,6,0,P|368:240|424:272,2,120,2|2|8,2:0|2:0|2:0,0:0:0:0:
256,56,62480,1,8,2:0:0:0:
232,152,62805,5,4,0:0:0:0:
160,216,63129,2,8,P|80:232|8:192,2,160,8|8|8,2:0|2:0|2:0,0:0:0:0:
256,240,64751,1,0,0:0:0:0:
352,216,65075,2,8,P|432:232|504:192,2,160,8|8|8,2:0|2:0|2:0,0:0:0:0:
256,192,66697,12,0,68156,1:0:0:0:
72,24,69291,6,0,B|104:64|104:64|72:264,1,240,4|0,0:0|3:0,0:0:0:0:
136,320,70589,2,0,P|208:344|288:320,1,160,4|4,1:0|1:0,0:0:0:0:
256,192,71886,12,4,73183,0:0:0:0:
288,136,73832,5,8,0:0:0:0:
288,136,74480,2,0,P|360:96|440:112,1,160,0|8,0:0|0:0,0:0:0:0:
464,296,75778,2,0,P|392:336|312:320,1,160,4|8,0:0|0:0,0:0:0:0:
176,192,77075,6,0,L|8:216,2,160,0|8|0,0:0|0:0|0:0,0:0:0:0:
240,120,78696,2,0,P|248:96|232:40,2,80
272,208,79669,2,0,L|328:216,2,40
256,192,80805,12,4,82102,0:0:0:0:
256,192,82183,12,0,87940,0:0:0:0:
