osu file format v5

[General]
AudioFilename: Uso+(SID).mp3
AudioLeadIn: 0
PreviewTime: -1
Countdown: 1
SampleSet: Soft
StackLeniency: 0.7
Mode: 0
LetterboxInBreaks: 1
EditorBookmarks: 32637,58610,59660,68600,115623
EditorDistanceSpacing: 1

[Metadata]
Title:USO
Artist:SID
Creator:siew
Version:Normal
Source:
Tags:anime

[Difficulty]
HPDrainRate:5
CircleSize:5
OverallDifficulty:5
SliderMultiplier:2.6
SliderTickRate:4

[Events]
//Background and Video events
0,0,"1_486169721l[1].jpg"
//Break Periods
2,20680,24335
2,44749,46315
2,53122,56953
2,113834,116520
2,126629,127165
2,138061,141020
//Storyboard Layer 0 (Background)
//Storyboard Layer 1 (Fail)
//Storyboard Layer 2 (Pass)
//Storyboard Layer 3 (Foreground)
//Storyboard Sound Samples
//Background Colour Transformations
3,100,163,162,255

[TimingPoints]
946,645.161290322581,4,2,0,69,1,0

[HitObjects]
400,192,946,2,0,B|248:192,1,130
72,192,1643,1,0
200,192,1992,1,8
264,192,2166,1,8
136,192,2515,1,4
24,40,3039,5,0
112,112,3387,1,0
224,40,3736,1,0
336,112,4085,1,0
464,112,4434,5,0
464,240,4783,2,8,B|400:256,1,65
368,200,5132,1,0
328,248,5306,2,8,B|256:256,1,65
216,208,5655,1,4
24,64,6178,6,0,B|184:64,1,130
152,328,7225,1,0
152,208,7573,1,0
152,64,7922,1,0
264,48,8204,1,0
360,40,8620,5,0
264,128,8969,1,0
168,40,9318,1,2
72,128,9666,1,0
168,216,10015,1,2
264,128,10364,1,0
360,208,10713,1,4
88,248,11411,5,0
88,112,11759,1,0
224,112,12108,1,0
224,176,12283,2,0,B|224:264,2,65
336,176,12881,1,0
432,176,13155,2,2,B|504:176,3,65
240,192,14201,5,0
368,192,14550,1,0
240,192,14899,1,0
352,256,15248,2,0,B|216:312,1,130
160,192,15946,1,8
96,192,16120,1,8
96,64,16469,2,8,B|32:24,1,65
344,88,17397,2,0,B|462:80|495:182|498:259,1,260
368,264,18365,1,12
256,192,19085,12,12,20480
8,184,25539,5,0
8,184,25713,6,2,L|72:184|120:184|120:232|152:232|152:248|152:280|152:328|184:328|232:328|384:328|384:328,1,520
384,64,27806,1,2
384,192,28155,2,0,B|384:264,1,65
448,256,28504,1,10
448,192,28678,1,10
448,128,28852,2,0,B|448:56,1,65
320,64,29376,1,0
192,64,29724,1,4
72,152,30771,2,0,L|72:280|176:192,1,260
172,194,31698,1,0
176,192,32166,2,0,L|248:128|248:304,1,260
248,291,32989,1,0
408,192,33419,6,4,B|408:56,1,130
248,56,34434,2,4,L|232:136|152:184|104:136|104:64,1,260
416,112,36178,5,8
416,240,36527,2,0,L|416:336,2,65
416,176,37050,1,4
88,184,38794,1,8
88,184,38969,2,8,L|88:264,4,65
216,184,40015,1,8
344,184,40364,1,12
0,248,41411,6,2,L|128:328|96:328,1,130
176,320,42108,1,2
368,320,42457,2,0,B|368:40,1,260
368,56,43329,1,0
432,56,43504,1,0
432,184,43852,1,0
432,312,44201,2,4,B|288:312,1,130
128,56,47515,5,2
256,56,47864,1,2
264,184,48213,1,2
328,184,48386,2,2,L|376:120|448:200,1,130
408,288,49085,1,4
344,288,49259,1,4
392,88,50131,5,2
264,88,50479,1,2
136,88,50828,1,4
136,88,51003,1,4
136,216,51352,2,0,B|272:216,1,130
328,216,51876,1,4
136,344,52225,1,0
136,216,52399,1,0
136,344,52748,2,0,B|256:344,1,65,0|0
456,112,58153,5,8
328,112,58502,1,0
200,112,58851,1,0
200,112,59025,1,0
72,112,59374,1,0
72,240,59723,1,0
136,240,59899,2,8,L|271:363,1,130
192,72,60944,5,0
256,72,61118,1,0
256,136,61293,2,0,B|256:280,1,130
320,264,61818,1,12
392,264,61992,1,4
464,152,62341,1,4
328,144,62515,2,0,L|120:144,1,195
136,88,63559,6,0,B|288:88,1,130
368,168,64257,2,0,B|208:168,1,130
136,248,64955,2,0,B|280:248,1,130
328,248,65478,2,0,B|408:248,1,65
392,184,65827,1,8
264,184,66176,1,0
136,184,66524,2,4,L|24:40,2,130
376,272,67919,5,0
248,272,68268,1,0
256,192,68620,2,0,L|352:256|232:264,1,195
384,192,69488,5,0
256,192,69663,1,0
120,192,70012,1,4
32,312,70535,5,0
32,312,70884,2,0,B|128:312,1,65
160,312,71233,1,0
160,312,71407,2,0,B|256:312,1,65
288,312,71756,2,4,B|288:232,1,65
382,248,72105,2,4,B|382:328,2,65,4|4|0
477,247,72628,2,4,B|477:319,1,65
294,118,73501,6,0,B|230:86|182:86|166:102|134:134,1,130
24,248,74547,1,8
152,248,74896,1,8
24,248,75245,1,8
152,248,75594,1,4
280,248,75942,1,4
408,248,76291,1,4
280,248,76640,1,0
408,248,76989,1,0
408,120,77337,2,8,B|144:120,1,260
320,24,78557,5,0
448,24,78908,1,0
448,152,79256,1,0
448,280,79604,1,0
336,344,79954,2,4,B|72:64,1,325
16,24,81173,1,0
16,152,81522,1,0
16,280,81871,1,0
144,280,82220,1,0
272,280,82569,2,4,B|352:152,3,130
256,192,85883,12,10,87104
96,144,88326,5,8
224,144,88673,2,4,B|352:144,3,65
400,128,90942,1,8
400,256,91291,2,4,B|448:304,5,65
448,168,92512,1,8
56,168,93559,1,8
56,296,93908,6,0,B|296:296,1,195
240,168,94924,1,8
112,168,95127,2,0,B|176:40,5,130
296,56,97222,1,0
296,312,97919,1,4
256,192,98966,12,8,100710
320,192,101580,5,0
192,192,101929,1,0
64,192,102278,1,8
128,192,102452,1,0
256,192,102801,1,0
384,192,103152,1,0
16,64,104198,6,0,B|16:256,1,130
240,328,105245,2,0,B|424:328,1,130
464,240,105941,1,8
336,200,106290,1,8
216,152,106640,1,8
96,104,106989,1,8
40,72,107163,1,8
256,192,109118,12,0,113634
88,128,117720,5,0
216,112,118042,1,0
152,120,118204,1,0
24,144,118526,1,0
136,208,118849,1,0
328,208,119333,1,0
208,160,119655,1,0
104,96,120623,5,0
296,96,121107,1,0
232,96,121268,1,0
168,96,121429,1,0
104,96,121591,1,0
256,192,121913,12,0,126429
120,168,128365,5,0
248,168,128687,1,0
160,264,129010,1,0
288,264,129333,1,0
80,104,129978,1,0
336,160,130623,1,0
288,208,131580,6,4,L|128:320|128:112,1,390
256,120,132975,1,0
320,120,133150,1,0
384,120,133325,1,0
24,272,134333,2,8,L|104:272,2,65
24,208,134893,1,0
88,208,135068,1,0
88,80,135417,1,0
88,208,135766,6,2,C|120:272|216:272|264:208|264:208,1,260
392,208,136812,1,2
352,256,136986,1,2
88,248,137687,1,0
136,208,137861,1,4
128,104,142220,5,8
256,104,142570,1,8
360,176,142918,1,8
232,176,143266,1,8
208,240,143441,1,8
336,240,143790,1,8
384,280,143964,2,4,L|544:248|384:184|384:184,1,325
264,152,145187,1,4
264,152,145359,2,4,L|98:85|290:37,1,325
304,40,146405,2,4,B|408:16,1,65
256,192,147626,12,4,148672
64,192,149021,5,4
192,192,149370,1,8
320,192,149719,1,8
448,192,150068,2,8,L|264:192,3,130,8|4|8|12
