osu file format v9

[General]
AudioFilename: Bleach_-_Ranbu_no_Melody_TV_Size.mp3
AudioLeadIn: 2000
PreviewTime: 44139
Countdown: 0
SampleSet: Normal
StackLeniency: 0.7
Mode: 0
LetterboxInBreaks: 0

[Editor]
DistanceSpacing: 0.9
BeatDivisor: 2
GridSize: 8

[Metadata]
Title:Ranbu no Melody (TV Size)
Artist:SID
Creator:Kiddo-Kun
Version:Easy
Source:Bleach
Tags:Opening13 Haneii Sander-Don happy30

[Difficulty]
HPDrainRate:3
CircleSize:3
OverallDifficulty:3
ApproachRate:4
SliderMultiplier:0.75
SliderTickRate:1

[Events]
//Background and Video events
0,0,"getsuga_tenshou_final__mugetsu_by_syan_jin-d2yu1zj.jpg"
Video,0,"Video..AVI"
//Break Periods
//Storyboard Layer 0 (Background)
//Storyboard Layer 1 (Fail)
//Storyboard Layer 2 (Pass)
//Storyboard Layer 3 (Foreground)
//Storyboard Sound Samples
//Background Colour Transformations
3,100,0,0,0

[TimingPoints]
412,312.337324310255,4,2,0,40,1,0
11009,-100,4,1,0,70,0,0
44134,-100,4,1,0,80,0,1
54134,-100,4,1,0,80,0,0
64128,-100,4,1,0,80,0,1
74123,-100,4,1,0,80,0,0

[Colours]
Combo1 : 204,255,204
Combo2 : 128,255,255
Combo3 : 255,255,210
SliderBorder : 120,120,120

[HitObjects]
144,120,412,1,0
256,192,1036,1,2
391,192,1661,2,0,B|415:112|383:32,2,150,0|2|0
384,328,3535,5,2
256,288,4160,1,0
152,208,4784,2,0,B|128:151|184:87|144:39,1,150,2|0
290,60,6034,6,0,B|370:60,2,75,2|0|0
315,192,7283,2,0,B|315:288,1,75,0|0
256,192,7908,12,0,11031
120,72,11656,6,0,B|120:224,1,150,4|8
215,317,12905,1,0
282,317,13217,1,0
349,317,13530,1,8
400,192,14154,6,0,B|401:96|298:95,1,150,0|8
160,144,15404,2,0,B|96:56,2,75,0|0|8
160,279,16653,5,4
296,280,17278,2,0,B|328:208|288:112,2,150,8|0|8
160,280,19152,2,0,B|56:280,2,75,0|0|8
85,166,20401,2,0,B|-3:166,2,75,0|0|8
220,166,21650,6,0,B|196:86|140:22,2,150,4|8|0
355,166,23524,1,8
432,280,24149,2,0,B|360:320|272:280,2,150,0|8|0
432,144,26023,5,8
336,48,26648,2,0,B|240:48,1,75
213,95,27273,2,0,B|125:95,1,75,8|8
90,142,27897,2,0,B|2:142,2,75,0|0|8
138,268,29147,1,0
264,216,29771,2,0,B|296:288|256:384,2,150,8|0|8
256,80,31645,5,4
391,80,32270,1,8
256,80,32895,2,0,B|96:80,1,150,0|8
106,215,34144,2,0,B|106:271|210:271|210:207,1,150,4|8
344,216,35393,2,0,B|376:296|352:376,1,150,0|8
220,358,36643,5,4
85,358,37267,1,8
152,240,37892,2,0,B|152:80,1,150,0|8
256,192,39141,12,4,41640
256,192,44139,5,4
121,192,44763,1,8
192,80,45388,2,0,B|264:40|352:48,1,150,0|8
471,46,46637,1,0
471,181,47262,2,0,B|471:341,2,150,8|0|8
471,46,49136,5,4
400,48,49448,2,0,B|304:48,1,75,0|8
288,104,50073,2,0,B|208:104,1,75
165,151,50698,2,0,B|69:151,2,75,0|8|0
256,192,51635,12,4,54134
256,128,54758,5,8
351,223,55383,1,4
256,128,56008,2,0,B|96:128,1,150,8|4
106,263,57257,5,8
232,312,57882,1,0
256,176,58506,1,8
256,40,59131,2,0,B|96:40,1,150,0|8
106,175,60380,5,0
106,310,61005,1,8
241,310,61630,1,0
241,310,61942,2,0,B|264:224,1,75,0|8
256,192,62879,12,4,64128
392,312,64753,6,0,B|392:160,1,150,8|0
297,67,66002,1,8
297,67,66315,2,0,B|221:68,1,75,0|0
127,164,67252,6,0,B|126:260|229:261,1,150,8|0
352,240,68501,2,0,B|416:328,2,75,8|0|0
352,105,69750,5,8
216,104,70375,2,0,B|200:176|224:272,2,150,0|8|4
256,192,71781,12,4,74123
391,192,74748,5,8
320,304,75372,2,0,B|248:344|160:336,1,150,4|8
41,338,76622,1,4
41,203,77246,2,0,B|41:43,2,150,8|0|8
41,338,79121,5,0
176,338,79745,1,8
176,203,80370,1,0
312,200,80995,2,0,B|416:192|440:104,2,150,8|0|8
256,192,82556,12,4,83962
