osu file format v7

[General]
AudioFilename: Monochrome Kiss.mp3
AudioLeadIn: 188
PreviewTime: 40070
Countdown: 0
SampleSet: Soft
StackLeniency: 0.7
Mode: 0
LetterboxInBreaks: 1

[Editor]
Bookmarks: 13460,24660,35070,36470,44470,44670,45070
DistanceSpacing: 0.800000011920929
BeatDivisor: 2
GridSize: 8

[Metadata]
Title:Monochrome No Kiss (TV Size)
Artist:SID
Creator:Haneii
Version:Sebastian
Source:Kuroshitsuji
Tags:Death_the_kid

[Difficulty]
HPDrainRate:7
CircleSize:4
OverallDifficulty:7
SliderMultiplier:1.4
SliderTickRate:1

[Events]
//Background and Video events
0,0,"SebastianBG.jpg"
Video,0,"kuroshitsujiop.wmv"
//Break Periods
//Storyboard Layer 0 (Background)
//Storyboard Layer 1 (Fail)
//Storyboard Layer 2 (Pass)
//Storyboard Layer 3 (Foreground)
//Storyboard Sound Samples
//Background Colour Transformations
3,100,163,162,255

[TimingPoints]
660,400,4,2,0,70,1,0
12670,-100,4,2,0,0,0,0
12809,-100,4,2,0,70,0,0
40660,-100,4,2,0,70,0,1
65476,-100,4,2,0,70,0,0

[Colours]
Combo1 : 0,111,221
Combo2 : 255,174,174

[HitObjects]
256,192,7660,12,0,12660
472,32,13460,5,2
360,32,13860,1,0
416,32,14060,1,0
389,81,14260,1,2
304,150,14660,1,0
303,38,15060,1,2
304,93,15260,1,0
205,39,15660,5,0
205,95,15860,1,2
205,151,16060,2,0,B|61:151,1,140
32,256,16860,5,0
120,320,17260,1,0
120,320,17460,1,2
216,256,17860,2,0,B|296:200|384:288,4,140,0|2|0|2|4
134,178,19860,6,2,B|70:306,1,140,2|0
174,266,20660,2,2,B|238:138,1,140,2|0
341,100,21460,2,2,B|277:228,1,140,2|0
207,317,22260,6,0,B|143:381|79:317,1,140,2|0
108,271,22860,1,0
134,221,23060,1,2
22,220,23460,1,0
133,220,23860,2,0,B|325:220,2,140,2|0|2
270,43,25460,5,4
212,140,25860,1,6
323,141,26260,2,0,B|371:141|379:189|363:197,1,70
366,237,26660,2,0,B|366:285|318:293|310:277,1,70,8|0
256,368,27260,5,4
256,256,27660,1,4
256,200,27860,2,0,B|192:136|128:200,2,140,0|8|0
352,144,29060,5,8
368,200,29260,1,0
424,200,29460,2,0,B|496:200,2,70,4|0|8
408,144,30060,1,0
352,48,30460,5,4
296,144,30860,1,4
368,232,31260,2,0,B|240:232,1,70,0|8
296,288,31660,2,0,B|168:288,3,70,0|0|0|8
138,357,32660,5,4
82,357,32860,1,0
109,308,33060,1,8
138,261,33260,1,0
82,261,33460,1,0
110,212,33660,2,0,B|110:108,3,70,0|8|0|0
108,30,34660,1,8
184,112,35060,6,0,B|336:112,3,140,0|8|0|8
256,264,36860,1,0
256,264,37060,1,8
256,264,37260,1,0
256,192,37460,12,0,39060
256,264,40260,5,2
352,192,40660,1,4
358,96,41060,6,0,L|288:96|192:96,1,140,8|0
80,96,41860,2,4,L|272:96,1,140,8|4
384,96,42860,5,0
432,128,43060,1,0
464,176,43260,1,0
464,232,43460,1,8
432,280,43660,1,0
392,320,43860,1,0
264,208,44460,6,2,B|192:168|160:256|112:176,1,140,0|2
128,144,45060,2,8,L|128:56,1,70,0|0
72,72,45460,1,2
88,240,46060,6,0,B|128:168|40:136|120:88,1,140,0|2
136,64,46660,2,0,B|208:24|240:112|288:32,1,140,0|4
432,104,47660,5,4
256,256,48460,1,4
88,104,49260,1,4
306,45,50060,6,0,B|456:16|466:173,2,210
352,147,51660,1,4
256,206,52060,1,4
373,86,52660,5,2
456,160,53060,1,2
377,240,53460,1,4
324,141,53860,2,0,L|254:141|158:141,1,140,8|0
44,141,54660,2,0,L|236:141,1,140,8|4
160,304,55660,6,2,L|200:248|256:288|320:248|384:336,1,280
360,304,56660,1,4
464,256,57060,2,0,L|368:256,3,70
392,200,57860,2,0,B|392:128,1,70
384,112,58860,6,2,B|349:157|296:104|240:104,1,140
200,96,59460,2,4,B|170:48|112:104|56:104,1,140,8|4
96,272,60460,1,4
96,48,61260,1,4
304,128,62060,1,4
208,328,62860,6,0,B|48:360|48:200,2,210
168,224,64460,1,2
264,160,64860,1,0
312,128,65060,1,8
480,128,65660,6,2,B|440:40|384:136|336:128,1,140
322,159,66260,2,0,B|274:191|234:47|130:175,1,210,4|0
32,344,67860,2,2,B|56:312|96:272|120:304|136:408|160:376|248:256|272:328,1,210
360,240,69060,1,8
352,128,69460,6,0,B|244:264,3,140,0|8|0|8
265,238,71060,2,0,B|149:105,3,140,0|8|0|8
176,248,72660,5,4
232,248,72860,1,0
287,248,73060,1,8
342,248,73260,1,4
456,248,73660,1,0
432,136,74060,6,0,B|336:136,3,70,0|0|0|8
305,136,74860,2,0,B|209:136,3,70,0|0|0|8
168,224,75860,1,4
336,224,76460,1,4
256,192,77260,12,4,82860
