osu file format v7

[General]
AudioFilename: Monochrome Kiss.mp3
AudioLeadIn: 0
PreviewTime: 40070
Countdown: 0
SampleSet: Soft
StackLeniency: 0.7
Mode: 0
LetterboxInBreaks: 1

[Editor]
Bookmarks: 57276,57876,58076,65660,66860
DistanceSpacing: 0.800000011920929
BeatDivisor: 2
GridSize: 8

[Metadata]
Title:Monochrome No Kiss (TV Size)
Artist:SID
Creator:Haneii
Version:Ciel
Source:Kuroshitsuji
Tags:Death_the_kid

[Difficulty]
HPDrainRate:5
CircleSize:3
OverallDifficulty:5
SliderMultiplier:1.4
SliderTickRate:2

[Events]
//Background and Video events
0,0,"CielBG.jpg"
Video,0,"kuroshitsujiop.wmv"
//Break Periods
//Storyboard Layer 0 (Background)
//Storyboard Layer 1 (Fail)
//Storyboard Layer 2 (Pass)
//Storyboard Layer 3 (Foreground)
//Storyboard Sound Samples
//Background Colour Transformations
3,100,163,162,255

[TimingPoints]
660,400,4,2,0,70,1,0
12670,-100,4,2,0,0,0,0
12770,-100,4,2,0,70,0,0
40660,-100,4,2,0,70,0,1
65476,-100,4,2,0,70,0,0

[Colours]
Combo1 : 0,111,221
Combo2 : 255,174,174

[HitObjects]
256,192,7860,12,0,12660
255,74,13460,5,0
352,128,13860,1,2
304,232,14260,1,0
304,232,14660,1,2
256,128,15060,5,0
256,128,15460,1,2
208,232,15860,1,0
208,232,16260,1,2
160,128,16660,5,4
256,56,17060,1,2
256,168,17460,1,0
256,168,17860,1,2
256,280,18260,2,0,B|184:216|88:312,3,140,0|2|0|2
128,168,19860,6,0,B|192:40,1,140,4|2
280,104,20660,1,0
280,104,21060,1,2
392,104,21460,2,0,B|328:232,1,140,0|2
88,328,23060,5,0
200,328,23460,2,0,B|200:160,1,140,2|0
200,80,24260,2,0,B|8:80,1,140,2|0
64,304,25460,5,4
64,304,25860,1,4
128,208,26260,6,0,B|224:272|320:144,2,140,0|8|0
80,176,27260,1,4
160,104,27660,2,0,B|264:32|392:128,1,210,4|8
416,200,28660,1,0
304,200,29060,5,8
248,296,29460,1,4
360,296,29860,1,8
360,128,30460,1,4
472,128,30860,1,4
480,240,31260,2,0,B|352:240,5,70,0|8|0|0|0|8
304,208,32660,6,0,B|304:64,1,140,4|8
192,64,33460,1,0
192,64,33860,1,8
80,64,34260,2,0,B|80:216,1,140,0|8
80,204,35060,1,0
160,288,35460,6,0,B|264:392|376:264,2,210,8|0|0
256,232,37060,1,8
256,232,37260,1,4
256,192,37460,12,4,39660
256,304,40660,5,4
192,208,41060,1,8
192,208,41460,2,0,L|384:208,2,140,0|8|4
176,48,42860,6,0,B|248:112,1,70
264,136,43260,2,0,B|192:208,1,70,0|8
256,224,43660,2,0,B|328:288,1,70,0|4
208,320,44260,1,8
96,320,44660,1,0
96,208,45060,1,8
208,208,45460,1,0
360,128,46060,6,0,B|296:40|216:40,1,140,0|2
195,45,46660,2,0,B|123:61|83:149,1,140,8|4
64,296,47660,1,4
256,184,48460,1,4
440,64,49260,1,4
216,104,50060,6,0,B|352:72|376:232,2,210,0|8|0
256,208,51660,1,4
200,304,52060,1,4
312,304,52460,1,4
64,192,53460,5,2
144,272,53860,1,4
256,288,54260,2,0,L|256:64,1,210,0|4
16,104,55660,6,0,B|88:32,1,70
120,48,56060,2,0,B|216:48,1,70,0|8
248,56,56460,2,0,B|328:120,1,70,0|4
176,208,57260,2,0,B|368:344,1,210,2|2
400,320,58060,1,8
384,176,58860,6,0,B|240:248|184:96|24:200,1,350,2|4
184,288,60460,1,4
256,72,61260,1,4
328,288,62060,1,4
192,352,62860,6,0,B|48:384|32:224,2,210,0|8|0
192,240,64460,1,0
264,152,64860,1,0
320,152,65060,1,8
392,304,65660,6,0,B|360:208|264:240|200:336|104:336|40:304|8:240|8:176,1,420,0|4
24,144,67660,2,0,B|56:48|152:80|216:176|312:176|352:176|384:-24|368:96|368:96,1,350
128,80,69460,6,0,B|128:240,3,140,0|2|0|2
128,336,71060,2,0,B|288:336,3,140,0|2|0|2
376,336,72660,5,4
376,168,73260,1,4
152,168,74060,1,4
256,368,74860,1,4
256,88,75860,5,4
256,256,76460,1,4
256,192,77260,12,4,82860
