osu file format v8

[General]
AudioFilename: ade5ce71fb52.mp3
AudioLeadIn: 0
PreviewTime: -1
Countdown: 1
SampleSet: Normal
StackLeniency: 0.7
Mode: 0
LetterboxInBreaks: 1

[Editor]
Bookmarks: 17178,18974,38806
DistanceSpacing: 0.8
BeatDivisor: 6
GridSize: 8

[Metadata]
Title:Melody of The Wild
Artist:SID
Creator:Arcobalenotimi
Version:Easy
Source:
Tags:

[Difficulty]
HPDrainRate:3
CircleSize:4
OverallDifficulty:1
ApproachRate:3
SliderMultiplier:2
SliderTickRate:2

[Events]
//Background and Video events
0,0,"bleach-good-bad-side.jpg"
Video,0,"d43a7400a1.480.avi"
//Break Periods
2,13635,19994
2,29863,30137
//Storyboard Layer 0 (Background)
//Storyboard Layer 1 (Fail)
//Storyboard Layer 2 (Pass)
//Storyboard Layer 3 (Foreground)
//Storyboard Sound Samples
//Background Colour Transformations
3,100,252,210,165

[TimingPoints]
1643,625,4,1,0,51,1,0

[Colours]
Combo1 : 225,81,81
Combo2 : 124,40,12
Combo3 : 251,151,77
Combo4 : 6,6,6

[HitObjects]
64,48,498,1,0
64,120,997,1,0
152,128,1649,1,0
240,128,2308,1,0
344,184,2893,1,0
432,248,3934,2,0,B|392:336|24:312,1,400
152,168,5674,5,0
304,168,6983,1,0
400,168,7590,1,0
352,272,9165,2,0,B|144:32,1,300
256,192,10474,12,0,13435
144,152,21434,21,8
224,152,21955,21,8
168,304,24165,37,0
248,304,24577,5,0
216,144,25613,37,0
216,144,26282,5,0
160,232,28106,1,0
328,232,29663,1,0
120,136,31577,5,0
248,136,32812,1,0
256,208,34812,2,0,B|432:208,1,166.666666666667
256,192,36643,5,0
256,192,38329,12,0,42759
176,48,44064,5,0
256,48,44635,1,0
256,128,45341,1,0
256,200,45871,1,0
424,120,46871,1,0
344,120,47518,1,0
248,160,48635,1,0
176,160,49165,5,0
312,160,49976,1,0
312,64,50400,1,0
184,64,51226,1,0
424,128,51635,1,0
424,224,52185,1,0
336,256,52891,1,0
248,200,53413,1,0
144,144,54400,5,0
208,80,55080,1,0
288,80,55597,1,0
376,80,56018,1,0
448,40,56330,1,0
448,128,56871,2,0,B|448:328,3,200
80,336,59970,5,0
80,256,60282,1,0
80,176,61093,1,0
80,96,61400,1,0
256,160,62464,1,0
344,160,63586,1,0
424,216,64209,5,0
392,272,64646,1,0
344,336,64957,1,0
264,336,65456,1,0
184,336,65955,1,0
48,288,66828,5,0
48,208,67451,1,0
48,136,67950,1,0
48,64,68573,1,0
192,96,69134,1,0
288,96,69944,1,0
480,184,70443,5,0
480,304,71282,1,0
392,328,71565,1,0
312,328,72438,1,0
232,328,72812,1,0
152,328,73282,1,0
96,256,74682,5,0
272,256,75430,1,0
352,256,75929,1,0
360,336,76802,1,0
432,336,77674,1,0
480,296,77924,1,0
472,232,78235,1,0
472,160,78609,1,0
256,192,78921,5,0
64,48,79918,1,0
144,64,80230,1,0
224,112,80604,1,0
296,160,81041,1,0
368,224,81415,1,0
152,192,82412,5,0
224,248,82911,1,0
296,312,83222,1,0
344,232,83534,1,0
256,192,84282,12,0,86055
