osu file format v12

[General]
AudioFilename: SHW_-_Ikusa_JAPAN.mp3
AudioLeadIn: 0
PreviewTime: 95477
Countdown: 0
SampleSet: Normal
StackLeniency: 0.5
Mode: 1
LetterboxInBreaks: 0
WidescreenStoryboard: 0

[Editor]
Bookmarks: 43034,69516,82758,95999,122482
DistanceSpacing: 1.1
BeatDivisor: 4
GridSize: 32
TimelineZoom: 1

[Metadata]
Title:Ikusa JAPAN (shw.in)
TitleUnicode:Ikusa JAPAN (shw.in)
Artist:SHW
ArtistUnicode:SHW
Creator:kanpakyin
Version:Oni
Source:
Tags:samurai
BeatmapID:411522
BeatmapSetID:169969

[Difficulty]
HPDrainRate:5
CircleSize:4
OverallDifficulty:5
ApproachRate:5
SliderMultiplier:1.4
SliderTickRate:1

[Events]
//Background and Video events
0,0,"bg.jpg",0,0
//Break Periods
//Storyboard Layer 0 (Background)
//Storyboard Layer 1 (Fail)
//Storyboard Layer 2 (Pass)
//Storyboard Layer 3 (Foreground)
//Storyboard Sound Samples
//Background Colour Transformations
3,100,163,162,255

[TimingPoints]
1650,413.793103448276,4,1,1,70,1,0
43029,-100,4,1,1,60,0,0
69512,-100,4,1,1,50,0,0
82753,-100,4,1,1,65,0,0
94753,-100,4,1,1,40,0,0
95994,-100,4,1,1,70,0,1
122477,-100,4,1,1,70,0,0

[Colours]
Combo1 : 240,5,5
Combo2 : 14,169,99
Combo3 : 64,64,251
SliderBorder : 193,193,193

[HitObjects]
448,96,3305,5,4,0:0:0:0:
448,96,4132,5,2,0:0:0:0:
448,96,4960,1,0,0:0:0:0:
448,96,5787,1,0,0:0:0:0:
448,96,6063,1,0,0:0:0:0:
448,96,6339,1,0,0:0:0:0:
448,96,6615,1,4,0:0:0:0:
448,96,7443,1,2,0:0:0:0:
448,96,8270,1,0,0:0:0:0:
448,96,9098,1,0,0:0:0:0:
448,96,9374,1,0,0:0:0:0:
448,96,9650,1,0,0:0:0:0:
448,96,9925,1,4,0:0:0:0:
448,96,10753,1,2,0:0:0:0:
448,96,11581,1,0,0:0:0:0:
448,96,12408,1,0,0:0:0:0:
448,96,12684,1,0,0:0:0:0:
448,96,12960,1,0,0:0:0:0:
448,96,13236,1,4,0:0:0:0:
448,96,14063,1,2,0:0:0:0:
448,96,14891,1,0,0:0:0:0:
448,96,15718,1,0,0:0:0:0:
448,96,15994,1,0,0:0:0:0:
448,96,16270,1,0,0:0:0:0:
448,96,16546,1,4,0:0:0:0:
448,96,16856,1,2,0:0:0:0:
448,96,17374,1,2,0:0:0:0:
448,96,17684,1,2,0:0:0:0:
448,96,17994,1,0,0:0:0:0:
448,96,18201,1,2,0:0:0:0:
448,96,18512,1,2,0:0:0:0:
448,96,18822,1,0,0:0:0:0:
448,96,19029,1,2,0:0:0:0:
448,96,19339,1,2,0:0:0:0:
448,96,19650,1,2,0:0:0:0:
448,96,19856,1,4,0:0:0:0:
448,96,20167,1,2,0:0:0:0:
448,96,20684,1,2,0:0:0:0:
448,96,20994,1,2,0:0:0:0:
448,96,21305,1,0,0:0:0:0:
448,96,21512,1,2,0:0:0:0:
448,96,21822,1,2,0:0:0:0:
448,96,22132,1,0,0:0:0:0:
448,96,22339,1,2,0:0:0:0:
448,96,22650,1,2,0:0:0:0:
448,96,22960,1,2,0:0:0:0:
448,96,23167,1,4,0:0:0:0:
448,96,23477,1,2,0:0:0:0:
448,96,23994,1,2,0:0:0:0:
448,96,24305,1,2,0:0:0:0:
448,96,24615,1,0,0:0:0:0:
448,96,24822,1,2,0:0:0:0:
448,96,25132,1,2,0:0:0:0:
448,96,25443,1,0,0:0:0:0:
480,96,25650,1,2,0:0:0:0:
480,96,25960,1,2,0:0:0:0:
480,96,26270,1,2,0:0:0:0:
480,96,26477,1,4,0:0:0:0:
480,96,26787,1,2,0:0:0:0:
480,96,27305,1,2,0:0:0:0:
480,96,27615,1,2,0:0:0:0:
480,96,27925,1,0,0:0:0:0:
480,96,28132,1,6,0:0:0:0:
480,96,28546,1,2,0:0:0:0:
480,96,28856,1,0,0:0:0:0:
480,96,28960,1,2,0:0:0:0:
480,96,29167,1,2,0:0:0:0:
480,96,29374,1,2,0:0:0:0:
480,96,29581,1,0,0:0:0:0:
480,96,29684,1,0,0:0:0:0:
480,96,29787,1,2,0:0:0:0:
480,96,29994,1,2,0:0:0:0:
480,96,30201,1,2,0:0:0:0:
480,96,30408,1,0,0:0:0:0:
480,96,30512,1,2,0:0:0:0:
480,96,30615,1,2,0:0:0:0:
480,96,30822,1,0,0:0:0:0:
480,96,31029,1,2,0:0:0:0:
480,96,31236,1,2,0:0:0:0:
480,96,31339,1,2,0:0:0:0:
480,96,31443,1,0,0:0:0:0:
480,96,31650,1,0,0:0:0:0:
480,96,31856,1,2,0:0:0:0:
480,96,32063,1,2,0:0:0:0:
480,96,32132,1,2,0:0:0:0:
480,96,32201,1,2,0:0:0:0:
480,96,32270,1,0,0:0:0:0:
480,96,32477,1,0,0:0:0:0:
480,96,32684,1,2,0:0:0:0:
480,96,32891,1,0,0:0:0:0:
480,96,32994,1,0,0:0:0:0:
480,96,33098,1,2,0:0:0:0:
480,96,33305,1,2,0:0:0:0:
480,96,33512,1,2,0:0:0:0:
480,96,33718,1,0,0:0:0:0:
480,96,33822,1,0,0:0:0:0:
480,96,33925,1,2,0:0:0:0:
480,96,34132,1,2,0:0:0:0:
480,96,34339,1,2,0:0:0:0:
480,96,34546,1,0,0:0:0:0:
480,96,34650,1,2,0:0:0:0:
480,96,34753,1,0,0:0:0:0:
480,96,34960,1,0,0:0:0:0:
480,96,35167,1,2,0:0:0:0:
480,96,35374,1,2,0:0:0:0:
480,96,35443,1,2,0:0:0:0:
480,96,35512,1,2,0:0:0:0:
480,96,35581,1,0,0:0:0:0:
480,96,35787,1,2,0:0:0:0:
480,96,35891,1,2,0:0:0:0:
480,96,35994,1,0,0:0:0:0:
480,96,36201,1,2,0:0:0:0:
512,96,36305,1,2,0:0:0:0:
480,96,36408,1,0,0:0:0:0:
480,96,36615,1,2,0:0:0:0:
480,96,36822,1,2,0:0:0:0:
480,96,37029,1,0,0:0:0:0:
480,96,37132,1,0,0:0:0:0:
480,96,37236,1,2,0:0:0:0:
480,96,37443,1,0,0:0:0:0:
480,96,37650,1,2,0:0:0:0:
480,96,37856,1,2,0:0:0:0:
480,96,38063,1,4,0:0:0:0:
480,96,38270,1,2,0:0:0:0:
480,96,38477,1,2,0:0:0:0:
480,96,38684,1,2,0:0:0:0:
480,96,38753,1,2,0:0:0:0:
480,96,38822,1,2,0:0:0:0:
480,96,38891,1,0,0:0:0:0:
480,96,39098,1,0,0:0:0:0:
480,96,39305,1,2,0:0:0:0:
480,96,39512,1,2,0:0:0:0:
480,96,39615,1,0,0:0:0:0:
480,96,39718,1,2,0:0:0:0:
480,96,39925,1,0,0:0:0:0:
480,96,40132,1,2,0:0:0:0:
480,96,40339,1,0,0:0:0:0:
480,96,40443,1,0,0:0:0:0:
480,96,40546,1,2,0:0:0:0:
480,96,40753,1,2,0:0:0:0:
480,96,40960,1,0,0:0:0:0:
480,96,41167,1,2,0:0:0:0:
480,96,41374,1,6,0:0:0:0:
480,96,41581,1,0,0:0:0:0:
480,96,41787,1,6,0:0:0:0:
480,96,41994,1,0,0:0:0:0:
480,96,42201,1,2,0:0:0:0:
480,96,42305,1,0,0:0:0:0:
480,96,42408,1,2,0:0:0:0:
480,96,42512,1,0,0:0:0:0:
480,96,42615,1,2,0:0:0:0:
480,96,42718,1,2,0:0:0:0:
480,96,42822,1,0,0:0:0:0:
480,96,42925,1,2,0:0:0:0:
480,96,43029,1,4,0:0:0:0:
480,96,43236,1,2,0:0:0:0:
480,96,43443,1,2,0:0:0:0:
480,96,43650,1,4,0:0:0:0:
480,96,43856,1,2,0:0:0:0:
480,96,44063,1,2,0:0:0:0:
480,96,44270,1,4,0:0:0:0:
480,96,44477,1,2,0:0:0:0:
480,96,44684,1,2,0:0:0:0:
480,96,44891,1,4,0:0:0:0:
480,96,45098,1,2,0:0:0:0:
480,96,45305,1,2,0:0:0:0:
480,96,45512,1,4,0:0:0:0:
480,96,45719,1,2,0:0:0:0:
448,96,45925,1,4,0:0:0:0:
448,96,46132,1,2,0:0:0:0:
448,96,46339,1,4,0:0:0:0:
448,96,46546,1,2,0:0:0:0:
448,96,46753,1,2,0:0:0:0:
448,96,46960,1,4,0:0:0:0:
448,96,47167,1,2,0:0:0:0:
448,96,47374,1,2,0:0:0:0:
448,96,47581,1,4,0:0:0:0:
448,96,47787,1,2,0:0:0:0:
448,96,47994,1,2,0:0:0:0:
448,96,48201,1,4,0:0:0:0:
448,96,48408,1,2,0:0:0:0:
448,96,48615,1,2,0:0:0:0:
448,96,48822,1,4,0:0:0:0:
448,96,49029,1,2,0:0:0:0:
448,96,49236,1,4,0:0:0:0:
448,96,49443,1,2,0:0:0:0:
448,96,49650,1,4,0:0:0:0:
448,96,49856,1,2,0:0:0:0:
448,96,50063,1,2,0:0:0:0:
448,96,50270,1,4,0:0:0:0:
448,96,50477,1,2,0:0:0:0:
448,96,50684,1,2,0:0:0:0:
448,96,50891,1,4,0:0:0:0:
448,96,51098,1,2,0:0:0:0:
448,96,51305,1,2,0:0:0:0:
448,96,51512,1,4,0:0:0:0:
448,96,51718,1,2,0:0:0:0:
448,96,51925,1,2,0:0:0:0:
448,96,52132,1,4,0:0:0:0:
448,96,52339,1,2,0:0:0:0:
448,96,52546,1,4,0:0:0:0:
448,96,52753,1,2,0:0:0:0:
448,96,52960,1,4,0:0:0:0:
448,96,53374,1,2,0:0:0:0:
448,96,53581,1,4,0:0:0:0:
448,96,53787,1,2,0:0:0:0:
448,96,53994,1,2,0:0:0:0:
448,96,54201,1,4,0:0:0:0:
448,96,54408,1,2,0:0:0:0:
448,96,54615,1,2,0:0:0:0:
448,96,54822,1,4,0:0:0:0:
448,96,55029,1,2,0:0:0:0:
448,96,55236,1,2,0:0:0:0:
448,96,55443,1,6,0:0:0:0:
448,96,55856,1,4,0:0:0:0:
448,96,56270,1,4,0:0:0:0:
416,96,56477,1,2,0:0:0:0:
416,96,56684,1,2,0:0:0:0:
448,96,56891,1,4,0:0:0:0:
448,96,57098,1,2,0:0:0:0:
448,96,57305,1,2,0:0:0:0:
448,96,57512,1,4,0:0:0:0:
448,96,57718,1,2,0:0:0:0:
448,96,57925,1,2,0:0:0:0:
448,96,58132,1,4,0:0:0:0:
448,96,58339,1,2,0:0:0:0:
448,96,58546,1,2,0:0:0:0:
448,96,58753,1,6,0:0:0:0:
448,96,59167,1,4,0:0:0:0:
448,96,59581,1,4,0:0:0:0:
448,96,59787,1,2,0:0:0:0:
416,96,59994,1,2,0:0:0:0:
416,96,60201,1,4,0:0:0:0:
416,96,60408,1,2,0:0:0:0:
416,96,60615,1,2,0:0:0:0:
416,96,60822,1,4,0:0:0:0:
416,96,61029,1,2,0:0:0:0:
416,96,61236,1,2,0:0:0:0:
416,96,61443,1,4,0:0:0:0:
416,96,61650,1,2,0:0:0:0:
416,96,61856,1,2,0:0:0:0:
416,96,62063,1,4,0:0:0:0:
416,96,62270,1,2,0:0:0:0:
416,96,62477,1,4,0:0:0:0:
416,96,62684,1,2,0:0:0:0:
416,96,62891,1,4,0:0:0:0:
416,96,63305,1,2,0:0:0:0:
416,96,63512,1,4,0:0:0:0:
416,96,63718,1,2,0:0:0:0:
416,96,63925,1,2,0:0:0:0:
416,96,64132,1,4,0:0:0:0:
416,96,64339,1,2,0:0:0:0:
416,96,64546,1,2,0:0:0:0:
416,96,64753,1,4,0:0:0:0:
416,96,64960,1,2,0:0:0:0:
416,96,65167,1,2,0:0:0:0:
416,96,65374,1,4,0:0:0:0:
416,96,65581,1,2,0:0:0:0:
416,96,65787,1,4,0:0:0:0:
448,96,65994,1,0,0:0:0:0:
416,96,66201,1,6,0:0:0:0:
416,96,66615,1,2,0:0:0:0:
416,96,66822,1,4,0:0:0:0:
416,96,67029,1,2,0:0:0:0:
416,96,67236,1,0,0:0:0:0:
416,96,67443,1,6,0:0:0:0:
416,96,67650,1,0,0:0:0:0:
416,96,67856,1,2,0:0:0:0:
416,96,68063,1,4,0:0:0:0:
416,96,68270,1,2,0:0:0:0:
416,96,68477,1,0,0:0:0:0:
416,96,68684,1,2,0:0:0:0:
416,96,68787,1,2,0:0:0:0:
416,96,68891,1,2,0:0:0:0:
416,96,68994,1,2,0:0:0:0:
416,96,69098,1,0,0:0:0:0:
416,96,69201,1,0,0:0:0:0:
416,96,69305,1,2,0:0:0:0:
416,96,69408,1,0,0:0:0:0:
416,96,69512,1,2,0:0:0:0:
416,96,70132,1,0,0:0:0:0:
416,96,70339,1,2,0:0:0:0:
416,96,70753,1,2,0:0:0:0:
416,96,71167,1,0,0:0:0:0:
416,96,71581,1,2,0:0:0:0:
416,96,71787,1,0,0:0:0:0:
416,96,71994,1,2,0:0:0:0:
416,96,72408,1,2,0:0:0:0:
416,96,72615,1,2,0:0:0:0:
416,96,72822,1,0,0:0:0:0:
416,96,73650,1,2,0:0:0:0:
416,96,74063,1,0,0:0:0:0:
416,96,74477,1,2,0:0:0:0:
416,96,75098,1,0,0:0:0:0:
416,96,75305,1,0,0:0:0:0:
416,96,75718,1,2,0:0:0:0:
416,96,76132,1,2,0:0:0:0:
416,96,76753,1,0,0:0:0:0:
416,96,76960,1,2,0:0:0:0:
416,96,77374,1,2,0:0:0:0:
416,96,77787,1,0,0:0:0:0:
416,96,78201,1,2,0:0:0:0:
416,96,78408,1,0,0:0:0:0:
416,96,78615,1,2,0:0:0:0:
416,96,78822,1,2,0:0:0:0:
416,96,79029,1,0,0:0:0:0:
416,96,79443,1,2,0:0:0:0:
416,96,79856,1,0,0:0:0:0:
416,96,80270,1,0,0:0:0:0:
416,96,80684,1,2,0:0:0:0:
416,96,81098,1,6,0:0:0:0:
416,96,81718,1,2,0:0:0:0:
416,96,81787,1,2,0:0:0:0:
416,96,81856,1,2,0:0:0:0:
416,96,81925,1,0,0:0:0:0:
416,96,82132,1,2,0:0:0:0:
416,96,82339,1,2,0:0:0:0:
416,96,82546,1,2,0:0:0:0:
416,96,82753,1,4,0:0:0:0:
416,96,82960,1,2,0:0:0:0:
416,96,83167,1,2,0:0:0:0:
416,96,83374,1,4,0:0:0:0:
416,96,83581,1,2,0:0:0:0:
416,96,83994,1,6,0:0:0:0:
416,96,84408,1,2,0:0:0:0:
416,96,84615,1,4,0:0:0:0:
416,96,84822,1,0,0:0:0:0:
416,96,85029,1,0,0:0:0:0:
416,96,85132,1,2,0:0:0:0:
416,96,85236,1,0,0:0:0:0:
416,96,85443,1,2,0:0:0:0:
416,96,85650,1,4,0:0:0:0:
416,96,85856,1,2,0:0:0:0:
416,96,86063,1,4,0:0:0:0:
416,96,86270,1,0,0:0:0:0:
416,96,86477,1,2,0:0:0:0:
416,96,86684,1,0,0:0:0:0:
416,96,86787,1,0,0:0:0:0:
416,96,86891,1,2,0:0:0:0:
416,96,87098,1,0,0:0:0:0:
416,96,87305,1,6,0:0:0:0:
416,96,87512,1,0,0:0:0:0:
416,96,87718,1,6,0:0:0:0:
416,96,87925,1,4,0:0:0:0:
416,96,88132,1,0,0:0:0:0:
416,96,88339,1,0,0:0:0:0:
416,96,88443,1,2,0:0:0:0:
416,96,88546,1,2,0:0:0:0:
416,96,88753,1,2,0:0:0:0:
416,96,88856,1,2,0:0:0:0:
416,96,88960,1,0,0:0:0:0:
416,96,89167,1,0,0:0:0:0:
416,96,89374,1,6,0:0:0:0:
416,96,89581,1,0,0:0:0:0:
416,96,89787,1,0,0:0:0:0:
416,96,89994,1,2,0:0:0:0:
416,96,90098,1,0,0:0:0:0:
416,96,90201,1,2,0:0:0:0:
416,96,90408,1,0,0:0:0:0:
416,96,90615,1,2,0:0:0:0:
416,96,90822,1,0,0:0:0:0:
416,96,91029,1,2,0:0:0:0:
416,96,91236,1,0,0:0:0:0:
416,96,91443,1,2,0:0:0:0:
416,96,91856,1,2,0:0:0:0:
416,96,92063,1,2,0:0:0:0:
416,96,92270,1,0,0:0:0:0:
416,96,92477,1,0,0:0:0:0:
416,96,92684,1,6,0:0:0:0:
416,96,92891,1,0,0:0:0:0:
416,96,93098,1,2,0:0:0:0:
416,96,93305,1,0,0:0:0:0:
416,96,93408,1,0,0:0:0:0:
416,96,93512,1,2,0:0:0:0:
416,96,93718,1,0,0:0:0:0:
416,96,93925,1,2,0:0:0:0:
416,96,94132,1,0,0:0:0:0:
416,96,94339,1,2,0:0:0:0:
448,96,95167,1,2,0:0:0:0:
448,96,95994,1,4,0:0:0:0:
448,96,96201,1,2,0:0:0:0:
448,96,96408,1,2,0:0:0:0:
448,96,96615,1,0,0:0:0:0:
448,96,96718,1,0,0:0:0:0:
448,96,96822,1,2,0:0:0:0:
448,96,97029,1,0,0:0:0:0:
448,96,97236,1,2,0:0:0:0:
448,96,97443,1,0,0:0:0:0:
448,96,97650,1,0,0:0:0:0:
448,96,97856,1,0,0:0:0:0:
448,96,97960,1,0,0:0:0:0:
448,96,98063,1,2,0:0:0:0:
448,96,98270,1,2,0:0:0:0:
448,96,98339,1,2,0:0:0:0:
448,96,98408,1,2,0:0:0:0:
448,96,98477,1,0,0:0:0:0:
448,96,98684,1,2,0:0:0:0:
448,96,98891,1,2,0:0:0:0:
448,96,99098,1,0,0:0:0:0:
448,96,99201,1,2,0:0:0:0:
448,96,99305,1,0,0:0:0:0:
480,96,99512,1,2,0:0:0:0:
480,96,99718,1,2,0:0:0:0:
480,96,99925,1,0,0:0:0:0:
480,96,100132,1,2,0:0:0:0:
480,96,100339,1,2,0:0:0:0:
480,96,100443,1,2,0:0:0:0:
480,96,100546,1,0,0:0:0:0:
480,96,100753,1,0,0:0:0:0:
480,96,100960,1,4,0:0:0:0:
480,96,101167,1,2,0:0:0:0:
480,96,101374,1,2,0:0:0:0:
480,96,101581,1,2,0:0:0:0:
480,96,101650,1,2,0:0:0:0:
480,96,101718,1,2,0:0:0:0:
480,96,101787,1,0,0:0:0:0:
480,96,101994,1,2,0:0:0:0:
480,96,102098,1,2,0:0:0:0:
480,96,102201,1,0,0:0:0:0:
480,96,102408,1,0,0:0:0:0:
480,96,102512,1,0,0:0:0:0:
480,96,102615,1,2,0:0:0:0:
480,96,103029,1,0,0:0:0:0:
480,96,103236,1,2,0:0:0:0:
480,96,103443,1,0,0:0:0:0:
480,96,103650,1,0,0:0:0:0:
480,96,103753,1,0,0:0:0:0:
480,96,103856,1,2,0:0:0:0:
480,96,104063,1,0,0:0:0:0:
480,96,104270,1,2,0:0:0:0:
480,96,104477,1,0,0:0:0:0:
480,96,104581,1,0,0:0:0:0:
480,96,104684,1,2,0:0:0:0:
480,96,104891,1,2,0:0:0:0:
480,96,104960,1,2,0:0:0:0:
480,96,105029,1,2,0:0:0:0:
480,96,105098,1,0,0:0:0:0:
480,96,105305,1,0,0:0:0:0:
480,96,105512,1,2,0:0:0:0:
480,96,105718,1,0,0:0:0:0:
448,96,105822,1,0,0:0:0:0:
480,96,105925,1,2,0:0:0:0:
480,96,106132,1,0,0:0:0:0:
480,96,106339,1,2,0:0:0:0:
480,96,106546,1,2,0:0:0:0:
480,96,106753,1,2,0:0:0:0:
480,96,106960,1,0,0:0:0:0:
480,96,107167,1,2,0:0:0:0:
480,96,107374,1,0,0:0:0:0:
480,96,107581,1,2,0:0:0:0:
480,96,107787,1,2,0:0:0:0:
480,96,107994,1,0,0:0:0:0:
480,96,108201,1,2,0:0:0:0:
480,96,108408,1,2,0:0:0:0:
480,96,108615,1,2,0:0:0:0:
480,96,108718,1,0,0:0:0:0:
480,96,108822,1,2,0:0:0:0:
480,96,109029,1,2,0:0:0:0:
480,96,109236,1,4,0:0:0:0:
480,96,109443,1,0,0:0:0:0:
480,96,109650,1,2,0:0:0:0:
480,96,109753,1,2,0:0:0:0:
480,96,109856,1,0,0:0:0:0:
480,96,109960,1,0,0:0:0:0:
480,96,110063,1,2,0:0:0:0:
480,96,110270,1,2,0:0:0:0:
480,96,110477,1,0,0:0:0:0:
480,96,110684,1,2,0:0:0:0:
480,96,110891,1,2,0:0:0:0:
480,96,110994,1,2,0:0:0:0:
480,96,111098,1,0,0:0:0:0:
480,96,111201,1,0,0:0:0:0:
480,96,111305,1,2,0:0:0:0:
480,96,111512,1,2,0:0:0:0:
448,96,111581,1,2,0:0:0:0:
480,96,111650,1,2,0:0:0:0:
480,96,111718,1,0,0:0:0:0:
480,96,111925,1,2,0:0:0:0:
480,96,112132,1,2,0:0:0:0:
480,96,112339,1,0,0:0:0:0:
480,96,112443,1,0,0:0:0:0:
480,96,112546,1,2,0:0:0:0:
480,96,112753,1,2,0:0:0:0:
480,96,112960,1,2,0:0:0:0:
480,96,113167,1,0,0:0:0:0:
480,96,113374,1,2,0:0:0:0:
480,96,113581,1,2,0:0:0:0:
480,96,113787,1,0,0:0:0:0:
480,96,113994,1,2,0:0:0:0:
480,96,114201,1,2,0:0:0:0:
480,96,114408,1,0,0:0:0:0:
480,96,114512,1,0,0:0:0:0:
480,96,114615,1,0,0:0:0:0:
480,96,114822,1,2,0:0:0:0:
480,96,114891,1,2,0:0:0:0:
480,96,114960,1,2,0:0:0:0:
480,96,115029,1,0,0:0:0:0:
480,96,115236,1,2,0:0:0:0:
480,96,115443,1,2,0:0:0:0:
480,96,115650,1,0,0:0:0:0:
480,96,115856,1,4,0:0:0:0:
480,96,116063,1,2,0:0:0:0:
480,96,116270,1,2,0:0:0:0:
480,96,116477,1,0,0:0:0:0:
480,96,116684,1,2,0:0:0:0:
480,96,116891,1,0,0:0:0:0:
480,96,117098,1,2,0:0:0:0:
480,96,117305,1,2,0:0:0:0:
480,96,117512,1,4,0:0:0:0:
480,96,117718,1,0,0:0:0:0:
480,96,117822,1,0,0:0:0:0:
480,96,117925,1,2,0:0:0:0:
480,128,118132,1,2,0:0:0:0:
480,96,118201,1,2,0:0:0:0:
480,128,118270,1,2,0:0:0:0:
480,96,118339,1,2,0:0:0:0:
480,96,118546,1,2,0:0:0:0:
480,96,118753,1,2,0:0:0:0:
480,96,118960,1,0,0:0:0:0:
480,96,119167,1,6,0:0:0:0:
480,96,119374,1,0,0:0:0:0:
480,96,119581,1,6,0:0:0:0:
480,96,119787,1,0,0:0:0:0:
480,96,119994,1,6,0:0:0:0:
480,96,120201,1,0,0:0:0:0:
480,96,120408,1,6,0:0:0:0:
480,96,120615,1,0,0:0:0:0:
480,96,120822,1,6,0:0:0:0:
480,96,121029,1,6,0:0:0:0:
480,96,121236,1,6,0:0:0:0:
480,96,121443,1,6,0:0:0:0:
480,96,121650,1,2,0:0:0:0:
480,96,121753,1,2,0:0:0:0:
480,96,121857,1,0,0:0:0:0:
480,96,121960,1,0,0:0:0:0:
480,96,122063,1,2,0:0:0:0:
480,96,122167,1,2,0:0:0:0:
480,96,122270,1,2,0:0:0:0:
480,96,122374,1,2,0:0:0:0:
480,96,122477,1,0,0:0:0:0:
480,96,122891,1,0,0:0:0:0:
480,96,123305,1,0,0:0:0:0:
480,96,123512,1,2,0:0:0:0:
480,96,123718,1,0,0:0:0:0:
480,96,123925,1,2,0:0:0:0:
480,96,124132,1,0,0:0:0:0:
480,96,124546,1,2,0:0:0:0:
480,96,124753,1,2,0:0:0:0:
480,96,124960,1,0,0:0:0:0:
480,96,125167,1,2,0:0:0:0:
480,96,125374,1,0,0:0:0:0:
480,96,125581,1,0,0:0:0:0:
480,96,125787,1,2,0:0:0:0:
480,96,126201,1,0,0:0:0:0:
480,96,126408,1,2,0:0:0:0:
480,96,126615,1,0,0:0:0:0:
480,96,126822,1,0,0:0:0:0:
480,96,127029,1,2,0:0:0:0:
480,96,127443,1,6,0:0:0:0:
480,96,127650,1,0,0:0:0:0:
480,96,127857,1,2,0:0:0:0:
480,96,128064,1,0,0:0:0:0:
480,96,128270,1,0,0:0:0:0:
480,96,128477,1,0,0:0:0:0:
448,96,128581,1,0,0:0:0:0:
480,96,128684,1,2,0:0:0:0:
480,96,128891,1,2,0:0:0:0:
480,96,129098,1,0,0:0:0:0:
480,96,129305,1,2,0:0:0:0:
480,96,129512,1,0,0:0:0:0:
480,96,129718,1,2,0:0:0:0:
480,96,129925,1,0,0:0:0:0:
480,96,130132,1,2,0:0:0:0:
480,96,130339,1,0,0:0:0:0:
480,96,130546,1,2,0:0:0:0:
480,96,130753,1,0,0:0:0:0:
480,96,130960,1,2,0:0:0:0:
480,96,131063,1,2,0:0:0:0:
480,96,131167,1,0,0:0:0:0:
480,96,131374,1,2,0:0:0:0:
480,96,131581,1,0,0:0:0:0:
480,96,131787,1,2,0:0:0:0:
480,96,131994,1,0,0:0:0:0:
480,96,132201,1,2,0:0:0:0:
480,96,132305,1,2,0:0:0:0:
480,96,132408,1,0,0:0:0:0:
480,96,132615,1,2,0:0:0:0:
480,96,132822,1,0,0:0:0:0:
480,96,133029,1,2,0:0:0:0:
480,96,133236,1,0,0:0:0:0:
480,96,133650,1,0,0:0:0:0:
480,96,133856,1,2,0:0:0:0:
480,96,134063,1,0,0:0:0:0:
480,96,134270,1,2,0:0:0:0:
480,96,134374,1,2,0:0:0:0:
480,96,134477,1,0,0:0:0:0:
480,96,134684,1,2,0:0:0:0:
480,96,134891,1,6,0:0:0:0:
480,96,135098,1,0,0:0:0:0:
480,96,135201,1,0,0:0:0:0:
480,96,135305,1,0,0:0:0:0:
480,96,135512,1,2,0:0:0:0:
480,96,135718,1,4,0:0:0:0:
480,96,135925,1,2,0:0:0:0:
480,96,136132,1,0,0:0:0:0:
480,96,136546,1,0,0:0:0:0:
480,96,136753,1,2,0:0:0:0:
480,96,136856,1,2,0:0:0:0:
480,96,136960,1,0,0:0:0:0:
480,96,137167,1,0,0:0:0:0:
480,96,137374,1,2,0:0:0:0:
480,96,137581,1,0,0:0:0:0:
480,96,137787,1,2,0:0:0:0:
480,96,137994,1,0,0:0:0:0:
480,96,138098,1,0,0:0:0:0:
480,96,138201,1,2,0:0:0:0:
480,96,138408,1,0,0:0:0:0:
480,96,138615,1,2,0:0:0:0:
480,96,138822,1,0,0:0:0:0:
480,96,139029,1,2,0:0:0:0:
480,96,139443,1,0,0:0:0:0:
480,96,139650,1,2,0:0:0:0:
480,96,139856,1,0,0:0:0:0:
480,96,140063,1,2,0:0:0:0:
480,96,140167,1,2,0:0:0:0:
480,96,140270,1,0,0:0:0:0:
480,96,140477,1,2,0:0:0:0:
480,96,140684,1,0,0:0:0:0:
480,96,141098,1,0,0:0:0:0:
480,96,141305,1,2,0:0:0:0:
480,96,141512,1,0,0:0:0:0:
480,96,141718,1,2,0:0:0:0:
480,96,141822,1,2,0:0:0:0:
480,96,141925,1,0,0:0:0:0:
448,96,142132,1,0,0:0:0:0:
480,96,142339,1,6,0:0:0:0:
448,96,142753,1,2,0:0:0:0:
448,96,143167,1,0,0:0:0:0:
448,96,143374,1,2,0:0:0:0:
448,96,143581,1,2,0:0:0:0:
448,96,143787,1,0,0:0:0:0:
448,96,143994,1,2,0:0:0:0:
448,96,144201,1,0,0:0:0:0:
448,96,144305,1,0,0:0:0:0:
448,96,144408,1,2,0:0:0:0:
448,96,144615,1,0,0:0:0:0:
448,96,144822,1,2,0:0:0:0:
448,96,145029,1,0,0:0:0:0:
448,96,145236,1,2,0:0:0:0:
448,96,145339,1,0,0:0:0:0:
448,96,145443,1,0,0:0:0:0:
448,96,145650,1,6,0:0:0:0:
448,96,145856,1,0,0:0:0:0:
448,96,146063,1,6,0:0:0:0:
448,96,146270,1,0,0:0:0:0:
448,96,146477,1,6,0:0:0:0:
448,96,146684,1,0,0:0:0:0:
448,96,146891,1,6,0:0:0:0:
448,96,147098,1,0,0:0:0:0:
448,96,147305,1,6,0:0:0:0:
448,96,147512,1,6,0:0:0:0:
448,96,147718,1,6,0:0:0:0:
448,96,147925,1,6,0:0:0:0:
448,96,148132,1,2,0:0:0:0:
448,96,148236,1,0,0:0:0:0:
448,96,148339,1,0,0:0:0:0:
448,96,148443,1,0,0:0:0:0:
448,96,148546,1,2,0:0:0:0:
448,96,148650,1,2,0:0:0:0:
448,96,148753,1,2,0:0:0:0:
448,96,148856,1,2,0:0:0:0:
448,96,148960,1,0,0:0:0:0:
