osu file format v12

[General]
AudioFilename: SHW_-_Ikusa_JAPAN.mp3
AudioLeadIn: 0
PreviewTime: 95477
Countdown: 0
SampleSet: Normal
StackLeniency: 0.5
Mode: 1
LetterboxInBreaks: 0
WidescreenStoryboard: 0

[Editor]
Bookmarks: 43034,69516,82758,95999,122482
DistanceSpacing: 1.1
BeatDivisor: 4
GridSize: 32
TimelineZoom: 1

[Metadata]
Title:Ikusa JAPAN (shw.in)
TitleUnicode:Ikusa JAPAN (shw.in)
Artist:SHW
ArtistUnicode:SHW
Creator:kanpakyin
Version:Kantan
Source:
Tags:samurai
BeatmapID:411520
BeatmapSetID:169969

[Difficulty]
HPDrainRate:3
CircleSize:4
OverallDifficulty:3
ApproachRate:5
SliderMultiplier:1.4
SliderTickRate:1

[Events]
//Background and Video events
0,0,"bg.jpg",0,0
//Break Periods
//Storyboard Layer 0 (Background)
//Storyboard Layer 1 (Fail)
//Storyboard Layer 2 (Pass)
//Storyboard Layer 3 (Foreground)
//Storyboard Sound Samples
//Background Colour Transformations
3,100,163,162,255

[TimingPoints]
1650,413.793103448276,4,1,1,70,1,0
43029,-100,4,1,1,60,0,0
69512,-100,4,1,1,50,0,0
82753,-100,4,1,1,65,0,0
94753,-100,4,1,1,40,0,0
95994,-100,4,1,1,70,0,1
122477,-100,4,1,1,70,0,0

[Colours]
Combo1 : 240,5,5
Combo2 : 14,169,99
Combo3 : 64,64,251
SliderBorder : 193,193,193

[HitObjects]
416,128,3305,5,4,0:0:0:0:
416,128,4132,1,2,0:0:0:0:
416,128,4960,1,0,0:0:0:0:
416,128,6615,1,4,0:0:0:0:
416,128,7443,1,2,0:0:0:0:
416,128,8270,1,0,0:0:0:0:
416,128,9925,1,4,0:0:0:0:
416,128,10753,1,2,0:0:0:0:
416,128,11581,1,0,0:0:0:0:
416,128,13236,1,4,0:0:0:0:
416,128,14063,1,2,0:0:0:0:
416,128,14891,1,0,0:0:0:0:
416,128,16546,1,6,0:0:0:0:
416,128,17374,1,2,0:0:0:0:
416,128,18201,1,0,0:0:0:0:
416,128,19029,1,2,0:0:0:0:
416,128,19856,1,0,0:0:0:0:
416,128,20684,1,2,0:0:0:0:
416,128,21512,1,0,0:0:0:0:
416,128,22339,1,2,0:0:0:0:
416,128,23167,1,0,0:0:0:0:
416,128,23994,1,2,0:0:0:0:
416,128,24822,1,0,0:0:0:0:
416,128,25650,1,2,0:0:0:0:
416,128,26477,1,0,0:0:0:0:
416,128,27305,1,2,0:0:0:0:
416,128,28132,1,4,0:0:0:0:
416,128,28960,1,2,0:0:0:0:
416,128,29374,1,2,0:0:0:0:
416,128,29787,1,0,0:0:0:0:
416,128,30615,1,2,0:0:0:0:
416,128,31443,1,0,0:0:0:0:
416,128,31856,1,2,0:0:0:0:
416,128,32684,1,2,0:0:0:0:
416,128,33098,1,0,0:0:0:0:
416,128,34339,1,2,0:0:0:0:
416,128,34753,1,0,0:0:0:0:
416,128,35581,1,2,0:0:0:0:
416,128,35994,1,2,0:0:0:0:
416,128,36408,1,0,0:0:0:0:
416,128,37236,1,2,0:0:0:0:
416,128,38063,1,2,0:0:0:0:
416,128,38891,1,0,0:0:0:0:
416,128,39305,1,0,0:0:0:0:
416,128,39718,1,2,0:0:0:0:
416,128,40546,1,2,0:0:0:0:
416,128,41374,1,2,0:0:0:0:
416,128,41787,1,2,0:0:0:0:
416,128,42201,1,2,0:0:0:0:
416,128,42615,1,2,0:0:0:0:
416,128,43029,1,4,0:0:0:0:
416,128,45512,1,4,0:0:0:0:
416,128,45925,1,4,0:0:0:0:
416,128,46339,1,4,0:0:0:0:
416,128,48822,1,4,0:0:0:0:
416,128,49236,1,4,0:0:0:0:
416,128,49650,1,4,0:0:0:0:
416,128,52132,1,4,0:0:0:0:
416,128,52546,1,4,0:0:0:0:
416,128,52960,1,4,0:0:0:0:
416,128,55443,1,6,0:0:0:0:
416,128,55856,1,4,0:0:0:0:
416,128,56270,1,4,0:0:0:0:
416,128,58753,1,6,0:0:0:0:
416,128,59167,1,4,0:0:0:0:
416,128,59581,1,4,0:0:0:0:
416,128,62063,1,6,0:0:0:0:
416,128,62477,1,4,0:0:0:0:
416,128,62891,1,4,0:0:0:0:
416,128,65374,1,6,0:0:0:0:
416,128,65787,1,4,0:0:0:0:
416,128,66201,1,4,0:0:0:0:
416,128,67029,1,2,0:0:0:0:
416,128,67856,1,2,0:0:0:0:
416,128,68270,1,2,0:0:0:0:
416,128,68684,1,2,0:0:0:0:
416,128,69098,1,2,0:0:0:0:
416,128,69512,1,2,0:0:0:0:
416,128,70339,1,0,0:0:0:0:
416,128,70753,1,2,0:0:0:0:
416,128,71167,1,2,0:0:0:0:
416,128,72408,1,2,0:0:0:0:
416,128,72822,1,0,0:0:0:0:
416,128,73650,1,2,0:0:0:0:
416,128,74063,1,2,0:0:0:0:
416,128,74477,1,0,0:0:0:0:
416,128,76132,1,2,0:0:0:0:
416,128,76960,1,2,0:0:0:0:
416,128,77374,1,2,0:0:0:0:
416,128,77787,1,0,0:0:0:0:
416,128,78615,1,2,0:0:0:0:
416,128,79443,1,0,0:0:0:0:
416,128,80270,1,2,0:0:0:0:
416,128,81098,1,2,0:0:0:0:
416,128,82753,1,6,0:0:0:0:
416,128,83581,1,0,0:0:0:0:
416,128,83994,1,2,0:0:0:0:
416,128,84408,1,2,0:0:0:0:
416,128,85650,1,2,0:0:0:0:
416,128,86063,1,0,0:0:0:0:
416,128,86891,1,2,0:0:0:0:
416,128,87305,1,0,0:0:0:0:
416,128,87718,1,0,0:0:0:0:
416,128,89374,1,2,0:0:0:0:
416,128,90201,1,2,0:0:0:0:
416,128,90615,1,2,0:0:0:0:
416,128,91029,1,0,0:0:0:0:
416,128,91856,1,2,0:0:0:0:
416,128,92684,1,4,0:0:0:0:
416,128,93512,1,0,0:0:0:0:
416,128,93925,1,2,0:0:0:0:
416,128,94339,1,2,0:0:0:0:
416,128,95167,1,2,0:0:0:0:
416,128,95994,1,4,0:0:0:0:
416,128,96408,1,2,0:0:0:0:
416,128,97236,1,2,0:0:0:0:
416,128,97650,1,2,0:0:0:0:
416,128,98477,1,2,0:0:0:0:
416,128,98891,1,2,0:0:0:0:
416,128,99305,1,4,0:0:0:0:
416,128,100132,1,2,0:0:0:0:
416,128,100960,1,0,0:0:0:0:
416,128,101787,1,0,0:0:0:0:
416,128,102201,1,0,0:0:0:0:
416,128,102615,1,2,0:0:0:0:
416,128,103856,1,2,0:0:0:0:
416,128,104270,1,2,0:0:0:0:
416,128,105098,1,0,0:0:0:0:
416,128,105512,1,2,0:0:0:0:
416,128,105925,1,2,0:0:0:0:
416,128,107167,1,2,0:0:0:0:
416,128,107581,1,2,0:0:0:0:
416,128,108408,1,2,0:0:0:0:
416,128,108822,1,0,0:0:0:0:
416,128,109236,1,4,0:0:0:0:
416,128,110477,1,0,0:0:0:0:
416,128,110891,1,2,0:0:0:0:
416,128,111718,1,2,0:0:0:0:
416,128,112132,1,0,0:0:0:0:
416,128,112546,1,2,0:0:0:0:
416,128,113374,1,2,0:0:0:0:
416,128,114201,1,2,0:0:0:0:
416,128,115029,1,0,0:0:0:0:
416,128,115443,1,2,0:0:0:0:
416,128,115856,1,2,0:0:0:0:
416,128,116684,1,2,0:0:0:0:
416,128,117512,1,0,0:0:0:0:
416,128,118339,1,0,0:0:0:0:
416,128,119167,1,2,0:0:0:0:
416,128,119994,1,2,0:0:0:0:
416,128,120822,1,2,0:0:0:0:
416,128,121236,1,2,0:0:0:0:
416,128,121650,1,2,0:0:0:0:
416,128,122063,1,2,0:0:0:0:
416,128,122477,1,4,0:0:0:0:
416,128,124132,1,0,0:0:0:0:
416,128,124546,1,2,0:0:0:0:
416,128,124960,1,2,0:0:0:0:
416,128,125787,1,2,0:0:0:0:
416,128,127029,1,2,0:0:0:0:
416,128,127443,1,0,0:0:0:0:
416,128,128270,1,0,0:0:0:0:
416,128,128684,1,2,0:0:0:0:
416,128,129098,1,0,0:0:0:0:
416,128,130339,1,2,0:0:0:0:
416,128,130753,1,0,0:0:0:0:
416,128,131581,1,2,0:0:0:0:
416,128,131994,1,2,0:0:0:0:
416,128,132408,1,0,0:0:0:0:
416,128,133650,1,2,0:0:0:0:
416,128,134063,1,0,0:0:0:0:
416,128,134891,1,2,0:0:0:0:
416,128,135305,1,2,0:0:0:0:
416,128,135718,1,4,0:0:0:0:
416,128,136960,1,2,0:0:0:0:
416,128,137374,1,0,0:0:0:0:
416,128,138201,1,2,0:0:0:0:
416,128,138615,1,2,0:0:0:0:
416,128,139029,1,4,0:0:0:0:
416,128,140270,1,2,0:0:0:0:
416,128,140684,1,0,0:0:0:0:
416,128,141925,1,2,0:0:0:0:
416,128,142339,1,0,0:0:0:0:
416,128,143581,1,2,0:0:0:0:
416,128,143994,1,0,0:0:0:0:
416,128,144822,1,2,0:0:0:0:
416,128,145236,1,0,0:0:0:0:
416,128,145650,1,6,0:0:0:0:
416,128,146477,1,2,0:0:0:0:
416,128,147305,1,2,0:0:0:0:
416,128,147718,1,2,0:0:0:0:
416,128,148132,1,2,0:0:0:0:
416,128,148546,1,2,0:0:0:0:
416,128,148960,1,4,0:0:0:0:
