osu file format v12

[General]
AudioFilename: SHW_-_Ikusa_JAPAN.mp3
AudioLeadIn: 0
PreviewTime: 95477
Countdown: 0
SampleSet: Normal
StackLeniency: 0.5
Mode: 1
LetterboxInBreaks: 0
WidescreenStoryboard: 0

[Editor]
Bookmarks: 43034,69516,82758,95999,122482
DistanceSpacing: 1.1
BeatDivisor: 4
GridSize: 32
TimelineZoom: 1

[Metadata]
Title:Ikusa JAPAN (shw.in)
TitleUnicode:Ikusa JAPAN (shw.in)
Artist:SHW
ArtistUnicode:SHW
Creator:kanpakyin
Version:Futsuu
Source:
Tags:samurai
BeatmapID:411519
BeatmapSetID:169969

[Difficulty]
HPDrainRate:4
CircleSize:4
OverallDifficulty:4
ApproachRate:5
SliderMultiplier:1.4
SliderTickRate:1

[Events]
//Background and Video events
0,0,"bg.jpg",0,0
//Break Periods
//Storyboard Layer 0 (Background)
//Storyboard Layer 1 (Fail)
//Storyboard Layer 2 (Pass)
//Storyboard Layer 3 (Foreground)
//Storyboard Sound Samples
//Background Colour Transformations
3,100,163,162,255

[TimingPoints]
1650,413.793103448276,4,1,1,70,1,0
43029,-100,4,1,1,60,0,0
69512,-100,4,1,1,50,0,0
82753,-100,4,1,1,65,0,0
94753,-100,4,1,1,40,0,0
95994,-100,4,1,1,70,0,1
122477,-100,4,1,1,70,0,0

[Colours]
Combo1 : 240,5,5
Combo2 : 14,169,99
Combo3 : 64,64,251
SliderBorder : 193,193,193

[HitObjects]
384,96,3305,5,4,0:0:0:0:
384,96,4132,1,2,0:0:0:0:
384,96,4960,1,0,0:0:0:0:
384,96,5787,1,0,0:0:0:0:
384,96,6615,1,4,0:0:0:0:
384,96,7443,1,2,0:0:0:0:
384,96,8270,1,0,0:0:0:0:
384,96,9098,1,0,0:0:0:0:
384,96,9925,1,4,0:0:0:0:
384,96,10753,1,2,0:0:0:0:
384,96,11581,1,0,0:0:0:0:
384,96,12408,1,0,0:0:0:0:
384,96,13236,1,4,0:0:0:0:
384,96,14063,1,2,0:0:0:0:
384,96,14891,1,0,0:0:0:0:
384,96,15718,1,0,0:0:0:0:
384,96,16546,1,2,0:0:0:0:
384,96,16856,1,2,0:0:0:0:
384,96,17374,1,2,0:0:0:0:
384,96,17684,1,2,0:0:0:0:
384,96,18201,1,0,0:0:0:0:
384,96,18512,1,0,0:0:0:0:
384,96,19029,1,2,0:0:0:0:
384,96,19339,1,2,0:0:0:0:
384,96,19856,1,0,0:0:0:0:
384,96,20167,1,2,0:0:0:0:
384,96,20684,1,2,0:0:0:0:
384,96,20994,1,2,0:0:0:0:
384,96,21512,1,0,0:0:0:0:
384,96,21822,1,0,0:0:0:0:
384,96,22339,1,2,0:0:0:0:
384,96,22650,1,2,0:0:0:0:
384,96,23167,1,0,0:0:0:0:
384,96,23477,1,2,0:0:0:0:
384,96,23994,1,2,0:0:0:0:
384,96,24305,1,2,0:0:0:0:
384,96,24822,1,0,0:0:0:0:
384,96,25132,1,0,0:0:0:0:
384,96,25650,1,2,0:0:0:0:
384,96,25960,1,2,0:0:0:0:
384,96,26477,1,0,0:0:0:0:
384,96,26787,1,2,0:0:0:0:
384,96,27305,1,2,0:0:0:0:
384,96,27615,1,2,0:0:0:0:
384,96,28132,1,4,0:0:0:0:
384,96,28546,1,2,0:0:0:0:
384,96,28960,1,2,0:0:0:0:
384,96,29374,1,2,0:0:0:0:
384,96,29581,1,2,0:0:0:0:
384,96,29787,1,0,0:0:0:0:
384,96,30201,1,2,0:0:0:0:
384,96,30615,1,0,0:0:0:0:
384,96,31029,1,2,0:0:0:0:
384,96,31443,1,0,0:0:0:0:
384,96,31856,1,2,0:0:0:0:
384,96,32270,1,0,0:0:0:0:
384,96,32684,1,2,0:0:0:0:
384,96,32891,1,0,0:0:0:0:
384,96,33098,1,0,0:0:0:0:
384,96,33512,1,2,0:0:0:0:
384,96,33925,1,0,0:0:0:0:
384,96,34339,1,2,0:0:0:0:
384,96,34546,1,2,0:0:0:0:
384,96,34753,1,0,0:0:0:0:
384,96,35167,1,2,0:0:0:0:
384,96,35581,1,0,0:0:0:0:
384,96,35994,1,2,0:0:0:0:
384,96,36201,1,0,0:0:0:0:
384,96,36408,1,0,0:0:0:0:
384,96,36822,1,2,0:0:0:0:
384,96,37236,1,0,0:0:0:0:
384,96,37650,1,2,0:0:0:0:
384,96,38063,1,0,0:0:0:0:
384,96,38891,1,0,0:0:0:0:
384,96,39305,1,2,0:0:0:0:
384,96,39718,1,0,0:0:0:0:
384,96,40132,1,2,0:0:0:0:
384,96,40546,1,0,0:0:0:0:
384,96,40960,1,2,0:0:0:0:
384,96,41374,1,6,0:0:0:0:
384,96,41787,1,6,0:0:0:0:
384,96,42201,1,6,0:0:0:0:
384,96,42615,1,6,0:0:0:0:
384,96,43029,1,4,0:0:0:0:
384,96,43650,1,0,0:0:0:0:
384,96,44270,1,0,0:0:0:0:
384,96,44891,1,0,0:0:0:0:
384,96,45512,1,0,0:0:0:0:
384,96,45925,1,0,0:0:0:0:
416,96,46339,1,8,0:0:0:0:
384,96,46960,1,0,0:0:0:0:
384,96,47581,1,0,0:0:0:0:
384,96,48201,1,0,0:0:0:0:
384,96,48822,1,8,0:0:0:0:
384,96,49236,1,8,0:0:0:0:
384,96,49650,1,0,0:0:0:0:
384,96,50270,1,0,0:0:0:0:
384,96,50891,1,0,0:0:0:0:
384,96,51512,1,0,0:0:0:0:
384,96,52132,1,0,0:0:0:0:
384,96,52546,1,0,0:0:0:0:
384,96,52960,1,0,0:0:0:0:
384,96,53581,1,0,0:0:0:0:
384,96,54201,1,0,0:0:0:0:
384,96,54822,1,0,0:0:0:0:
384,96,55443,1,2,0:0:0:0:
384,96,55856,1,0,0:0:0:0:
384,96,56270,1,4,0:0:0:0:
384,96,56891,1,0,0:0:0:0:
384,96,57512,1,0,0:0:0:0:
384,96,58132,1,0,0:0:0:0:
384,96,58753,1,2,0:0:0:0:
384,96,59167,1,0,0:0:0:0:
384,96,59581,1,4,0:0:0:0:
384,96,60201,1,0,0:0:0:0:
384,96,60822,1,0,0:0:0:0:
384,96,61443,1,0,0:0:0:0:
384,96,62063,1,0,0:0:0:0:
384,96,62477,1,0,0:0:0:0:
384,96,62891,1,6,0:0:0:0:
384,96,63512,1,0,0:0:0:0:
384,96,64132,1,0,0:0:0:0:
384,96,64753,1,0,0:0:0:0:
384,96,65374,1,0,0:0:0:0:
384,96,65787,1,0,0:0:0:0:
384,96,66201,1,6,0:0:0:0:
384,96,66822,1,2,0:0:0:0:
384,96,67443,1,0,0:0:0:0:
384,96,68063,1,2,0:0:0:0:
384,96,68684,1,2,0:0:0:0:
384,96,68891,1,2,0:0:0:0:
384,96,69098,1,2,0:0:0:0:
384,96,69305,1,2,0:0:0:0:
384,96,69512,1,2,0:0:0:0:
384,96,70132,1,0,0:0:0:0:
384,96,70339,1,2,0:0:0:0:
384,96,70753,1,2,0:0:0:0:
384,96,71167,1,0,0:0:0:0:
384,96,72408,1,2,0:0:0:0:
384,96,72615,1,2,0:0:0:0:
384,96,72822,1,2,0:0:0:0:
384,96,73650,1,2,0:0:0:0:
384,96,74063,1,0,0:0:0:0:
384,96,74477,1,2,0:0:0:0:
384,96,75718,1,0,0:0:0:0:
384,96,76132,1,2,0:0:0:0:
384,96,76753,1,0,0:0:0:0:
384,96,76960,1,2,0:0:0:0:
384,96,77374,1,2,0:0:0:0:
384,96,77787,1,0,0:0:0:0:
384,96,78201,1,2,0:0:0:0:
384,96,78615,1,2,0:0:0:0:
384,96,78822,1,2,0:0:0:0:
384,96,79029,1,2,0:0:0:0:
384,96,79443,1,2,0:0:0:0:
384,96,79856,1,0,0:0:0:0:
384,96,80270,1,2,0:0:0:0:
384,96,80684,1,2,0:0:0:0:
384,96,81098,1,2,0:0:0:0:
384,96,81925,1,2,0:0:0:0:
384,96,82339,1,0,0:0:0:0:
384,96,82753,1,6,0:0:0:0:
384,96,83374,1,0,0:0:0:0:
384,96,83581,1,2,0:0:0:0:
384,96,83994,1,2,0:0:0:0:
384,96,84408,1,0,0:0:0:0:
384,96,84615,1,0,0:0:0:0:
384,96,85236,1,0,0:0:0:0:
384,96,85650,1,2,0:0:0:0:
384,96,85856,1,2,0:0:0:0:
384,96,86063,1,0,0:0:0:0:
384,96,86891,1,2,0:0:0:0:
384,96,87305,1,2,0:0:0:0:
384,96,87718,1,2,0:0:0:0:
384,96,87925,1,0,0:0:0:0:
384,96,88546,1,0,0:0:0:0:
384,96,88960,1,0,0:0:0:0:
384,96,89374,1,2,0:0:0:0:
384,96,89994,1,2,0:0:0:0:
384,96,90201,1,2,0:0:0:0:
384,96,90615,1,2,0:0:0:0:
384,96,91029,1,0,0:0:0:0:
384,96,91443,1,2,0:0:0:0:
384,96,91856,1,2,0:0:0:0:
384,96,92063,1,2,0:0:0:0:
384,96,92270,1,2,0:0:0:0:
384,96,92684,1,2,0:0:0:0:
384,96,93098,1,0,0:0:0:0:
384,96,93512,1,2,0:0:0:0:
384,96,93925,1,2,0:0:0:0:
384,96,94339,1,2,0:0:0:0:
384,96,95167,1,2,0:0:0:0:
384,96,95994,1,4,0:0:0:0:
384,96,96408,1,2,0:0:0:0:
384,96,96822,1,2,0:0:0:0:
384,96,97029,1,2,0:0:0:0:
384,96,97236,1,2,0:0:0:0:
384,96,97650,1,2,0:0:0:0:
384,96,98063,1,0,0:0:0:0:
384,96,98477,1,2,0:0:0:0:
384,96,98891,1,0,0:0:0:0:
384,96,99305,1,4,0:0:0:0:
384,96,99718,1,0,0:0:0:0:
384,96,100132,1,2,0:0:0:0:
384,96,100339,1,2,0:0:0:0:
384,96,100546,1,2,0:0:0:0:
384,96,100960,1,0,0:0:0:0:
384,96,101374,1,2,0:0:0:0:
384,96,101787,1,2,0:0:0:0:
384,96,102201,1,2,0:0:0:0:
384,96,102408,1,2,0:0:0:0:
384,96,102615,1,0,0:0:0:0:
384,96,103029,1,2,0:0:0:0:
384,96,103443,1,0,0:0:0:0:
384,96,103856,1,2,0:0:0:0:
384,96,104270,1,2,0:0:0:0:
384,96,104684,1,0,0:0:0:0:
384,96,105098,1,2,0:0:0:0:
384,96,105512,1,2,0:0:0:0:
384,96,105925,1,2,0:0:0:0:
384,96,106753,1,2,0:0:0:0:
384,96,107167,1,0,0:0:0:0:
384,96,107581,1,2,0:0:0:0:
384,96,107994,1,0,0:0:0:0:
384,96,108408,1,2,0:0:0:0:
384,96,108615,1,2,0:0:0:0:
384,96,108822,1,0,0:0:0:0:
384,96,109236,1,4,0:0:0:0:
384,96,109650,1,2,0:0:0:0:
384,96,110063,1,0,0:0:0:0:
384,96,110477,1,2,0:0:0:0:
384,96,110891,1,2,0:0:0:0:
384,96,111305,1,2,0:0:0:0:
384,96,111718,1,0,0:0:0:0:
384,96,112132,1,0,0:0:0:0:
384,96,112546,1,2,0:0:0:0:
384,96,112753,1,2,0:0:0:0:
384,96,112960,1,2,0:0:0:0:
384,96,113374,1,2,0:0:0:0:
384,96,113787,1,2,0:0:0:0:
384,96,114201,1,2,0:0:0:0:
384,96,114822,1,0,0:0:0:0:
384,96,115029,1,0,0:0:0:0:
384,96,115443,1,2,0:0:0:0:
384,96,115856,1,4,0:0:0:0:
384,96,116684,1,2,0:0:0:0:
384,96,117098,1,0,0:0:0:0:
384,96,117512,1,2,0:0:0:0:
384,96,117925,1,0,0:0:0:0:
384,96,118339,1,2,0:0:0:0:
384,96,118753,1,0,0:0:0:0:
384,96,118960,1,0,0:0:0:0:
384,96,119167,1,2,0:0:0:0:
384,96,119581,1,2,0:0:0:0:
384,96,119994,1,2,0:0:0:0:
384,96,120408,1,2,0:0:0:0:
384,96,120822,1,2,0:0:0:0:
384,96,121236,1,2,0:0:0:0:
384,96,121650,1,2,0:0:0:0:
384,96,121856,1,2,0:0:0:0:
384,96,122063,1,2,0:0:0:0:
384,96,122270,1,2,0:0:0:0:
384,96,122477,1,0,0:0:0:0:
384,96,123718,1,0,0:0:0:0:
384,96,123925,1,0,0:0:0:0:
384,96,124132,1,2,0:0:0:0:
384,96,124546,1,2,0:0:0:0:
384,96,124960,1,2,0:0:0:0:
384,96,125374,1,2,0:0:0:0:
384,96,125787,1,0,0:0:0:0:
384,96,127029,1,2,0:0:0:0:
384,96,127443,1,0,0:0:0:0:
384,96,127856,1,2,0:0:0:0:
384,96,128270,1,0,0:0:0:0:
384,96,128684,1,2,0:0:0:0:
384,96,128891,1,0,0:0:0:0:
384,96,129098,1,0,0:0:0:0:
384,96,130339,1,0,0:0:0:0:
384,96,130753,1,2,0:0:0:0:
384,96,131167,1,0,0:0:0:0:
384,96,131581,1,2,0:0:0:0:
384,96,131994,1,2,0:0:0:0:
384,96,132201,1,0,0:0:0:0:
384,96,132408,1,0,0:0:0:0:
384,96,133236,1,0,0:0:0:0:
384,96,133650,1,0,0:0:0:0:
384,96,134063,1,2,0:0:0:0:
384,96,134477,1,0,0:0:0:0:
384,96,134891,1,2,0:0:0:0:
384,96,135305,1,2,0:0:0:0:
384,96,135512,1,2,0:0:0:0:
384,96,135718,1,0,0:0:0:0:
384,96,136960,1,0,0:0:0:0:
384,96,137374,1,2,0:0:0:0:
384,96,137787,1,0,0:0:0:0:
384,96,138201,1,2,0:0:0:0:
384,96,138615,1,2,0:0:0:0:
384,96,139029,1,0,0:0:0:0:
384,96,140270,1,2,0:0:0:0:
384,96,140684,1,0,0:0:0:0:
384,96,141512,1,0,0:0:0:0:
384,96,141925,1,2,0:0:0:0:
384,96,142132,1,2,0:0:0:0:
384,96,142339,1,0,0:0:0:0:
384,96,142753,1,0,0:0:0:0:
384,96,143581,1,2,0:0:0:0:
384,96,143994,1,0,0:0:0:0:
384,96,144408,1,2,0:0:0:0:
384,96,144822,1,0,0:0:0:0:
384,96,145236,1,0,0:0:0:0:
384,96,145650,1,6,0:0:0:0:
384,96,146477,1,6,0:0:0:0:
384,96,147305,1,6,0:0:0:0:
384,96,147718,1,2,0:0:0:0:
384,96,148132,1,2,0:0:0:0:
384,96,148339,1,2,0:0:0:0:
384,96,148546,1,2,0:0:0:0:
384,96,148753,1,2,0:0:0:0:
384,96,148960,1,4,0:0:0:0:
