osu file format v9

[General]
AudioFilename: SHW_-_Ikusa_JAPAN.mp3
AudioLeadIn: 0
PreviewTime: 95477
Countdown: 0
SampleSet: Normal
StackLeniency: 0.5
Mode: 0
LetterboxInBreaks: 1

[Editor]
Bookmarks: 43034,69516,82758,95999,122482
DistanceSpacing: 1.1
BeatDivisor: 4
GridSize: 32

[Metadata]
Title:Ikusa JAPAN (shw.in)
Artist:SHW
Creator:LKs
Version:Ikusa!
Source:
Tags:Laurier samurai

[Difficulty]
HPDrainRate:6
CircleSize:4
OverallDifficulty:7
ApproachRate:9
SliderMultiplier:1.6
SliderTickRate:1

[Events]
//Background and Video events
0,0,"bg.jpg"
//Break Periods
2,69712,82153
//Storyboard Layer 0 (Background)
//Storyboard Layer 1 (Fail)
//Storyboard Layer 2 (Pass)
//Storyboard Layer 3 (Foreground)
//Storyboard Sound Samples
//Background Colour Transformations
3,100,163,162,255

[TimingPoints]
1650,413.793103448276,4,1,1,50,1,0
3201,-133.333333333333,4,1,1,50,0,0
3926,-133.333333333333,4,2,1,60,0,0
6616,-133.333333333333,4,1,1,50,0,0
7237,-133.333333333333,4,2,1,60,0,0
9926,-133.333333333333,4,1,1,50,0,0
10547,-133.333333333333,4,2,1,60,0,0
13237,-133.333333333333,4,1,1,50,0,0
13857,-133.333333333333,4,2,1,60,0,0
16547,-100,4,2,1,90,0,0
19856,-100,4,1,1,60,0,0
20063,-100,4,2,1,90,0,0
29787,-100,4,1,2,90,0,0
29891,-100,4,2,1,90,0,0
35684,-100,4,2,1,30,0,0
35787,-100,4,2,1,90,0,0
43029,-100,4,1,1,66,0,0
43236,-100,4,2,2,46,0,0
43443,-100,4,1,1,66,0,0
43856,-100,4,1,1,36,0,0
44063,-100,4,1,1,66,0,0
44477,-100,4,2,2,36,0,0
44581,-100,4,1,1,66,0,0
45305,-100,4,1,1,46,0,0
45512,-133.333333333333,4,1,1,66,0,0
45718,-133.333333333333,4,2,2,40,0,0
45925,-133.333333333333,4,1,1,56,0,0
46132,-133.333333333333,4,2,2,40,0,0
46339,-100,4,1,1,66,0,0
46546,-100,4,2,2,33,0,0
46753,-100,4,1,1,66,0,0
47167,-100,4,1,1,36,0,0
47374,-100,4,1,1,66,0,0
47994,-100,4,1,1,56,0,0
48201,-100,4,1,1,66,0,0
48615,-100,4,1,1,46,0,0
48822,-100,4,1,1,66,0,0
49856,-100,4,1,1,46,0,0
50063,-100,4,1,1,66,0,0
53167,-100,4,1,1,56,0,0
53374,-100,4,1,1,66,0,0
53684,-100,4,1,1,56,0,0
53891,-100,4,1,1,33,0,0
53994,-100,4,1,1,66,0,0
56477,-100,4,1,1,50,0,0
56684,-100,4,1,1,66,0,0
56891,-100,4,1,1,56,0,0
57512,-100,4,1,1,66,0,0
58339,-100,4,1,1,46,0,0
58546,-100,4,1,1,56,0,0
58753,-133.333333333333,4,1,1,66,0,0
59063,-133.333333333333,4,2,2,36,0,0
59167,-133.333333333333,4,1,1,66,0,0
59270,-133.333333333333,4,2,2,36,0,0
59581,-100,4,1,1,66,0,0
59787,-100,4,1,1,50,0,0
59994,-100,4,1,1,66,0,0
60615,-100,4,1,1,56,0,0
60822,-100,4,1,1,66,0,0
61029,-100,4,1,1,56,0,0
61236,-100,4,1,1,66,0,0
61546,-100,4,2,2,43,0,0
61753,-100,4,1,1,66,0,0
62270,-100,4,1,1,56,0,0
62477,-100,4,1,1,50,0,0
62684,-100,4,1,1,37,0,0
62891,-100,4,1,1,66,0,0
63512,-100,4,1,1,56,0,0
64132,-100,4,1,1,66,0,0
64546,-100,4,1,1,56,0,0
64753,-100,4,1,1,66,0,0
64960,-100,4,1,1,59,0,0
65374,-100,4,1,1,66,0,0
65581,-100,4,1,1,56,0,0
65787,-100,4,1,1,66,0,0
69512,-100,4,1,2,56,0,0
82753,-100,4,2,1,90,0,0
95994,-100,4,2,1,90,0,1
122477,-100,4,2,1,90,0,0

[Colours]
Combo1 : 240,5,5
Combo2 : 14,169,99
Combo3 : 64,64,251
SliderBorder : 193,193,193

[HitObjects]
48,336,3305,2,0,B|32:248|48:152,1,179.999994635582,4|8
144,168,4132,1,2
144,168,4960,1,8
488,344,5787,2,0,B|400:352,2,79.9999976158143,8|8|8
480,248,6615,6,0,B|504:160|480:64,1,179.999994635582,4|8
384,88,7443,1,2
384,88,8270,1,8
240,176,8787,1,8
240,176,8891,1,8
240,176,8994,1,8
168,152,9098,2,0,B|72:160,2,79.9999976158143,8|8|8
336,248,9925,6,0,B|272:336|160:272,1,179.999994635582,4|8
88,240,10753,1,2
88,240,11581,1,8
440,208,12408,2,0,B|432:304,2,79.9999976158143,8|8|8
512,128,13236,6,0,B|488:24|376:32,1,179.999994635582,4|8
296,80,14063,1,2
296,80,14891,1,8
128,48,15512,1,8
56,112,15718,2,0,B|72:192,2,79.9999976158143,8|8|8
8,264,16546,5,12
184,352,16856,1,2
8,264,17167,1,8
8,264,17374,5,8
184,352,17684,1,2
8,264,17994,1,8
8,264,18098,1,8
8,264,18201,5,8
184,352,18512,1,2
8,264,18822,1,8
16,160,19029,6,0,B|112:144,1,80,8|8
192,136,19339,2,0,B|157:227,1,80,2|2
121,295,19649,2,0,B|59:219,1,80,8|12
256,272,20167,5,2
432,184,20477,1,8
432,184,20684,5,8
256,272,20994,1,2
432,184,21305,1,8
432,184,21512,5,8
256,272,21822,1,2
432,184,22132,1,8
344,248,22339,6,0,B|370:154,1,80,8|2
396,78,22649,2,0,B|464:147,1,80,2|2
512,209,22960,2,0,B|417:233,1,80,8|12
256,160,23477,5,2
136,24,23787,1,8
136,24,23994,5,8
256,160,24305,1,2
136,24,24615,1,8
136,24,24718,1,8
136,24,24822,5,8
256,160,25132,1,2
136,24,25443,1,8
168,120,25649,6,0,B|142:214,1,80,8|8
116,290,25960,2,0,B|48:221,1,80,2|2
0,159,26270,2,0,B|95:135,1,80,8|12
328,72,26787,5,2
416,240,27098,1,8
416,240,27305,5,8
328,72,27615,1,2
416,240,27925,1,8
496,184,28132,5,8
496,184,28236,1,8
512,280,28443,1,8
512,280,28546,1,2
368,344,28856,1,2
368,344,28960,1,8
268,288,29167,1,2
160,332,29374,1,2
120,332,29477,1,2
84,320,29581,1,8
56,288,29684,1,2
48,248,29787,1,4
24,96,29994,5,2
56,120,30098,1,2
92,140,30201,1,10
24,96,30408,5,2
61,110,30512,1,2
101,120,30615,1,10
24,96,30822,5,2
63,99,30925,1,2
104,99,31029,1,10
204,60,31236,1,10
296,108,31443,1,8
388,64,31649,1,2
416,60,31753,1,2
440,56,31856,1,8
488,144,32063,5,2
456,148,32167,1,2
424,152,32270,1,10
464,240,32477,1,2
504,336,32684,1,8
472,340,32787,1,2
444,344,32891,1,10
416,348,32994,1,2
388,352,33098,1,8
288,320,33305,5,2
296,288,33408,1,2
304,256,33512,1,10
288,320,33718,5,2
287,287,33822,1,2
286,254,33925,1,10
288,320,34132,5,2
278,288,34236,1,2
268,256,34339,1,10
208,176,34546,1,10
104,136,34753,2,0,B|56:128|32:160,1,80,8|2
8,188,35063,1,2
0,224,35167,1,10
72,336,35374,6,0,B|56:296,2,40,2|2|10
112,344,35684,1,8
152,336,35787,1,2
184,320,35891,1,2
208,288,35994,1,10
216,248,36098,1,2
208,208,36201,1,10
184,176,36305,1,2
152,152,36408,6,0,B|72:160,1,80,10|0
0,32,36822,1,10
112,48,37029,1,2
144,40,37132,1,2
176,32,37236,1,10
112,48,37443,5,2
144,40,37546,1,2
176,32,37650,1,10
296,56,37856,1,10
416,80,38063,2,0,B|496:64,2,80,8|2|8
360,176,38684,1,2
392,192,38787,1,2
424,208,38891,1,10
360,176,39098,5,2
392,192,39201,1,2
424,208,39305,1,10
480,312,39512,1,10
376,368,39718,5,8
376,264,39925,1,2
264,312,40132,1,8
264,208,40339,1,2
152,264,40546,1,8
152,160,40753,1,2
40,208,40960,1,8
40,104,41167,1,10
40,320,41374,5,8
152,264,41581,1,2
152,212,41684,1,2
152,160,41787,1,10
264,312,41994,1,2
264,260,42098,1,2
264,208,42201,1,10
376,368,42408,1,2
376,316,42512,1,2
376,264,42615,1,10
376,212,42718,1,2
376,160,42822,1,10
376,108,42925,1,2
376,56,43029,5,12
224,32,43236,2,8,B|304:32,1,80,2|2
480,88,43650,1,8
240,144,43856,1,8
136,104,44063,1,8
224,32,44270,6,8,B|312:32,1,80,2|8
304,32,44581,1,8
304,32,44684,1,8
480,88,44891,1,2
504,304,45098,1,8
408,360,45305,1,8
264,312,45512,6,8,B|160:312,1,89.9999973177911,8|8
304,240,45925,2,8,B|400:240,1,89.9999973177911,8|8
224,232,46339,6,8,B|216:144,1,80,12|2
88,32,46753,1,2
112,208,46960,1,8
152,312,47167,1,8
224,232,47374,6,8,B|216:152,1,80,8|2
88,32,47787,1,8
88,32,47891,1,8
88,32,47994,1,8
112,208,48201,1,2
152,312,48408,1,8
40,296,48615,5,8
224,232,48822,1,8
40,296,49029,1,2
224,232,49236,1,2
496,352,49650,6,8,B|400:360,1,80,12|8
480,272,50063,2,8,B|400:280,1,80,2|8
128,120,50684,6,8,B|32:128,1,80,8|2
112,40,51098,2,8,B|32:48,1,80,8|8
64,208,51512,6,8,B|160:200,1,80,2|0
224,192,51925,2,8,B|320:184,1,80,8|2
384,176,52339,1,8
464,164,52546,2,8,B|528:228|472:332,1,160,8|10
384,368,53167,6,8,B|368:320,2,40,8|8|2
256,312,53581,2,8,B|272:256,3,40,8|8|8|8
224,264,53994,2,8,B|208:224,2,40,8|8|2
136,352,54408,1,8
24,288,54615,6,8,B|34:249|40:200,1,80,8|2
96,56,55029,2,8,B|106:99|112:144,1,80,8|8
200,192,55443,2,8,B|264:232|304:160|352:192,1,160,10|8
512,160,56270,5,4
480,72,56477,1,8
392,104,56684,1,10
424,192,56891,1,8
256,24,57305,1,8
256,56,57408,1,8
256,88,57512,2,8,B|256:168,1,80,2|8
136,352,58132,5,10
104,272,58339,1,8
72,192,58546,1,8
32,112,58753,2,8,B|136:72,1,89.9999973177911,10|8
128,104,59167,2,8,B|232:64,1,89.9999973177911,8|8
224,96,59581,5,4
328,112,59787,1,8
416,64,59994,1,10
512,88,60201,1,8
496,320,60615,2,8,B|416:312,1,80,8|2
320,296,61029,1,8
288,304,61132,1,8
256,312,61236,1,8
152,336,61443,6,8,B|120:312|128:264,1,80,10|8
176,144,61856,2,8,B|208:168|200:216,1,80,8|10
40,288,62270,1,8
8,192,62477,2,8,B|24:104,1,80,8|8
96,32,62891,5,12
200,64,63098,2,8,B|264:72|288:136|248:192,1,160,8|8
104,352,63925,1,8
136,344,64029,1,8
168,336,64132,1,10
280,352,64339,1,8
480,344,64546,6,8,B|488:256,1,80,8|2
439,88,64960,2,8,B|432:168,1,80,8|8
340,40,65374,1,10
224,72,65581,1,8
224,72,65684,1,8
224,72,65787,2,8,B|232:160,1,80,2|8
152,264,66201,5,8
256,192,66305,12,4,69512
144,32,82753,5,12
232,48,82960,1,8
320,32,83167,1,2
408,48,83374,1,8
496,32,83581,2,0,B|528:112|496:192,1,160,2|8
408,224,84201,5,8
384,208,84305,1,8
360,192,84408,1,2
264,232,84615,2,0,B|184:272|108:232,1,160,8|8
24,112,85236,2,0,B|20:180|72:216,1,120,8|0
110,233,85650,5,2
80,344,85856,1,8
192,312,86063,2,0,B|264:352|352:328,1,160,8|8
448,296,86684,1,8
480,272,86787,1,8
496,240,86891,1,10
512,128,87098,5,8
408,56,87305,1,8
376,180,87512,1,8
248,188,87718,1,2
192,64,87925,1,8
408,56,88132,6,0,B|280:40,1,120,8|8
288,41,88546,1,10
96,88,88753,1,8
232,224,88960,1,8
288,41,89167,1,8
16,160,89374,6,0,B|96:216|168:160,1,160,4|2
232,224,89994,1,8
272,240,90098,1,8
312,256,90201,1,8
496,360,90615,6,0,B|480:272,1,80,2|8
404,224,91029,1,8
312,256,91236,1,8
154,304,91443,1,2
172,208,91650,5,2
172,208,91753,1,2
172,208,91856,1,8
209,47,92062,1,8
283,111,92269,1,2
404,224,92684,5,8
209,47,93098,1,2
154,304,93512,1,2
358,80,93925,1,2
303,337,94339,1,2
404,224,95167,5,0
336,32,95994,5,8
456,64,96201,1,2
440,96,96305,1,2
424,128,96408,1,10
456,64,96615,5,2
440,96,96719,1,2
424,128,96822,1,10
456,64,97029,5,2
440,96,97133,1,2
424,128,97236,1,10
456,240,97443,1,10
208,104,97650,1,8
56,72,97856,5,2
88,80,97960,1,2
120,88,98063,1,10
16,216,98270,5,2
48,208,98374,1,2
80,200,98477,1,10
176,224,98684,1,8
264,264,98891,1,10
256,304,98994,1,2
232,336,99098,1,10
192,352,99201,1,2
152,352,99305,1,8
48,312,99512,5,2
32,273,99615,1,2
18,235,99718,1,10
48,312,99925,5,2
49,270,100028,1,2
52,229,100131,1,10
48,312,100339,5,2
64,274,100442,1,2
76,245,100545,1,10
160,168,100753,1,10
264,160,100960,2,0,B|320:152|392:144,1,120,8|10
424,152,101374,5,8
480,48,101581,1,10
424,152,101787,1,0
480,48,101994,1,2
356,56,102201,1,8
295,165,102408,5,2
255,158,102512,1,2
215,152,102615,1,10
302,261,102822,5,2
263,271,102925,1,2
223,279,103029,1,10
88,230,103236,1,10
80,108,103443,2,0,B|96:67|133:49,1,80,8|2
161,36,103753,1,2
192,33,103856,1,10
333,91,104063,5,10
464,45,104270,1,8
333,91,104477,1,2
302,117,104581,1,2
272,144,104684,1,10
421,160,104891,5,2
400,194,104994,1,2
380,228,105098,1,10
242,272,105305,1,10
143,184,105512,1,10
110,206,105615,1,2
88,239,105718,1,10
84,279,105822,1,2
97,316,105925,1,8
272,144,106132,5,2
311,134,106236,1,2
349,125,106339,1,10
272,144,106546,5,2
314,157,106650,1,2
356,168,106753,1,10
272,144,106960,5,2
305,178,107063,1,2
338,212,107167,1,10
476,115,107374,1,10
325,40,107581,5,8
191,64,107787,1,2
224,202,107994,1,8
191,64,108201,1,2
356,168,108408,5,8
325,40,108615,1,2
325,40,108718,1,2
325,40,108822,1,10
191,64,109029,1,8
325,40,109236,5,8
443,84,109443,1,2
467,115,109546,1,2
476,154,109650,1,10
443,84,109856,5,2
467,115,109960,1,2
476,154,110063,1,10
411,260,110270,1,10
476,154,110477,5,2
467,115,110581,1,2
443,84,110684,1,10
407,66,110787,1,2
367,61,110891,1,8
239,119,111098,5,2
208,150,111201,1,2
196,192,111305,1,10
214,111,111512,5,2
183,142,111615,1,2
171,184,111718,1,10
255,314,111925,1,10
148,174,112132,5,10
163,132,112236,1,2
194,101,112339,1,10
235,84,112443,1,2
278,84,112546,1,8
371,183,112753,5,10
371,183,112856,1,2
371,183,112960,1,2
488,163,113167,1,10
446,277,113374,1,8
488,163,113581,5,2
459,129,113684,1,2
426,99,113787,1,10
446,277,113994,1,8
371,183,114201,5,10
333,160,114305,1,2
290,147,114408,1,10
246,152,114512,1,2
208,174,114615,1,8
89,260,114822,1,10
208,174,115029,5,10
164,175,115132,1,2
120,167,115236,1,10
84,140,115339,1,2
70,97,115443,1,8
195,30,115650,1,10
310,130,115856,1,8
280,244,116063,5,2
324,248,116167,1,2
366,257,116270,1,10
333,213,116477,5,2
378,228,116581,1,2
416,255,116684,1,10
468,144,116891,1,10
416,255,117098,1,2
468,144,117305,1,8
372,64,117512,1,8
271,134,117718,5,2
222,132,117822,1,2
178,111,117925,1,10
192,161,118132,5,2
143,141,118236,1,2
121,93,118339,1,10
5,189,118546,1,10
144,248,118753,1,2
121,93,118960,5,10
174,77,119063,1,2
225,64,119167,2,0,B|360:76,1,120,10|2
397,55,119581,1,8
481,120,119787,1,10
397,55,119994,1,8
368,200,120201,5,2
481,120,120408,1,8
368,200,120615,1,10
328,181,120718,1,10
292,164,120822,2,0,B|203:156,1,80,8|2
512,328,121443,5,10
488,352,121546,1,10
464,376,121650,2,0,B|375:368,1,80,8|10
264,352,122063,1,8
248,320,122167,1,2
232,288,122270,1,2
216,256,122374,1,2
200,224,122477,1,8
