osu file format v12

[General]
AudioFilename: 01 Little Little Princess.mp3
AudioLeadIn: 2000
PreviewTime: 80283
Countdown: 0
SampleSet: Normal
StackLeniency: 0.7
Mode: 0
LetterboxInBreaks: 1
WidescreenStoryboard: 0

[Editor]
Bookmarks: 22831
DistanceSpacing: 1.2
BeatDivisor: 4
GridSize: 4

[Metadata]
Title:Little Little Princess
TitleUnicode:Little Little Princess
Artist:SHRINE 418
ArtistUnicode:SHRINE 418
Creator:etc
Version:Hyper
Source:Beatmania IIDX 12 Happy Sky
Tags:yuu tokiwa handsome jet wac csy the corrupt
BeatmapID:247815
BeatmapSetID:86429

[Difficulty]
HPDrainRate:5
CircleSize:4
OverallDifficulty:5
ApproachRate:8
SliderMultiplier:1.4
SliderTickRate:1

[Events]
//Background and Video events
0,0,"bg.jpg",0,0
//Break Periods
2,11427,19534
2,73691,86325
//Storyboard Layer 0 (Background)
//Storyboard Layer 1 (Fail)
//Storyboard Layer 2 (Pass)
//Storyboard Layer 3 (Foreground)
//Storyboard Sound Samples
//Background Colour Transformations
3,100,163,162,255

[TimingPoints]
1039,283.018867924528,4,2,1,5,1,0
1039,-100,4,2,1,5,0,0
2171,283.018867924528,4,2,1,55,1,0
2171,-100,4,2,1,55,0,0
8821,-100,4,1,1,55,0,0
20284,-200,4,2,1,55,0,0
28774,-100,4,1,1,55,0,0
30472,-100,4,2,0,55,0,0
30543,-100,4,1,1,55,0,0
73491,283.018867924528,6,2,1,55,1,0
73491,-100,6,2,1,55,0,0
87642,-100,6,1,1,55,0,0
88207,283.018867924528,4,1,1,55,1,1
88208,-100,4,1,1,55,0,1
117640,-100,4,1,1,55,0,0

[HitObjects]
256,148,1039,1,0,0:0:0:0:
307,192,1133,1,0,0:0:0:0:
256,237,1227,1,0,0:0:0:0:
204,192,1322,1,2,0:0:0:0:
204,192,2171,6,0,P|138:206|66:206,1,140,0|2,0:0|0:0,0:0:0:0:
320,92,2737,2,0,P|300:164|296:232,1,140,0|2,0:0|0:0,0:0:0:0:
348,296,3161,1,0,0:0:0:0:
464,176,3444,5,0,0:0:0:0:
380,192,3586,1,2,0:0:0:0:
304,156,3727,1,0,0:0:0:0:
224,180,3869,2,0,P|156:180|60:160,1,140,0|2,0:0|0:0,0:0:0:0:
28,60,4435,6,0,P|96:60|192:80,1,140,0|2,0:0|0:0,0:0:0:0:
132,328,5001,2,0,P|133:250|117:178,1,140,0|2,0:0|0:0,0:0:0:0:
196,156,5425,1,0,0:0:0:0:
272,304,5708,2,0,P|307:316|348:320,1,70,0|2,0:0|0:0,0:0:0:0:
424,316,5991,1,0,0:0:0:0:
488,260,6133,2,0,P|496:188|488:96,1,140,0|2,0:0|0:0,0:0:0:0:
376,20,6699,6,0,P|364:76|368:168,1,140,0|2,0:0|0:0,0:0:0:0:
408,232,7123,1,0,0:0:0:0:
488,260,7265,1,0,0:0:0:0:
264,312,7548,1,2,0:0:0:0:
200,256,7689,2,0,P|104:248|44:248,1,140
32,168,8114,2,0,P|36:140|32:98,1,70,2|0,0:0|0:0,0:0:0:0:
112,22,8397,2,0,P|112:58|116:92,1,70
160,164,8680,1,2,0:0:0:0:
244,180,8821,2,0,L|288:172,3,23.3333333333333
372,292,9246,5,0,0:0:0:0:
340,163,9387,1,0,0:0:0:0:
436,244,9529,1,0,0:0:0:0:
312,239,9670,1,0,0:0:0:0:
416,171,9812,1,0,0:0:0:0:
372,292,9954,1,0,0:0:0:0:
204,200,10237,5,0,0:0:0:0:
124,224,10378,1,0,0:0:0:0:
200,180,10520,1,0,0:0:0:0:
128,240,10661,2,0,L|136:284,8,35
96,40,20284,5,2,0:0:0:0:
128,116,20567,1,0,0:0:0:0:
200,156,20850,1,2,0:0:0:0:
284,160,21133,1,0,0:0:0:0:
352,112,21416,1,0,0:0:0:0:
352,112,21557,1,0,0:0:0:0:
352,112,21699,1,2,0:0:0:0:
420,160,21982,2,0,P|420:220|476:280,1,140,2|0,0:0|0:0,0:0:0:0:
408,332,22831,2,0,P|348:360|272:360,1,140,2|0,0:0|0:0,0:0:0:0:
104,332,23680,5,2,0:0:0:0:
88,248,23963,1,0,0:0:0:0:
132,176,24246,1,2,0:0:0:0:
212,152,24529,1,0,0:0:0:0:
288,184,24812,1,0,0:0:0:0:
288,184,24954,1,0,0:0:0:0:
288,184,25095,1,2,0:0:0:0:
244,72,25378,2,0,P|180:92|104:68,1,140,2|0,0:0|0:0,0:0:0:0:
164,136,26227,2,0,P|180:204|152:280,1,140,2|0,0:0|0:0,0:0:0:0:
88,316,27076,2,0,L|40:304,2,35,2|0|2,0:0|0:0|0:0,0:0:0:0:
176,340,27642,5,2,0:0:0:0:
244,288,27925,1,0,0:0:0:0:
328,288,28208,2,0,L|360:300,2,35,2|0|2,0:0|0:0|0:0,0:0:0:0:
408,232,28774,6,0,P|404:196|420:92,1,140
364,28,29199,1,0,0:0:0:0:
316,96,29340,2,0,P|280:112|168:120,1,140
116,68,29765,1,0,0:0:0:0:
52,124,29906,2,0,P|36:160|32:196,1,70
87,290,30189,2,0,P|103:254|108:224,1,70
208,356,30472,6,0,P|224:324|232:208,1,140,4|0,0:0|0:0,0:0:0:0:
184,156,30897,1,0,0:0:0:0:
337,139,31038,2,0,P|304:144|268:148,1,70
370,216,31321,2,0,P|404:212|440:208,1,70
399,50,31604,2,0,L|260:64,1,140
196,120,32029,2,0,P|212:216|210:258,1,140
176,328,32454,1,0,0:0:0:0:
176,328,32595,1,0,0:0:0:0:
104,288,32737,6,0,L|8:304,1,70
40,216,33020,2,0,L|48:132,1,70
135,82,33303,2,0,L|132:152,1,70
132,236,33586,2,0,P|160:260|190:274,1,70
388,295,33869,2,0,L|252:328,1,140
300,228,34293,2,0,L|436:195,1,140
355,64,34718,1,0,0:0:0:0:
432,112,34859,1,0,0:0:0:0:
432,112,34930,1,0,0:0:0:0:
432,112,35001,6,0,L|512:156,1,70
357,274,35284,2,0,L|380:208,1,70
252,276,35567,2,0,L|270:343,1,70
148,280,35850,2,0,L|127:212,1,70
60,132,36133,2,0,P|136:128|195:107,1,140
252,44,36557,1,0,0:0:0:0:
336,64,36699,2,0,P|320:129|328:201,1,140
316,336,37265,6,0,L|452:305,1,140
284,248,37831,2,0,L|146:276,1,140
48,208,38397,6,0,P|56:164|50:64,1,140
128,36,38821,1,0,0:0:0:0:
184,100,38963,2,0,L|352:116,1,140
452,44,39529,6,0,P|444:96|444:192,1,140
480,260,39954,1,0,0:0:0:0:
428,328,40095,2,0,L|352:340,1,70
230,290,40378,2,0,L|300:280,1,70
152,320,40661,2,0,P|132:248|136:176,1,140
164,104,41086,1,0,0:0:0:0:
228,156,41227,2,0,P|296:152|364:128,1,140
424,72,41652,1,0,0:0:0:0:
328,48,41793,6,0,L|260:32,1,70
152,85,42076,2,0,L|220:104,1,70
112,160,42359,2,0,L|24:132,1,70
36,224,42642,2,0,L|40:300,1,70
112,340,42925,6,0,P|164:336|252:312,1,140
332,312,43350,1,0,0:0:0:0:
288,240,43491,2,0,P|288:156|304:96,1,140
452,32,44057,6,0,P|452:96|420:196,1,140,0|0,0:0|0:0,0:0:0:0:
300,228,44623,2,0,L|160:208,1,140,0|0,0:0|0:0,0:0:0:0:
68,56,45189,2,0,L|236:80,1,140,0|0,0:0|0:0,0:0:0:0:
272,132,45614,1,0,0:0:0:0:
240,212,45755,2,0,P|244:284|228:372,1,140,0|0,0:0|0:0,0:0:0:0:
272,132,46321,5,0,0:0:0:0:
272,132,46604,1,0,0:0:0:0:
420,52,46887,1,0,0:0:0:0:
420,52,47170,1,0,0:0:0:0:
272,132,47454,6,0,L|128:160,1,140
36,292,48020,2,0,L|176:264,1,140,0|0,0:0|0:0,0:0:0:0:
340,276,48586,6,0,P|343:312|379:361,1,70
424,292,48869,2,0,P|420:216|440:152,1,140
476,80,49293,1,0,0:0:0:0:
396,48,49435,2,0,P|360:60|320:60,1,70
288,136,49718,2,0,L|148:112,1,140
76,72,50142,1,0,0:0:0:0:
24,140,50284,2,0,P|32:204|16:284,1,140
18,277,50708,1,0,0:0:0:0:
88,328,50850,6,0,L|160:304,1,70
194,200,51133,2,0,L|128:224,1,70
172,120,51416,2,0,L|264:92,1,70
320,76,51699,2,0,L|316:152,1,70
320,232,51982,1,0,0:0:0:0:
320,232,52123,1,0,0:0:0:0:
384,284,52265,1,0,0:0:0:0:
384,284,52406,1,0,0:0:0:0:
468,284,52548,2,0,L|536:268,2,70
400,68,53114,6,0,P|392:144|412:212,1,140
384,284,53538,1,0,0:0:0:0:
316,336,53680,2,0,P|252:360|168:372,1,140
100,344,54104,1,0,0:0:0:0:
160,284,54246,2,0,L|164:196,1,70
84,184,54529,2,0,L|16:200,1,70
96,100,54812,2,0,L|104:28,1,70
184,68,55095,1,0,0:0:0:0:
264,88,55237,1,0,0:0:0:0:
280,172,55378,6,0,P|256:240|252:324,1,140
316,360,55803,1,0,0:0:0:0:
384,308,55944,2,0,P|366:277|358:245,1,70
488,173,56227,2,0,P|460:184|420:188,1,70
389,66,56510,2,0,P|370:97|360:128,1,70
288,176,56793,2,0,P|249:169|222:155,1,70
184,80,57076,1,0,0:0:0:0:
112,36,57218,1,0,0:0:0:0:
56,96,57359,6,0,P|52:128|40:168,1,70
120,196,57642,2,0,P|100:252|84:330,1,140
196,164,58067,1,0,0:0:0:0:
140,100,58208,2,0,P|60:80|9:53,1,140
220,72,58633,1,0,0:0:0:0:
284,128,58774,2,0,P|292:200|280:276,1,140
256,352,59199,1,0,0:0:0:0:
256,352,59340,2,0,L|420:308,1,140
484,184,59765,1,0,0:0:0:0:
484,184,59906,2,0,L|349:221,1,140
268,240,60331,1,0,0:0:0:0:
264,156,60472,2,0,P|256:108|228:68,1,70
148,29,60755,6,0,P|148:61|164:96,1,70
147,179,61038,2,0,P|111:199|84:208,1,70
62,343,61321,2,0,P|56:316|36:280,1,70
84,208,61604,1,0,0:0:0:0:
160,244,61746,1,0,0:0:0:0:
152,328,61887,1,0,0:0:0:0:
232,360,62029,1,0,0:0:0:0:
352,328,62170,6,0,P|364:272|424:196,1,140
412,120,62595,2,0,L|248:148,1,140
292,60,63020,2,0,L|361:49,1,70
216,92,63303,5,0,0:0:0:0:
144,52,63444,1,0,0:0:0:0:
152,132,63586,2,0,L|163:212,1,70
88,244,63869,1,0,0:0:0:0:
76,160,64010,1,0,0:0:0:0:
100,328,64152,2,0,L|31:340,1,70
184,312,64435,2,0,P|208:240|204:172,1,140
184,96,64859,2,0,P|244:124|336:128,1,140
384,182,65284,2,0,P|400:150|404:116,1,70
396,32,65567,2,0,L|465:18,1,70
404,116,65850,2,0,L|335:130,1,70
252,124,66133,6,0,P|257:191|229:275,1,140,0|0,0:0|0:0,0:0:0:0:
176,320,66557,1,0,0:0:0:0:
29,312,66699,2,0,L|96:292,1,70
164,240,66982,1,0,0:0:0:0:
196,164,67123,2,0,P|210:99|198:27,1,140
284,32,67548,2,0,L|352:60,1,70
332,140,67831,2,0,P|320:176|312:236,1,70
336,288,68114,1,0,0:0:0:0:
416,316,68255,2,0,P|408:240|428:176,1,140
370,42,68680,2,0,L|376:112,1,70
277,216,68963,6,0,L|296:148,1,70
192,224,69246,2,0,L|200:300,1,70
92,256,69529,2,0,P|116:184|108:104,1,140
60,56,69954,1,0,0:0:0:0:
192,96,70095,2,0,P|188:56|198:27,1,70
312,176,70378,2,0,L|244:162,1,70
336,264,70661,2,0,L|432:284,1,70
480,240,70944,2,0,P|492:200|492:168,1,70
440,104,71227,6,0,P|376:116|296:160,1,140
228,132,71652,1,0,0:0:0:0:
252,212,71793,2,0,P|260:248|260:296,1,70
188,320,72076,2,0,L|104:336,1,70
100,252,72359,2,0,P|92:208|112:100,1,140
72,36,72784,1,0,0:0:0:0:
156,24,72925,2,0,P|192:36|223:36,1,70
260,112,73208,2,0,P|251:148|255:180,1,70
320,236,73491,1,0,0:0:0:0:
116,36,87075,5,0,0:0:0:0:
116,36,87217,1,0,0:0:0:0:
160,108,87358,1,0,0:0:0:0:
160,108,87500,1,0,0:0:0:0:
232,152,87641,1,0,0:0:0:0:
232,152,87783,1,0,0:0:0:0:
316,164,87924,1,0,0:0:0:0:
316,164,88066,1,0,0:0:0:0:
396,140,88207,6,0,P|376:216|400:300,1,140,4|0,0:0|0:0,0:0:0:0:
332,336,88631,2,0,L|263:349,1,70
162,283,88914,2,0,L|232:272,1,70
80,292,89197,2,0,P|88:212|76:154,1,140
20,92,89622,1,0,0:0:0:0:
80,36,89763,1,0,0:0:0:0:
156,68,89905,2,0,L|236:56,1,70
288,116,90188,2,0,P|296:152|292:184,1,70
220,228,90471,6,0,L|172:268,3,35
228,272,90754,2,0,L|216:312,3,35
260,308,91037,2,0,L|272:352,3,35
308,328,91320,2,0,L|348:368,3,35
364,328,91603,2,0,B|396:264|372:176,1,140
356,104,92027,2,0,L|432:80,1,70
480,144,92310,1,0,0:0:0:0:
480,144,92452,2,0,P|476:176|480:214,1,70
352,104,92735,6,0,L|320:68,3,35
308,112,93018,2,0,L|244:96,3,35
264,144,93301,2,0,L|212:148,3,35
232,188,93584,2,0,L|188:208,3,35
132,268,93867,6,0,L|184:248,3,35
84,248,94150,2,0,L|64:196,3,35
68,296,94433,2,0,L|28:312,3,35
108,308,94716,2,0,L|124:348,3,35
212,356,94999,6,0,L|252:348,3,35,0|0|0|0,0:0|0:0|0:0|0:0,0:0:0:0:
252,304,95282,2,0,L|312:272,3,35
280,244,95565,2,0,L|316:208,3,35
288,180,95848,2,0,L|312:132,3,35
396,120,96131,6,0,L|340:100,3,35
324,96,96414,2,0,L|264:76,3,35
252,72,96697,2,0,L|192:52,3,35
180,48,96980,6,0,L|124:28,4,35
92,100,97405,1,0,0:0:0:0:
92,100,97546,2,0,P|86:133|64:172,1,70
148,192,97829,2,0,P|168:228|202:256,1,70
80,248,98112,2,0,P|40:268|-1:274,1,70
160,304,98395,1,0,0:0:0:0:
236,268,98537,1,0,0:0:0:0:
276,340,98678,1,0,0:0:0:0:
352,308,98820,1,0,0:0:0:0:
428,276,98961,2,0,P|436:232|432:192,1,70
420,196,99173,1,0,0:0:0:0:
404,184,99244,2,0,P|408:144|424:104,1,70
336,64,99527,6,0,P|308:73|268:77,1,70,4|0,0:0|0:0,0:0:0:0:
196,32,99810,1,0,0:0:0:0:
160,108,99952,1,0,0:0:0:0:
228,156,100093,2,0,P|236:188|232:228,1,70
180,288,100376,1,0,0:0:0:0:
264,300,100518,1,0,0:0:0:0:
108,332,100659,2,0,P|72:344|40:348,1,70
16,268,100942,2,0,P|15:227|23:199,1,70
104,172,101225,5,0,0:0:0:0:
160,108,101367,1,0,0:0:0:0:
160,108,101438,1,0,0:0:0:0:
160,108,101508,1,0,0:0:0:0:
156,24,101650,1,0,0:0:0:0:
228,64,101791,2,0,L|366:45,1,140,4|0,0:0|0:0,0:0:0:0:
444,80,102216,1,0,0:0:0:0:
384,140,102357,2,0,L|245:159,1,140
164,144,102782,1,0,0:0:0:0:
148,224,102923,2,0,P|158:290|148:376,1,140
232,340,103348,1,0,0:0:0:0:
268,264,103490,2,0,P|269:197|292:120,1,140
372,112,103914,2,0,P|384:80|388:40,1,70,0|4,0:0|0:0,0:0:0:0:
288,128,104197,2,0,P|276:160|268:200,1,70
212,256,104480,2,0,P|167:270|119:274,1,70
46,358,104763,6,0,P|60:324|64:292,1,70
30,158,105046,2,0,P|16:192|12:224,1,70,0|0,0:0|0:0,0:0:0:0:
64,292,105329,1,0,0:0:0:0:
148,308,105471,1,0,0:0:0:0:
224,276,105612,1,0,0:0:0:0:
272,208,105754,2,0,L|316:220,6,35
252,124,106320,5,4,0:0:0:0:
180,80,106461,1,0,0:0:0:0:
112,128,106603,2,0,P|108:152|120:212,1,70
68,268,106886,2,0,P|20:256|-9:237,1,70
140,344,107169,2,0,L|158:276,1,70
208,180,107452,2,0,L|230:247,1,70
330,324,107735,2,0,L|307:259,1,70
468,212,108018,1,0,0:0:0:0:
388,236,108159,1,0,0:0:0:0:
420,144,108301,1,0,0:0:0:0:
500,120,108442,1,0,0:0:0:0:
296,32,108584,6,0,P|304:68|304:116,1,70,4|0,0:0|0:0,0:0:0:0:
252,176,108867,2,0,L|182:165,1,70
332,236,109150,2,0,L|404:216,1,70
252,256,109433,1,0,0:0:0:0:
272,336,109574,1,0,0:0:0:0:
356,316,109716,1,0,0:0:0:0:
332,236,109857,1,0,0:0:0:0:
252,256,109999,1,0,0:0:0:0:
172,276,110140,6,0,P|88:296|5:297,1,140
46,146,110565,2,0,P|54:190|56:216,1,70
132,140,110848,1,4,0:0:0:0:
148,56,110990,1,0,0:0:0:0:
228,84,111131,2,0,P|220:40|218:14,1,70
320,92,111414,6,0,P|312:124|313:176,1,70
404,268,111697,2,0,L|388:180,1,70
404,268,111980,1,4,0:0:0:0:
360,336,112122,1,0,0:0:0:0:
312,268,112263,1,0,0:0:0:0:
240,228,112405,2,0,P|233:242|221:294,1,70
117,367,112688,2,0,P|128:340|136:300,1,70
72,244,112971,1,0,0:0:0:0:
88,160,113112,6,0,L|18:170,1,70,4|0,0:0|0:0,0:0:0:0:
168,188,113395,1,0,0:0:0:0:
178,34,113537,2,0,P|178:70|184:104,1,70
243,216,113820,2,0,P|244:204|256:148,1,70
344,176,114102,1,0,0:0:0:0:
384,100,114244,2,0,P|412:84|448:56,1,70
392,252,114527,2,0,P|364:268|328:296,1,70
272,348,114810,2,0,P|253:329|232:284,1,70
156,256,115093,2,0,L|80:284,1,70
236,224,115376,5,4,0:0:0:0:
216,144,115518,2,0,P|248:104|268:88,1,70
148,100,115801,2,0,P|136:75|108:43,1,70
96,164,116084,2,0,P|75:204|71:228,1,70
76,312,116367,6,0,P|48:322|8:330,1,70
156,340,116650,2,0,P|169:308|189:280,1,70
260,236,116933,2,0,L|360:248,1,70
392,300,117216,1,0,0:0:0:0:
440,232,117357,1,0,0:0:0:0:
444,192,117428,1,0,0:0:0:0:
448,148,117499,1,0,0:0:0:0:
452,108,117570,1,0,0:0:0:0:
456,68,117640,1,4,0:0:0:0:
