osu file format v12

[General]
AudioFilename: 01 Little Little Princess.mp3
AudioLeadIn: 2000
PreviewTime: 80283
Countdown: 0
SampleSet: Soft
StackLeniency: 0.7
Mode: 0
LetterboxInBreaks: 1

[Editor]
DistanceSpacing: 1
BeatDivisor: 4
GridSize: 4

[Metadata]
Title:Little Little Princess
TitleUnicode:Little Little Princess
Artist:SHRINE 418
ArtistUnicode:SHRINE 418
Creator:etc
Version:Beginner
Source:Beatmania IIDX 12 Happy Sky
Tags:yuu tokiwa handsome jet wac csy the corrupt
BeatmapID:259252
BeatmapSetID:86429

[Difficulty]
HPDrainRate:2
CircleSize:3
OverallDifficulty:2
ApproachRate:4
SliderMultiplier:0.799999999999999
SliderTickRate:1

[Events]
//Background and Video events
0,0,"bg.jpg",0,0
//Break Periods
2,11427,18964
2,73691,85755
//Storyboard Layer 0 (Background)
//Storyboard Layer 1 (Fail)
//Storyboard Layer 2 (Pass)
//Storyboard Layer 3 (Foreground)
//Storyboard Sound Samples
//Background Colour Transformations
3,100,163,162,255

[TimingPoints]
1039,283.018867924528,4,2,1,5,1,0
2171,283.018867924528,4,2,1,55,1,0
2171,-100,4,2,1,55,0,0
30472,-100,4,1,1,60,0,0
73491,283.018867924528,6,2,1,55,1,0
73491,-100,6,2,1,55,0,0
87642,-100,6,1,1,55,0,0
88207,283.018867924528,4,1,1,55,1,1
88208,-100,4,1,1,60,0,1
117640,378.071833648393,3,1,1,55,1,0

[HitObjects]
64,96,2171,1,0,0:0:0:0:
188,200,2737,1,0,0:0:0:0:
240,48,3303,1,0,0:0:0:0:
448,292,4435,5,0,0:0:0:0:
324,188,5001,1,0,0:0:0:0:
272,340,5567,1,0,0:0:0:0:
52,108,6699,6,0,P|128:128|212:104,2,160
292,320,8963,2,0,P|216:300|132:324,2,160,0|0|0,0:0|0:0|0:0,0:0:0:0:
308,160,10661,2,0,L|468:160,1,160,0|4,0:0|0:0,0:0:0:0:
140,156,20284,5,0,0:0:0:0:
236,28,20850,1,0,0:0:0:0:
388,72,21416,2,0,P|424:124|408:216,1,160
252,248,22548,1,0,0:0:0:0:
140,156,23114,2,0,P|68:192|48:264,1,160
172,368,24246,1,0,0:0:0:0:
272,244,24812,5,0,0:0:0:0:
376,124,25378,2,0,P|380:205|448:256,1,160
292,324,26510,2,0,L|124:280,1,160
52,148,27642,1,0,0:0:0:0:
144,16,28208,1,0,0:0:0:0:
296,64,28774,6,0,P|276:144|300:232,1,160,0|0,1:0|1:0,0:0:0:0:
448,252,29906,1,0,1:0:0:0:
308,328,30472,6,0,P|228:352|140:324,1,160,4|0,1:2|0:0,0:0:0:0:
40,224,31604,2,0,P|44:152|116:92,1,160
256,40,32737,6,0,P|304:104|392:112,2,160
148,160,34435,2,0,P|172:236|132:328,1,160,0|4,0:0|1:2,0:0:0:0:
296,248,35567,5,0,0:0:0:0:
236,100,36133,1,0,0:0:0:0:
388,48,36699,1,0,0:0:0:0:
448,196,37265,2,0,B|420:284|321:307,1,160
180,324,38397,1,0,0:0:0:0:
56,224,38963,1,0,0:0:0:0:
136,84,39529,6,0,B|204:128|204:128|284:72,1,160,4|0,1:2|0:0,0:0:0:0:
408,160,40661,2,0,B|364:230|364:230|408:294,1,160
256,192,41793,12,4,43208,0:2:0:0:
192,272,44057,6,0,L|16:272,2,160,4|0|0,1:2|0:0|0:0,0:0:0:0:
328,352,45755,1,0,0:0:0:0:
440,240,46321,2,0,P|468:172|432:84,1,160
292,32,47454,2,0,P|232:68|148:16,1,160
16,108,48586,5,0,0:0:0:0:
176,108,49152,1,0,0:0:0:0:
176,268,49718,2,0,L|344:268,1,160
440,144,50850,1,0,0:0:0:0:
280,144,51416,1,0,0:0:0:0:
256,192,51982,12,4,53114,1:2:0:0:
172,44,54246,6,0,P|48:136|100:280,1,320,0|4,2:0|2:2,0:0:0:0:
364,104,56510,2,0,P|408:242|284:334,1,320,0|4,2:0|2:2,0:0:0:0:
132,292,58208,1,0,0:0:0:0:
240,176,58774,2,0,B|292:168|316:192|316:192|340:168|396:176,1,160
316,36,59906,1,4,1:2:0:0:
256,192,61038,12,4,62170,1:2:0:0:
273,225,63303,6,0,B|234:199|184:187|126:214|187:344|129:371|89:359|40:328,1,320,0|4,2:0|2:0,0:0:0:0:
240,80,65567,2,0,P|292:44|360:100,1,160,0|0,2:0|2:0,0:0:0:0:
396,252,66699,5,4,1:2:0:0:
268,344,67265,1,0,0:0:0:0:
144,244,67831,1,4,1:2:0:0:
200,96,68397,1,0,0:0:0:0:
360,100,68963,2,0,P|280:116|232:188,1,160,4|0,1:2|0:0,0:0:0:0:
196,332,70095,2,0,P|284:312|324:244,1,160,4|0,1:2|0:0,0:0:0:0:
280,104,71227,6,0,L|440:104,1,160,4|0,1:2|0:0,0:0:0:0:
424,264,72359,2,0,L|264:264,1,160,4|0,1:2|0:0,0:0:0:0:
128,176,73491,1,4,0:0:0:0:
408,232,87075,6,0,P|328:204|304:120,1,160
176,44,88207,5,4,1:2:0:0:
52,144,88773,2,0,P|32:224|88:284,1,160
152,312,89622,2,0,B|208:308|248:344|312:328,1,160
368,276,90471,5,4,1:2:0:0:
420,116,91037,1,0,0:0:0:0:
272,60,91603,2,0,B|100:56|140:216,1,240
144,284,92735,1,0,0:0:0:0:
296,336,93301,1,0,0:0:0:0:
424,240,93867,1,0,0:0:0:0:
308,132,94433,1,0,0:0:0:0:
456,68,94999,5,4,1:2:0:0:
304,20,95565,1,0,0:0:0:0:
152,68,96131,1,0,0:0:0:0:
232,208,96697,1,0,0:0:0:0:
108,312,97263,6,0,P|112:224|68:168,1,160,4|0,1:2|0:0,0:0:0:0:
148,28,98395,2,0,L|232:28,1,79.9999999999999
300,64,98961,1,0,0:0:0:0:
448,124,99527,6,0,P|468:188|444:280,1,160,4|0,1:2|0:0,0:0:0:0:
292,320,100659,1,0,0:0:0:0:
272,244,100942,1,0,0:0:0:0:
348,220,101225,1,0,0:0:0:0:
192,184,101791,6,0,P|216:132|80:44,1,240,4|0,1:2|0:0,0:0:0:0:
104,116,102923,2,0,P|96:164|-4:196,1,160
100,324,104056,1,4,1:2:0:0:
232,232,104622,1,0,0:0:0:0:
352,340,105188,2,0,P|392:320|400:200,1,160
384,56,106320,6,0,P|316:100|228:104,1,160,0|0,0:0|0:0,0:0:0:0:
92,44,107452,1,0,0:0:0:0:
48,108,107735,1,0,0:0:0:0:
116,148,108018,1,0,0:0:0:0:
88,304,108584,6,0,B|164:340|244:300,1,160,4|0,1:2|0:0,0:0:0:0:
400,332,109716,2,0,L|444:256,1,79.9999999999999
480,192,110282,1,0,0:0:0:0:
324,228,110848,2,0,P|292:152|324:72,1,160
160,112,111980,1,4,1:2:0:0:
4,68,112546,1,0,0:0:0:0:
32,224,113112,1,4,1:2:0:0:
188,264,113678,1,0,0:0:0:0:
348,244,114244,1,4,1:2:0:0:
484,156,114810,1,0,0:0:0:0:
352,64,115376,6,0,L|180:64,1,160,4|0,1:2|0:0,0:0:0:0:
72,168,116508,1,4,1:2:0:0:
232,168,117074,1,4,1:2:0:0:
152,256,117640,1,4,0:0:0:0:
