osu file format v12

[General]
AudioFilename: 01 Little Little Princess.mp3
AudioLeadIn: 2007
PreviewTime: 80283
Countdown: 0
SampleSet: Soft
StackLeniency: 0.7
Mode: 0
LetterboxInBreaks: 1
WidescreenStoryboard: 0

[Editor]
DistanceSpacing: 1.2
BeatDivisor: 4
GridSize: 4
TimelineZoom: 4.999997

[Metadata]
Title:Little Little Princess
TitleUnicode:Little Little Princess
Artist:SHRINE 418
ArtistUnicode:SHRINE 418
Creator:etc
Version:Another
Source:Beatmania IIDX 12 Happy Sky
Tags:yuu tokiwa handsome jet wac csy the corrupt
BeatmapID:236728
BeatmapSetID:86429

[Difficulty]
HPDrainRate:7
CircleSize:4
OverallDifficulty:8
ApproachRate:9
SliderMultiplier:1.7
SliderTickRate:1

[Events]
//Background and Video events
0,0,"bg.jpg",0,0
//Break Periods
2,11427,19684
2,73691,86475
//Storyboard Layer 0 (Background)
//Storyboard Layer 1 (Fail)
//Storyboard Layer 2 (Pass)
//Storyboard Layer 3 (Foreground)
//Storyboard Sound Samples
//Background Colour Transformations
3,100,0,0,0

[TimingPoints]
1039,283.018867924528,4,2,1,5,1,0
1039,-100,4,2,1,5,0,0
2171,-100,4,2,1,50,0,0
8821,-100,4,1,1,50,0,0
20284,-200,4,2,1,50,0,0
28774,-100,4,1,1,50,0,0
73491,283.018867924528,6,2,1,50,1,0
73491,-100,6,2,1,50,0,0
87642,-100,6,1,1,50,0,0
88207,283.018867924528,4,1,1,50,1,1
88208,-100,4,1,1,50,0,1
117640,378.071833648393,3,1,1,50,1,0
117642,-100,3,1,1,50,0,0

[HitObjects]
256,153,1039,5,0,0:0:0:0:
298,192,1133,1,0,0:0:0:0:
256,231,1227,1,0,0:0:0:0:
214,192,1322,1,2,0:0:0:0:
37,40,2171,6,0,P|113:92|205:100,1,170,0|2,0:0|0:0,0:0:0:0:
284,60,2595,1,0,0:0:0:0:
236,160,2737,2,0,P|212:248|219:325,1,170,0|2,0:0|0:0,0:0:0:0:
330,224,3161,2,0,P|346:144|344:56,1,170
416,144,3586,2,0,P|448:144|500:136,1,85,2|0,0:0|0:0,0:0:0:0:
344,56,3869,2,0,B|292:52|244:80|176:72,1,170,0|2,0:0|0:0,0:0:0:0:
176,72,4435,6,0,P|192:148|124:232,1,170,0|2,0:0|0:0,0:0:0:0:
336,312,5001,2,0,P|320:236|367:162,1,170,0|2,0:0|0:0,0:0:0:0:
228,300,5425,2,0,L|44:280,1,170
20,176,5850,2,0,L|112:188,1,85,2|0,0:0|0:0,0:0:0:0:
216,200,6133,2,0,P|195:110|227:42,1,170,0|2,0:0|0:0,0:0:0:0:
464,80,6557,5,0,0:0:0:0:
464,80,6628,1,0,0:0:0:0:
464,80,6699,2,0,P|400:120|288:112,1,170,0|2,0:0|0:0,0:0:0:0:
220,52,7123,1,0,0:0:0:0:
112,80,7265,1,0,0:0:0:0:
112,80,7548,5,2,0:0:0:0:
72,184,7689,2,0,P|104:252|72:352,1,170,0|0,0:0|0:0,0:0:0:0:
184,296,8114,2,0,P|192:248|204:212,1,85,2|0,0:0|0:0,0:0:0:0:
228,132,8397,1,0,0:0:0:0:
308,156,8538,1,0,0:0:0:0:
368,216,8680,1,2,0:0:0:0:
376,300,8821,5,0,0:0:0:0:
376,300,8892,1,0,0:0:0:0:
376,300,8963,1,4,0:0:0:0:
468,168,9246,1,0,0:0:0:0:
388,200,9387,1,0,0:0:0:0:
388,200,9458,1,0,0:0:0:0:
388,200,9529,1,0,0:0:0:0:
236,144,9670,1,0,0:0:0:0:
304,192,9812,1,0,0:0:0:0:
196,68,9954,1,4,0:0:0:0:
196,68,10237,5,0,0:0:0:0:
236,144,10378,1,0,0:0:0:0:
240,228,10520,1,0,0:0:0:0:
188,296,10661,1,0,0:0:0:0:
180,300,10732,1,0,0:0:0:0:
172,304,10803,1,0,0:0:0:0:
164,308,10873,1,0,0:0:0:0:
156,312,10944,1,0,0:0:0:0:
148,316,11015,1,0,0:0:0:0:
140,320,11086,1,0,0:0:0:0:
132,324,11156,1,0,0:0:0:0:
124,328,11227,1,4,0:0:0:0:
58,110,20284,6,0,L|148:92,1,85,0|0,0:0|0:0,0:0:0:0:
240,72,20850,1,2,0:0:0:0:
198,165,21133,2,0,P|184:205|184:248,1,85,0|2,0:0|0:0,0:0:0:0:
184,248,21557,1,0,0:0:0:0:
184,248,21699,1,2,0:0:0:0:
296,352,21982,2,0,P|315:270|304:176,1,170,0|2,0:0|0:0,0:0:0:0:
428,80,22831,2,0,P|409:162|420:256,1,170,0|2,0:0|0:0,0:0:0:0:
308,184,23680,5,2,0:0:0:0:
208,212,23963,1,0,0:0:0:0:
128,148,24246,1,2,0:0:0:0:
44,208,24529,1,0,0:0:0:0:
36,108,24812,2,0,L|32:60,2,42.5,2|0|2,0:0|0:0|0:0,0:0:0:0:
128,148,25378,2,0,P|136:232|112:313,1,170,0|2,0:0|0:0,0:0:0:0:
256,196,26227,2,0,P|248:116|274:31,1,170,0|2,0:0|0:0,0:0:0:0:
360,88,27076,2,0,L|403:82,2,42.5,2|0|2,0:0|0:0|0:0,0:0:0:0:
336,244,27642,1,0,0:0:0:0:
336,244,27925,6,0,L|248:256,1,85,2|2,0:0|0:0,0:0:0:0:
252,256,28350,1,0,0:0:0:0:
252,256,28491,1,0,0:0:0:0:
100,332,28774,5,0,0:0:0:0:
80,328,28845,1,0,0:0:0:0:
60,316,28916,1,0,0:0:0:0:
44,300,28987,1,0,0:0:0:0:
32,280,29057,1,0,0:0:0:0:
28,260,29128,1,0,0:0:0:0:
28,240,29199,1,0,0:0:0:0:
36,220,29270,1,0,0:0:0:0:
48,204,29340,1,0,0:0:0:0:
68,192,29411,1,0,0:0:0:0:
88,184,29482,1,0,0:0:0:0:
108,176,29553,1,0,0:0:0:0:
132,168,29623,6,0,L|184:152,1,42.5
224,54,29765,2,0,L|184:68,1,42.5
264,156,29906,2,0,L|256:197,1,42.5
332,68,30048,2,0,L|340:26,1,42.5
372,176,30189,2,0,L|410:193,1,42.5
430,102,30331,2,0,L|472:92,1,42.5
299,185,30472,6,0,P|285:225|284:268,1,85,4|0,0:0|0:0,0:0:0:0:
168,196,30755,2,0,P|116:212|85:212,1,85
200,48,31038,2,0,P|251:56|283:68,1,85
424,168,31321,2,0,P|380:184|342:190,1,85
92,184,31604,2,0,P|110:230|115:266,1,85
100,304,31817,2,0,L|56:320,1,42.5
216,340,32029,2,0,P|224:296|241:259,1,85
356,104,32312,2,0,P|404:119|448:116,1,85
308,196,32595,5,0,0:0:0:0:
308,196,32666,1,0,0:0:0:0:
308,196,32737,2,0,P|304:220|304:280,1,85,0|0,0:0|0:0,0:0:0:0:
416,164,33020,2,0,P|388:128|356:104,1,85
348,344,33303,1,0,0:0:0:0:
460,284,33444,1,0,0:0:0:0:
228,296,33586,1,0,0:0:0:0:
340,240,33727,1,0,0:0:0:0:
104,256,33869,6,0,P|100:220|84:174,1,85
4,96,34152,2,0,P|48:88|96:64,1,85
188,28,34435,1,0,0:0:0:0:
296,52,34576,1,0,0:0:0:0:
364,140,34718,1,0,0:0:0:0:
380,180,34788,1,0,0:0:0:0:
380,224,34859,1,0,0:0:0:0:
360,260,34930,1,0,0:0:0:0:
324,284,35001,6,0,L|240:312,1,85,4|0,0:0|0:0,0:0:0:0:
77,316,35284,2,0,P|121:356|144:364,1,85
244,312,35567,2,0,P|259:270|263:230,1,85
328,140,35850,2,0,L|412:128,1,85
132,13,36133,2,0,P|152:121|152:180,1,170
224,264,36557,1,0,0:0:0:0:
160,356,36699,2,0,P|108:372|52:376,1,85
32,276,36982,2,0,P|84:260|115:257,1,85
224,264,37265,6,0,P|300:292|388:295,1,170,0|0,0:0|0:0,0:0:0:0:
472,240,37689,1,0,0:0:0:0:
472,240,37760,1,0,0:0:0:0:
472,240,37831,1,0,0:0:0:0:
476,140,37972,1,0,0:0:0:0:
396,76,38114,2,0,P|380:104|364:164,1,85
323,305,38397,2,0,P|355:285|388:252,1,85
256,196,38680,2,0,P|228:168|168:140,1,85
152,248,38963,2,0,P|180:276|240:304,1,85
56,72,39246,1,0,0:0:0:0:
48,172,39387,1,0,0:0:0:0:
48,172,39458,1,0,0:0:0:0:
48,172,39529,1,4,0:0:0:0:
140,132,39670,5,0,0:0:0:0:
56,72,39812,1,0,0:0:0:0:
116,284,39954,1,0,0:0:0:0:
252,168,40095,2,0,P|273:145|297:97,1,85
380,260,40378,2,0,P|389:291|417:335,1,85
372,144,40661,5,0,0:0:0:0:
444,60,40803,1,0,0:0:0:0:
444,60,40873,1,0,0:0:0:0:
444,60,40944,1,0,0:0:0:0:
372,144,41086,1,0,0:0:0:0:
268,176,41227,2,0,P|224:176|184:156,1,85
52,36,41510,2,0,P|87:67|105:101,1,85
172,328,41793,5,0,0:0:0:0:
104,276,41935,1,0,0:0:0:0:
88,192,42076,1,0,0:0:0:0:
120,112,42218,1,0,0:0:0:0:
200,140,42359,2,0,P|224:164|244:212,1,85
397,12,42642,2,0,P|383:38|372:92,1,85
364,176,42925,5,0,0:0:0:0:
440,212,43067,1,0,0:0:0:0:
452,128,43208,1,0,0:0:0:0:
372,92,43350,1,0,0:0:0:0:
252,272,43491,2,0,P|248:324|256:356,1,85
140,260,43774,2,0,P|148:228|144:175,1,85
240,128,44057,6,0,P|136:160|75:161,1,170,4|0,0:0|0:0,0:0:0:0:
180,52,44482,2,0,P|280:36|356:40,1,170
404,104,44906,1,0,0:0:0:0:
340,164,45048,1,0,0:0:0:0:
340,164,45189,2,0,P|336:220|352:336,1,170
267,313,45614,2,0,L|100:340,1,170
100,340,46038,1,0,0:0:0:0:
284,200,46180,1,0,0:0:0:0:
284,200,46321,2,0,L|453:175,1,170,0|0,0:0|0:0,0:0:0:0:
335,71,46746,6,0,P|343:123|344:156,1,85
460,260,47029,2,0,B|448:212|452:176,1,85
208,344,47312,1,0,0:0:0:0:
208,344,47454,6,0,P|160:336|28:332,1,170,0|0,0:0|0:0,0:0:0:0:
84,248,47878,2,0,P|48:248|-1:241,1,85
80,60,48161,2,0,P|92:96|96:152,1,85
192,268,48444,2,0,P|204:232|208:183,1,85,0|0,0:0|0:0,0:0:0:0:
204,56,48727,5,0,0:0:0:0:
204,56,48798,1,0,0:0:0:0:
204,56,48869,1,0,0:0:0:0:
240,152,49010,1,0,0:0:0:0:
336,184,49152,1,0,0:0:0:0:
483,84,49293,2,0,P|435:100|408:120,1,85
300,320,49576,2,0,P|348:304|376:285,1,85
248,164,49859,5,0,0:0:0:0:
248,164,49930,1,0,0:0:0:0:
248,164,50001,2,0,L|128:152,1,85
420,300,50284,1,0,0:0:0:0:
376,84,50425,1,0,0:0:0:0:
292,284,50567,1,0,0:0:0:0:
472,192,50708,1,0,0:0:0:0:
116,328,50850,6,0,P|96:280|76:248,1,85
159,112,51133,2,0,P|150:157|148:200,1,85
60,120,51416,2,0,P|28:92|0:52,1,85
240,64,51699,2,0,P|283:48|328:40,1,85
416,88,51982,5,0,0:0:0:0:
416,88,52123,1,0,0:0:0:0:
440,196,52265,1,0,0:0:0:0:
440,196,52406,1,0,0:0:0:0:
380,288,52548,2,0,L|332:296,1,42.5
324,336,52689,2,0,L|272:328,1,42.5
244,352,52831,2,0,L|200:332,1,42.5
168,316,52972,1,0,0:0:0:0:
64,172,53114,5,4,0:0:0:0:
64,172,53255,1,0,0:0:0:0:
112,92,53397,2,0,L|216:76,1,85
240,180,53680,1,0,0:0:0:0:
240,180,53821,1,0,0:0:0:0:
344,212,53963,1,0,0:0:0:0:
344,212,54104,1,0,0:0:0:0:
420,132,54246,2,0,L|512:108,1,85
364,308,54529,2,0,L|280:332,1,85
148,344,54812,2,0,L|158:260,1,85
138,268,55024,1,0,0:0:0:0:
118,276,55095,2,0,L|134:160,1,85
189,33,55378,6,0,L|272:52,1,85,4|0,0:0|0:0,0:0:0:0:
272,52,55590,1,0,0:0:0:0:
272,52,55661,1,0,0:0:0:0:
348,132,55803,1,0,0:0:0:0:
388,28,55944,1,0,0:0:0:0:
224,156,56086,1,0,0:0:0:0:
348,132,56227,1,0,0:0:0:0:
224,156,56369,1,0,0:0:0:0:
440,208,56510,2,0,P|448:164|459:125,1,85
372,316,56793,2,0,P|360:288|346:236,1,85
280,148,57076,6,0,P|248:176|208:200,1,85
32,124,57359,2,0,P|67:136|111:156,1,85
295,317,57642,2,0,P|180:280|136:260,1,170,4|0,0:0|0:0,0:0:0:0:
136,260,58067,1,0,0:0:0:0:
176,48,58208,2,0,P|196:91|208:127,1,85
232,236,58491,1,0,0:0:0:0:
232,236,58633,1,0,0:0:0:0:
332,192,58774,6,0,P|360:176|399:141,1,85,4|0,0:0|0:0,0:0:0:0:
232,236,59057,1,0,0:0:0:0:
280,336,59199,1,0,0:0:0:0:
280,336,59270,1,0,0:0:0:0:
280,336,59340,1,0,0:0:0:0:
396,380,59482,2,0,P|393:353|381:297,1,85
332,192,59765,1,0,0:0:0:0:
232,236,59906,2,0,P|180:260|72:292,1,170,4|0,0:0|0:0,0:0:0:0:
84,208,60331,2,0,P|32:196|0:192,1,85
72,292,60614,6,0,P|132:304|164:304,1,85
264,280,60897,1,0,0:0:0:0:
264,280,60968,1,0,0:0:0:0:
264,280,61038,1,0,0:0:0:0:
372,112,61180,1,0,0:0:0:0:
224,176,61321,1,0,0:0:0:0:
432,244,61463,1,0,0:0:0:0:
224,176,61604,1,0,0:0:0:0:
432,244,61746,2,0,P|444:200|448:160,1,85
418,45,62029,2,0,P|444:64|492:88,1,85,0|4,0:0|0:0,0:0:0:0:
360,124,62312,5,0,0:0:0:0:
360,124,62383,1,0,0:0:0:0:
360,124,62454,1,0,0:0:0:0:
180,200,62595,2,0,P|213:193|261:173,1,85
88,136,62878,2,0,P|56:120|16:88,1,85
76,240,63161,2,0,L|64:324,1,85
76,240,63444,5,0,0:0:0:0:
88,136,63586,1,0,0:0:0:0:
144,320,63727,1,0,0:0:0:0:
252,188,63869,1,0,0:0:0:0:
312,348,64010,1,0,0:0:0:0:
312,348,64081,1,0,0:0:0:0:
312,348,64152,1,0,0:0:0:0:
240,272,64293,1,0,0:0:0:0:
372,196,64435,6,0,P|404:200|456:212,1,85,4|0,0:0|0:0,0:0:0:0:
332,92,64718,2,0,P|348:64|367:14,1,85
224,160,65001,2,0,P|208:188|188:237,1,85
112,340,65284,2,0,P|104:308|76:244,1,85
88,128,65567,2,0,L|8:97,1,85
176,32,65850,2,0,L|264:68,1,85
240,188,66133,6,0,P|236:236|225:271,1,85
360,136,66416,2,0,P|376:88|400:56,1,85
256,64,66699,1,4,0:0:0:0:
240,188,66840,1,0,0:0:0:0:
240,188,66911,1,0,0:0:0:0:
240,188,66982,1,0,0:0:0:0:
360,136,67123,2,0,P|392:160|420:194,1,85
319,356,67406,2,0,P|316:320|320:272,1,85
112,200,67689,6,0,P|60:204|28:208,1,85,0|4,0:0|0:0,0:0:0:0:
240,188,67972,1,0,0:0:0:0:
240,188,68043,1,0,0:0:0:0:
240,188,68114,1,0,0:0:0:0:
28,105,68255,2,0,P|84:113|112:120,1,85
320,48,68538,6,0,P|268:64|236:84,1,85,0|0,0:0|0:0,0:0:0:0:
168,180,68821,1,0,0:0:0:0:
176,308,68963,1,4,0:0:0:0:
168,180,69104,1,0,0:0:0:0:
168,180,69175,1,0,0:0:0:0:
168,180,69246,1,0,0:0:0:0:
92,72,69387,2,0,P|68:48|12:12,1,85
132,256,69670,2,0,P|152:204|168:180,1,85
292,28,69954,5,0,0:0:0:0:
324,40,70024,1,0,0:0:0:0:
356,52,70095,2,0,L|440:28,1,85,4|0,0:0|0:0,0:0:0:0:
428,152,70378,2,0,L|509:128,1,85
424,252,70661,2,0,L|342:276,1,85
300,288,70873,1,0,0:0:0:0:
260,300,70944,2,0,P|308:328|344:336,1,85
496,334,71227,6,0,P|456:310|420:300,1,85,4|0,0:0|0:0,0:0:0:0:
420,300,71439,1,0,0:0:0:0:
420,300,71510,1,0,0:0:0:0:
308,208,71652,2,0,P|320:148|320:120,1,85
200,12,71935,2,0,P|188:68|188:96,1,85
152,340,72218,2,0,P|148:300|132:248,1,85,0|4,0:0|0:0,0:0:0:0:
88,128,72501,5,0,0:0:0:0:
88,128,72571,1,0,0:0:0:0:
88,128,72642,2,0,P|69:129|5:141,1,85
220,178,72925,2,0,P|272:190|304:192,1,85
468,76,73208,2,0,P|436:84|390:107,1,85
304,192,73491,1,4,0:0:0:0:
256,260,87075,5,0,0:0:0:0:
332,192,87217,1,0,0:0:0:0:
256,124,87358,1,0,0:0:0:0:
180,192,87500,1,0,0:0:0:0:
256,328,87641,5,0,0:0:0:0:
112,192,87783,1,0,0:0:0:0:
256,56,87924,1,0,0:0:0:0:
400,192,88066,1,0,0:0:0:0:
256,192,88207,2,0,P|232:280|244:372,1,170,4|0,0:0|0:0,0:0:0:0:
340,280,88631,5,0,0:0:0:0:
364,180,88773,1,0,0:0:0:0:
300,100,88914,1,0,0:0:0:0:
196,100,89056,1,0,0:0:0:0:
180,200,89197,2,0,P|204:272|204:312,1,85
32,348,89480,2,0,P|67:324|92:290,1,85
84,104,89763,2,0,P|72:144|72:187,1,85
276,80,90046,1,0,0:0:0:0:
276,80,90117,1,0,0:0:0:0:
276,80,90188,2,0,P|237:96|194:100,1,85
400,104,90471,5,4,0:0:0:0:
444,132,90541,1,0,0:0:0:0:
464,180,90612,1,0,0:0:0:0:
456,232,90683,1,0,0:0:0:0:
424,272,90754,1,0,0:0:0:0:
376,288,90824,1,0,0:0:0:0:
328,304,90895,1,0,0:0:0:0:
280,316,90966,1,0,0:0:0:0:
232,328,91037,5,0,0:0:0:0:
252,280,91107,1,0,0:0:0:0:
256,228,91178,1,0,0:0:0:0:
244,180,91249,1,0,0:0:0:0:
212,140,91320,1,0,0:0:0:0:
164,132,91390,1,0,0:0:0:0:
116,148,91461,1,0,0:0:0:0:
80,184,91532,1,0,0:0:0:0:
60,232,91603,6,0,L|40:136,2,85,4|0|0,0:0|0:0|0:0,0:0:0:0:
32,328,92027,1,0,0:0:0:0:
32,328,92169,1,0,0:0:0:0:
132,344,92310,1,0,0:0:0:0:
132,344,92381,1,0,0:0:0:0:
132,344,92452,2,0,L|224:332,1,85
420,316,92735,5,0,0:0:0:0:
416,264,92806,1,0,0:0:0:0:
428,216,92876,1,0,0:0:0:0:
452,172,92947,1,0,0:0:0:0:
488,136,93018,1,0,0:0:0:0:
484,84,93089,1,0,0:0:0:0:
456,44,93159,1,0,0:0:0:0:
408,28,93230,1,0,0:0:0:0:
356,36,93301,2,0,L|288:56,5,42.5
300,128,93725,5,0,0:0:0:0:
324,172,93796,1,0,0:0:0:0:
328,224,93867,1,0,0:0:0:0:
308,272,93938,1,0,0:0:0:0:
268,300,94008,1,0,0:0:0:0:
220,320,94079,1,0,0:0:0:0:
168,320,94150,1,0,0:0:0:0:
116,312,94221,1,0,0:0:0:0:
80,280,94291,1,0,0:0:0:0:
60,232,94362,1,0,0:0:0:0:
68,180,94433,2,0,L|76:124,5,42.5
164,60,94857,6,0,L|156:116,1,42.5
148,168,94999,1,0,0:0:0:0:
212,192,95070,2,0,L|284:176,1,42.5
316,168,95211,1,0,0:0:0:0:
376,152,95282,2,0,B|452:132,1,42.5
480,124,95423,1,0,0:0:0:0:
484,208,95494,2,0,B|428:224,1,42.5
380,236,95636,1,0,0:0:0:0:
316,252,95707,2,0,L|236:272,1,42.5
212,276,95848,1,0,0:0:0:0:
148,292,95919,2,0,L|80:308,1,42.5
44,316,96060,1,0,0:0:0:0:
60,224,96131,5,0,0:0:0:0:
112,228,96202,1,0,0:0:0:0:
152,256,96273,1,0,0:0:0:0:
176,300,96343,1,0,0:0:0:0:
212,336,96414,1,0,0:0:0:0:
264,344,96485,1,0,0:0:0:0:
312,332,96556,1,0,0:0:0:0:
356,308,96626,1,0,0:0:0:0:
384,264,96697,1,0,0:0:0:0:
396,216,96768,1,0,0:0:0:0:
392,164,96839,2,0,L|336:152,1,42.5
324,112,96980,2,0,L|248:96,1,42.5
264,56,97122,2,0,L|208:44,1,42.5
172,64,97263,5,0,0:0:0:0:
80,152,97405,1,0,0:0:0:0:
96,328,97546,2,0,P|116:280|124:240,1,85
200,172,97829,2,0,P|228:212|260:240,1,85
80,152,98112,2,0,P|32:172|-12:180,1,85
200,172,98395,1,0,0:0:0:0:
152,72,98537,1,0,0:0:0:0:
80,152,98678,1,0,0:0:0:0:
44,48,98820,1,0,0:0:0:0:
200,172,98961,5,0,0:0:0:0:
196,24,99103,1,0,0:0:0:0:
196,24,99173,1,0,0:0:0:0:
196,24,99244,1,0,0:0:0:0:
128,100,99386,1,0,0:0:0:0:
200,172,99527,6,0,L|304:152,1,85,4|0,0:0|0:0,0:0:0:0:
268,232,99740,1,0,0:0:0:0:
268,232,99810,2,0,L|244:344,1,85
400,240,100093,2,0,L|416:156,1,85
348,52,100376,2,0,L|430:38,1,85
140,92,100659,2,0,L|58:68,1,85
216,248,100942,2,0,P|208:284|216:332,1,85
292,160,101225,5,0,0:0:0:0:
208,60,101367,1,0,0:0:0:0:
208,60,101438,1,0,0:0:0:0:
208,60,101508,1,0,0:0:0:0:
92,112,101650,1,0,0:0:0:0:
104,240,101791,2,0,P|180:304|268:312,1,170,4|0,0:0|0:0,0:0:0:0:
332,316,102216,1,0,0:0:0:0:
284,248,102357,2,0,P|308:156|364:100,1,170
440,84,102782,5,0,0:0:0:0:
388,16,102923,2,0,P|348:12|216:8,1,170
132,20,103348,1,0,0:0:0:0:
92,92,103490,2,0,P|72:192|72:268,1,170
152,352,103914,2,0,P|160:308|156:268,1,85,0|4,0:0|0:0,0:0:0:0:
249,132,104197,2,0,P|208:152|180:180,1,85
83,310,104480,2,0,P|120:296|156:268,1,85
272,56,104763,6,0,P|232:68|196:95,1,85
100,232,105046,1,0,0:0:0:0:
100,232,105117,1,0,0:0:0:0:
100,232,105188,1,0,0:0:0:0:
112,148,105329,1,0,0:0:0:0:
80,68,105471,1,0,0:0:0:0:
8,20,105612,1,0,0:0:0:0:
172,40,105754,5,0,0:0:0:0:
220,48,105824,1,0,0:0:0:0:
272,56,105895,1,0,0:0:0:0:
324,64,105966,1,0,0:0:0:0:
376,72,106037,1,0,0:0:0:0:
424,80,106107,1,0,0:0:0:0:
476,88,106178,1,0,0:0:0:0:
452,232,106320,5,4,0:0:0:0:
452,232,106461,1,0,0:0:0:0:
408,304,106603,2,0,P|352:320|320:320,1,85
317,235,106886,2,0,P|257:215|240:204,1,85
292,136,107169,2,0,P|264:100|252:60,1,85
216,228,107452,6,0,P|188:252|124:268,1,85
312,104,107735,2,0,P|340:84|390:73,1,85
208,128,108018,1,0,0:0:0:0:
132,92,108159,1,0,0:0:0:0:
132,92,108230,1,0,0:0:0:0:
132,92,108301,1,0,0:0:0:0:
84,20,108442,1,0,0:0:0:0:
20,100,108584,6,0,P|28:144|28:184,1,85,4|0,0:0|0:0,0:0:0:0:
0,284,108796,1,0,0:0:0:0:
0,284,108867,2,0,L|80:248,1,85
212,220,109150,2,0,P|228:252|240:300,1,85
176,136,109433,1,0,0:0:0:0:
328,64,109574,1,0,0:0:0:0:
252,100,109716,1,0,0:0:0:0:
368,136,109857,1,0,0:0:0:0:
292,176,109999,1,0,0:0:0:0:
444,100,110140,1,0,0:0:0:0:
436,340,110282,5,0,0:0:0:0:
392,340,110353,1,0,0:0:0:0:
352,328,110423,1,0,0:0:0:0:
316,308,110494,1,0,0:0:0:0:
288,276,110565,1,0,0:0:0:0:
248,160,110706,1,0,0:0:0:0:
248,160,110848,1,4,0:0:0:0:
144,316,110990,1,0,0:0:0:0:
144,316,111060,1,0,0:0:0:0:
144,316,111131,2,0,P|168:276|176:232,1,85
52,56,111414,6,0,P|64:88|104:128,1,85
76,232,111697,2,0,P|35:272|11:284,1,85
220,32,111980,1,4,0:0:0:0:
264,132,112122,1,0,0:0:0:0:
264,132,112192,1,0,0:0:0:0:
264,132,112263,1,0,0:0:0:0:
364,180,112405,2,0,P|400:200|444:204,1,85
188,320,112688,2,0,P|208:280|215:241,1,85
132,168,112971,1,0,0:0:0:0:
172,48,113112,5,4,0:0:0:0:
292,92,113254,1,0,0:0:0:0:
292,92,113324,1,0,0:0:0:0:
292,92,113395,1,0,0:0:0:0:
100,160,113537,2,0,P|52:172|16:168,1,85
288,364,113820,2,0,P|300:324|302:281,1,85
192,168,114103,1,0,0:0:0:0:
192,168,114244,6,0,P|172:204|168:248,1,85,0|4,0:0|0:0,0:0:0:0:
264,268,114527,1,0,0:0:0:0:
264,268,114598,1,0,0:0:0:0:
264,268,114669,1,0,0:0:0:0:
120,344,114810,2,0,P|88:362|41:372,1,85
364,240,115093,2,0,P|383:259|435:284,1,85
208,132,115376,5,4,0:0:0:0:
128,32,115518,1,0,0:0:0:0:
128,32,115589,1,0,0:0:0:0:
128,32,115659,1,0,0:0:0:0:
80,172,115801,2,0,P|32:168|0:152,1,85
206,131,116084,2,0,P|252:136|288:152,1,85
384,36,116367,1,0,0:0:0:0:
404,44,116438,1,0,0:0:0:0:
424,52,116508,6,0,P|416:84|412:140,1,85
436,248,116791,2,0,P|473:271|513:283,1,85,4|0,0:0|0:0,0:0:0:0:
332,288,117074,2,0,P|284:300|252:320,1,85,4|0,0:0|0:0,0:0:0:0:
152,364,117357,1,0,0:0:0:0:
120,352,117428,1,0,0:0:0:0:
96,328,117499,1,0,0:0:0:0:
80,296,117570,1,0,0:0:0:0:
76,264,117640,1,4,0:0:0:0:
