osu file format v9

[General]
AudioFilename: Sonic Hispeed Omega - THE BEST OF TOHO TEMPEST Disc2 - 07 - Plain Asia Guardian of the Village.mp3
AudioLeadIn: 2000
PreviewTime: 191859
Countdown: 0
SampleSet: Normal
StackLeniency: 0.7
Mode: 1
LetterboxInBreaks: 1

[Editor]
Bookmarks: 92710,103620
DistanceSpacing: 0.2
BeatDivisor: 4
GridSize: 4

[Metadata]
Title:Plain Asia ~ Guardian of the Village
Artist:SHO
Creator:Kite
Version:lepidon! - Taiko Oni
Source:Touhou
Tags:keine kamishirasawa IN zun imperishable night divine beast metal arrange boss battle theme eiyashou sonic hispeed omega lepidopodus

[Difficulty]
HPDrainRate:4
CircleSize:5
OverallDifficulty:5
ApproachRate:5
SliderMultiplier:1.4
SliderTickRate:1

[Events]
//Background and Video events
0,0,"guardian.jpg"
//Break Periods
//Storyboard Layer 0 (Background)
//Storyboard Layer 1 (Fail)
//Storyboard Layer 2 (Pass)
//Storyboard Layer 3 (Foreground)
//Storyboard Sound Samples
//Background Colour Transformations
3,100,163,162,255

[TimingPoints]
96,483.870967741935,4,1,1,70,1,0
14854,-100,4,1,1,80,0,0
36105,340.909090909091,4,1,1,80,1,0
37426,-100,4,1,1,90,0,0
59968,340.909090909091,4,1,1,90,1,0
115877,-100,4,1,1,100,0,1
148605,-100,4,1,1,90,0,0
159034,483.870967741935,4,1,1,60,1,0
159517,483.870967741935,4,1,1,60,1,0
174759,-100,4,1,1,70,0,0
190485,340.909090909091,4,1,1,90,1,0
191848,-100,4,1,1,100,0,1
246394,-100,4,1,1,90,0,0

[Colours]
Combo1 : 21,153,223
Combo2 : 31,184,100

[HitObjects]
133,198,96,1,8
160,200,579,1,0
187,201,1063,1,0
214,203,1547,1,0
237,218,2031,1,8
262,228,2515,1,0
289,224,2999,1,0
315,215,3483,1,8
340,204,3966,1,8
356,228,4450,1,0
340,252,4934,1,0
316,268,5418,1,0
340,252,5902,1,8
360,236,6386,1,0
376,216,6870,1,8
380,188,7354,1,0
376,160,7837,5,8
404,168,8321,1,0
404,196,8805,1,0
388,220,9289,1,0
404,196,9773,1,8
412,168,10257,1,0
416,196,10741,1,0
444,188,11225,1,8
428,212,11708,1,8
404,196,12192,1,0
384,216,12676,1,0
360,232,13160,1,0
380,212,13644,1,8
404,196,14128,1,0
412,224,14612,1,0
384,228,15095,1,0
392,220,15337,1,8
384,208,15579,5,0
356,208,16063,1,0
344,204,16305,1,0
356,196,16547,1,8
368,188,16789,1,0
380,184,17031,1,0
392,180,17273,1,8
404,180,17515,1,0
429,192,17999,1,8
437,203,18241,1,0
429,214,18483,1,0
417,222,18725,1,0
405,213,18966,1,8
398,187,19450,1,0
379,207,19934,1,0
369,217,20176,1,0
367,203,20418,1,8
369,189,20660,1,8
381,183,20902,1,0
394,179,21144,1,8
406,185,21386,1,0
370,228,22354,1,0
352,249,22837,1,0
384,208,23321,5,0
356,208,23805,1,0
344,204,24047,1,0
356,196,24289,1,8
368,188,24531,1,0
380,184,24773,1,0
392,180,25015,1,8
404,180,25257,1,0
429,192,25741,1,8
437,203,25983,1,0
429,214,26225,1,0
417,222,26467,1,0
405,213,26708,1,8
256,192,27192,12,0,34934
196,177,36105,5,8
223,181,36445,1,8
257,189,36786,1,8
270,187,36957,1,0
283,182,37127,1,8
301,161,37468,5,0
328,164,37809,1,8
352,176,38150,1,0
379,168,38491,1,8
355,182,38832,1,0
343,190,39002,1,8
338,203,39173,1,0
350,208,39343,1,0
363,210,39514,1,0
383,191,39855,1,8
404,173,40195,1,8
417,171,40366,1,0
430,166,40536,1,8
443,163,40707,1,0
439,176,40877,1,8
435,189,41048,1,8
433,195,41133,1,0
430,201,41218,1,0
417,171,41389,1,8
403,174,41559,1,0
389,178,41730,1,0
375,182,41900,1,0
382,180,41985,1,0
361,187,42070,1,0
347,192,42241,1,0
320,200,42582,1,0
332,207,42752,1,8
339,219,42923,5,0
364,207,43264,1,8
385,188,43605,1,0
407,172,43945,1,8
426,151,44286,1,0
429,137,44457,1,8
436,148,44627,1,0
436,162,44798,1,0
435,175,44968,1,0
429,202,45309,1,8
421,229,45650,1,8
408,222,45820,1,0
399,210,45991,1,8
387,192,46161,1,0
379,180,46332,1,8
378,173,46417,1,8
381,167,46502,1,0
376,172,46587,1,0
382,168,46673,1,8
388,155,46843,1,0
401,150,47014,1,8
414,153,47184,1,0
420,155,47269,1,0
426,156,47355,1,8
433,167,47525,1,0
435,173,47610,1,0
438,179,47695,1,8
424,181,47866,1,0
417,182,47951,1,0
410,183,48036,1,0
403,184,48122,1,0
396,185,48207,1,0
389,186,48292,1,0
382,186,48377,5,0
376,213,48718,1,8
396,231,49059,1,0
412,208,49400,1,8
398,211,49570,1,0
407,200,49741,1,0
419,193,49911,1,8
431,187,50082,1,0
443,180,50252,1,0
456,176,50423,1,0
428,176,50764,1,0
416,168,50934,1,8
419,193,51105,1,0
424,220,51445,1,8
420,192,51786,1,8
408,196,51957,1,0
396,204,52127,1,0
408,196,52298,1,8
404,184,52468,1,8
396,196,52639,1,0
392,200,52724,1,0
388,204,52809,1,0
392,192,52980,1,8
380,196,53150,1,8
372,200,53235,1,8
364,204,53320,1,8
356,208,53406,1,8
348,208,53491,1,0
324,200,53832,5,0
352,188,54173,1,8
376,172,54514,1,0
404,164,54855,1,8
416,160,55025,1,0
428,164,55195,1,0
436,176,55366,1,8
432,188,55536,1,0
444,180,55707,1,0
456,176,55877,1,0
436,196,56218,1,0
428,184,56389,1,8
416,176,56559,1,0
420,148,56900,1,8
412,120,57241,1,8
424,128,57411,1,0
432,140,57582,1,0
444,148,57752,1,8
440,160,57923,1,8
440,172,58093,1,0
440,180,58178,1,0
440,188,58264,1,0
428,192,58434,1,8
424,180,58605,1,8
376,200,59286,1,8
372,196,59372,1,0
364,192,59457,1,0
356,188,59542,1,0
352,184,59627,1,8
336,208,59968,5,0
332,212,60053,1,0
328,216,60138,1,0
320,220,60223,1,0
340,216,60308,1,8
352,220,60479,1,0
356,224,60564,1,0
360,228,60649,1,0
364,232,60735,1,0
368,228,60820,1,8
380,224,60990,1,0
380,232,61075,1,0
384,212,61161,1,8
370,209,61331,1,0
363,207,61416,1,0
356,206,61502,1,0
364,195,61672,1,12
363,167,62013,1,0
363,167,62098,1,0
369,163,62183,1,0
382,166,62354,1,12
336,208,62695,1,0
332,212,62780,1,0
328,216,62865,1,0
320,220,62950,1,0
340,216,63035,1,8
352,220,63206,1,0
356,224,63291,1,0
360,228,63376,1,0
364,232,63462,1,0
368,228,63547,1,8
380,224,63717,1,0
380,232,63802,1,0
384,212,63888,1,8
370,209,64058,1,0
363,207,64143,1,0
356,206,64229,1,0
364,195,64399,1,12
363,167,64740,1,8
363,167,64825,1,0
369,163,64910,1,0
382,166,65081,1,12
356,176,65422,5,0
349,178,65507,1,0
342,180,65593,1,0
335,182,65678,1,0
336,188,65763,1,8
322,190,65933,1,0
315,191,66019,1,0
308,192,66104,1,0
301,193,66189,1,0
307,191,66274,1,8
319,197,66445,1,0
325,200,66530,1,0
331,200,66615,1,8
331,201,66786,1,0
324,203,66871,1,0
317,206,66956,1,0
331,206,67127,1,12
358,207,67468,1,0
364,209,67553,1,0
370,211,67638,1,0
381,219,67808,1,12
373,191,68149,1,0
375,184,68235,1,0
379,178,68320,1,0
384,173,68405,1,0
390,169,68490,1,8
397,181,68661,1,0
402,181,68831,1,8
405,175,68916,1,8
409,179,69002,1,0
411,185,69087,1,0
410,191,69172,1,0
408,197,69257,1,0
405,203,69343,1,0
413,214,69513,1,8
414,220,69598,1,8
414,226,69683,1,0
417,239,69854,1,4
398,259,70195,1,8
392,263,70280,1,8
385,259,70365,1,0
374,249,70536,1,12
349,235,70877,5,0
342,231,70962,1,0
335,227,71047,1,0
328,223,71132,1,0
332,217,71218,1,8
343,209,71388,1,0
348,204,71473,1,0
352,198,71558,1,0
356,192,71644,1,0
359,186,71729,1,0
362,179,71814,1,0
368,176,71899,1,8
354,179,72070,1,0
347,180,72155,1,0
340,181,72240,1,0
326,186,72411,1,0
319,188,72496,1,0
324,192,72581,1,8
334,201,72752,1,0
339,206,72837,1,0
345,206,72922,1,8
351,207,73007,1,0
357,209,73093,1,0
363,211,73178,1,0
369,208,73263,1,8
357,215,73433,1,0
354,221,73519,1,0
388,212,73604,1,0
393,208,73689,1,0
399,206,73774,1,0
405,208,73860,1,0
411,205,73945,1,8
419,194,74115,1,0
420,187,74200,1,0
417,180,74286,1,0
411,175,74371,1,0
405,171,74456,1,0
398,167,74541,1,0
391,170,74627,1,8
395,183,74797,1,0
388,182,74882,1,0
405,173,74968,1,8
413,183,75138,1,0
415,189,75223,1,0
420,193,75308,1,8
428,204,75479,1,0
430,210,75564,1,0
433,203,75649,1,8
435,196,75735,1,8
441,199,75820,1,0
432,210,75990,1,12
349,235,76331,5,0
342,231,76416,1,0
335,227,76501,1,0
328,223,76586,1,0
332,217,76672,1,8
343,209,76842,1,0
348,204,76927,1,0
352,198,77014,1,0
356,192,77098,1,0
359,186,77183,1,0
362,179,77268,1,0
368,176,77355,1,8
354,179,77524,1,0
347,180,77609,1,0
340,181,77694,1,0
326,186,77865,1,0
319,188,77950,1,0
324,192,78035,1,8
334,201,78206,1,0
339,206,78291,1,0
345,206,78376,1,8
351,207,78461,1,0
357,209,78547,1,0
363,211,78632,1,0
369,208,78717,1,8
357,215,78889,1,0
354,221,78973,1,0
388,212,79058,1,0
393,208,79143,1,0
399,206,79230,1,0
405,208,79314,1,0
411,205,79399,1,8
419,194,79569,1,0
420,187,79656,1,0
417,180,79740,1,0
411,175,79825,1,0
405,171,79910,1,0
398,167,79997,1,0
391,170,80081,1,8
378,177,80252,1,0
371,180,80337,1,0
376,184,80422,1,8
381,196,80593,1,0
381,202,80678,1,0
385,207,80763,1,8
391,219,80933,1,0
393,225,81019,1,0
399,223,81104,1,8
405,220,81189,1,8
409,214,81274,1,0
412,207,81360,1,0
413,200,81445,1,8
413,193,81530,1,8
415,199,81615,1,0
415,212,81786,5,4
433,159,82468,1,8
425,214,83149,1,0
420,227,83320,1,0
399,246,83661,1,0
393,250,83746,1,0
394,243,83831,1,8
415,212,84513,1,4
433,159,85195,1,8
425,214,85876,1,0
420,227,86047,1,0
399,246,86388,1,0
393,250,86473,1,0
394,243,86558,1,8
380,245,86729,1,0
345,246,87070,1,0
334,236,87240,5,4
364,188,87922,1,8
412,220,88604,1,0
412,232,88774,1,0
388,248,89115,1,0
384,252,89200,1,0
380,248,89286,1,8
368,192,89968,1,4
312,196,90649,1,4
336,248,91331,1,4
360,232,91672,1,8
372,224,91843,1,0
384,216,92013,1,8
392,212,92098,1,8
400,208,92183,1,8
408,204,92269,1,8
412,208,92354,1,0
416,216,92439,1,0
420,224,92524,1,0
424,232,92610,1,0
424,240,92695,5,0
404,220,93036,1,8
384,200,93377,1,0
372,176,93718,1,8
384,172,93888,1,0
396,164,94058,1,0
408,164,94229,1,8
416,176,94399,1,0
420,188,94570,1,0
420,200,94740,1,0
408,212,95081,1,0
408,224,95252,1,8
420,232,95422,1,0
420,204,95763,1,8
428,176,96104,1,8
428,176,96274,1,0
424,164,96445,1,0
432,152,96615,1,8
428,140,96786,1,8
428,152,96956,1,0
424,160,97041,1,0
420,168,97127,1,0
416,176,97297,1,8
416,192,97468,1,8
412,200,97553,1,8
408,204,97638,1,8
408,212,97723,1,8
404,220,97808,1,0
400,232,97979,1,0
388,240,98149,5,0
364,224,98490,1,8
344,196,98831,1,0
360,172,99172,1,8
372,168,99343,1,0
376,156,99513,1,0
388,156,99683,1,8
396,168,99854,1,0
400,180,100024,1,0
396,192,100195,1,0
396,216,100536,1,0
404,228,100706,1,8
412,216,100877,1,0
388,228,101218,1,8
368,248,101558,1,8
360,236,101729,1,0
348,228,101899,1,0
352,216,102070,1,8
344,204,102240,1,8
356,196,102411,1,0
360,192,102496,1,0
364,188,102581,1,0
376,180,102752,1,8
372,192,102922,1,8
380,204,103093,1,0
384,212,103178,1,0
388,220,103263,1,8
392,228,103348,1,8
392,236,103433,1,8
388,240,103519,1,8
424,240,103604,5,0
404,220,103945,1,8
384,200,104286,1,0
372,176,104627,1,8
384,172,104797,1,0
396,164,104967,1,0
408,164,105138,1,8
416,176,105308,1,0
420,188,105479,1,0
420,200,105649,1,0
408,200,105820,1,0
408,212,105990,1,8
408,224,106161,1,8
420,232,106331,1,0
420,204,106672,1,8
428,176,107013,1,8
428,176,107183,1,0
421,178,107269,1,0
424,164,107354,1,0
432,152,107524,1,8
428,140,107695,1,8
428,152,107865,1,0
424,160,107950,1,0
420,168,108036,1,0
416,176,108206,1,8
416,192,108377,1,8
412,200,108462,1,8
408,204,108547,1,8
408,212,108632,1,8
404,220,108717,1,0
396,224,108803,1,0
400,232,108888,1,0
388,240,109058,5,0
371,217,109399,1,8
344,206,109740,1,0
346,178,110081,1,8
359,174,110252,1,0
372,172,110422,1,0
386,171,110593,1,8
398,177,110763,1,0
403,189,110933,1,0
403,203,111104,1,0
402,216,111274,1,0
410,227,111445,1,8
415,239,111615,1,8
423,249,111786,1,0
398,177,112127,1,8
371,166,112468,1,8
384,166,112638,1,0
390,167,112723,1,0
396,168,112808,1,0
410,168,112979,1,8
423,169,113149,1,8
434,176,113320,1,0
434,182,113405,1,0
434,188,113490,1,0
439,175,113661,1,8
441,188,113831,1,0
432,199,114002,1,8
408,214,114343,1,8
394,216,114513,1,4
314,158,115706,1,8
307,159,115791,1,8
300,160,115877,5,0
293,162,115962,1,0
286,164,116047,1,0
279,166,116132,1,0
283,171,116218,1,8
292,181,116388,1,0
296,186,116473,1,0
300,191,116558,1,0
304,196,116644,1,0
310,195,116729,1,8
323,199,116899,1,0
329,201,116985,1,0
335,200,117070,1,8
320,196,117240,1,0
312,196,117325,1,0
304,196,117411,1,0
316,196,117581,1,12
344,192,117922,1,0
352,192,118007,1,0
360,192,118093,1,0
372,192,118263,1,12
364,164,118604,1,0
360,156,118689,1,0
356,152,118774,1,0
352,148,118860,1,0
360,148,118945,1,8
372,152,119115,1,0
376,156,119200,1,0
380,160,119286,1,0
384,164,119371,1,0
388,168,119456,1,8
392,180,119627,1,0
392,188,119712,1,0
392,196,119797,1,8
400,208,119968,1,0
400,216,120053,1,0
400,224,120138,1,0
400,232,120223,1,0
404,228,120308,1,8
408,224,120394,1,8
412,220,120479,1,0
416,216,120564,1,0
420,208,120649,1,8
424,200,120735,1,8
428,196,120820,1,0
428,188,120905,1,0
432,182,120990,1,8
404,181,121331,5,8
394,179,121445,1,8
389,170,121558,1,0
383,162,121672,1,8
377,154,121786,1,8
385,151,121899,1,0
394,151,122013,1,8
403,151,122127,1,8
412,153,122240,1,0
428,196,122354,1,8
428,188,122468,1,8
433,195,122581,1,0
424,197,122695,1,0
417,199,122780,1,0
410,200,122865,1,0
399,209,123036,1,12
371,213,123377,1,0
364,214,123462,1,0
357,215,123547,1,0
342,215,123718,1,12
321,195,124058,1,0
296,181,124399,1,0
301,176,124485,1,8
307,175,124570,1,0
313,174,124655,1,0
319,173,124740,1,0
325,172,124825,1,8
332,171,124911,1,0
338,171,124996,1,0
344,171,125081,1,0
350,170,125166,1,8
356,171,125252,1,0
344,172,125422,1,0
336,172,125507,1,0
328,172,125593,1,0
340,176,125763,1,12
360,196,126104,1,0
364,200,126189,1,0
368,208,126274,1,0
368,216,126360,1,0
376,212,126445,1,8
384,208,126530,1,8
392,204,126615,1,8
396,200,126700,1,8
392,204,126786,5,8
350,207,127212,1,0
354,201,127297,1,8
360,198,127383,1,0
366,195,127468,1,0
338,189,127808,1,8
321,211,128149,1,0
334,206,128320,1,8
320,208,128490,1,0
312,220,128661,1,0
308,225,128746,1,0
314,224,128831,1,8
320,224,128916,1,8
325,228,129002,1,0
331,230,129087,1,0
337,227,129172,1,8
343,224,129257,1,8
349,221,129343,1,0
344,216,129428,1,0
348,212,129513,1,8
356,208,129598,1,0
364,204,129683,1,8
372,200,129769,1,0
376,196,129854,1,8
384,192,129939,1,0
392,188,130024,1,8
400,184,130110,1,0
348,212,130195,1,8
356,208,130280,1,0
364,204,130365,1,8
372,200,130451,1,0
376,196,130536,1,8
384,192,130621,1,0
392,188,130706,1,8
400,184,130792,1,0
404,176,130877,1,8
408,168,130962,1,8
412,164,131047,1,0
416,156,131132,1,0
416,148,131218,1,8
416,140,131303,1,8
424,144,131388,1,0
432,144,131473,1,0
440,148,131558,1,8
448,120,131899,1,12
420,115,132240,5,0
392,146,132752,1,0
393,152,132837,1,8
394,158,132922,1,0
407,182,133263,1,8
399,209,133604,1,12
390,228,133860,1,12
396,247,134115,1,4
393,260,134286,1,4
376,206,134968,1,8
381,202,135053,1,0
385,196,135138,1,8
390,191,135223,1,0
396,187,135308,1,8
402,183,135394,1,8
408,180,135479,1,0
414,178,135564,1,0
420,175,135649,1,8
425,170,135735,1,0
427,163,135820,1,8
432,158,135905,1,0
436,152,135990,1,8
439,145,136075,1,8
444,149,136161,1,0
446,155,136246,1,0
445,148,136331,1,8
443,141,136416,1,8
445,147,136502,1,0
445,153,136587,1,0
445,159,136672,1,8
444,165,136757,1,8
445,171,136843,1,0
443,177,136928,1,0
436,178,137013,2,0,B|284:223,1,140
278,233,137695,5,4
333,236,138377,1,12
381,208,139058,1,4
394,203,139229,1,4
368,196,139570,1,4
411,164,139740,1,12
426,217,140422,1,4
411,164,141104,1,12
357,179,141786,1,4
345,186,141956,1,4
336,212,142297,1,4
411,164,142468,1,12
407,177,142638,1,4
407,204,142979,1,4
407,217,143149,5,4
437,170,143831,1,12
429,225,144513,1,4
423,237,144683,1,4
424,208,145024,1,4
408,197,145195,1,12
352,200,145877,1,4
303,228,146558,1,4
309,283,147240,1,4
330,264,147581,1,12
338,237,147922,1,0
340,230,148007,1,0
342,223,148093,1,0
344,216,148178,1,0
346,209,148263,1,0
349,202,148348,1,0
352,195,148433,1,0
355,188,148519,1,0
424,240,148604,5,0
404,220,148945,1,8
384,200,149286,1,0
372,176,149627,1,8
384,172,149797,1,0
396,164,149967,1,0
408,164,150138,1,8
416,176,150308,1,0
420,188,150479,1,0
420,200,150649,1,0
408,200,150820,1,0
408,212,150990,1,8
408,224,151161,1,8
420,232,151331,1,0
420,204,151672,1,8
428,176,152013,1,8
428,176,152183,1,0
421,178,152269,1,0
424,164,152354,1,0
432,152,152524,1,8
428,140,152695,1,8
428,152,152865,1,0
424,160,152950,1,0
420,168,153036,1,0
416,176,153206,1,8
416,192,153377,1,8
412,200,153462,1,8
408,204,153547,1,8
408,212,153632,1,8
404,220,153717,1,0
396,224,153803,1,0
400,232,153888,1,0
424,240,154058,5,0
404,220,154399,1,8
384,200,154740,1,0
372,176,155081,1,8
384,172,155251,1,0
396,164,155423,1,0
408,164,155592,1,8
416,176,155764,1,0
420,188,155933,1,0
420,200,156105,1,0
408,200,156274,1,0
408,212,156444,1,8
408,224,156615,1,8
420,232,156785,1,0
420,204,157126,1,8
428,176,157467,1,8
428,176,157639,1,0
421,178,157723,1,0
424,164,157808,1,0
432,152,157980,1,8
428,140,158149,1,8
428,152,158319,1,0
424,160,158406,1,0
420,168,158490,1,0
416,176,158660,1,8
416,192,158831,1,8
376,196,159518,5,0
460,180,160969,1,0
460,196,161211,1,0
452,208,161453,1,8
404,180,162421,1,8
380,192,162905,1,0
356,208,163388,1,0
416,148,164840,1,0
416,164,165082,1,0
416,176,165324,1,8
360,184,166292,1,0
340,204,166776,1,8
312,212,167259,5,0
228,220,168711,1,0
240,224,168953,1,0
252,216,169195,1,8
304,200,170163,1,8
332,200,170647,1,0
344,224,171130,1,0
388,60,174034,1,4
392,88,174517,1,4
400,116,175001,5,4
428,196,176453,1,0
420,208,176695,1,0
408,216,176937,1,8
368,256,177905,1,8
368,256,178388,1,0
340,264,178872,1,0
344,348,180324,1,0
352,336,180566,1,0
356,324,180808,1,8
384,276,181776,1,0
392,248,182259,1,8
400,116,182743,5,0
428,196,184195,1,0
420,208,184437,1,0
408,216,184679,1,8
368,256,185647,1,8
368,256,186130,1,0
256,192,186614,12,0,190001
164,240,190485,5,0
168,244,190570,1,0
176,248,190655,1,0
184,248,190740,1,8
192,248,190825,1,0
200,248,190911,1,0
208,248,190996,1,0
216,248,191081,1,8
224,248,191166,1,0
232,244,191252,1,0
240,240,191337,1,0
248,240,191422,1,8
256,236,191507,1,0
264,236,191592,1,0
272,232,191678,1,8
284,224,191848,5,0
288,220,191933,1,0
292,216,192019,1,0
296,212,192104,1,0
300,208,192189,1,8
312,204,192360,1,0
320,204,192445,1,0
328,204,192530,1,0
336,204,192615,1,0
344,200,192700,1,8
356,196,192871,1,0
364,192,192956,1,0
372,188,193041,1,8
384,180,193212,1,0
396,172,193382,1,8
404,184,193553,1,0
408,192,193638,1,0
416,188,193723,1,8
424,184,193808,1,8
428,188,193894,1,0
428,196,193979,1,0
436,196,194064,1,8
444,192,194149,1,8
448,200,194235,1,0
448,208,194320,1,0
448,216,194405,1,0
436,216,194575,1,0
428,216,194661,1,0
420,216,194746,1,0
412,216,194831,1,0
404,212,194916,1,8
388,212,195087,1,0
380,212,195172,1,0
372,212,195257,1,0
364,212,195342,1,0
356,212,195428,1,8
344,208,195598,1,0
336,204,195683,1,0
332,200,195769,1,8
320,196,195939,1,0
332,180,196195,1,8
344,164,196450,1,0
352,164,196536,1,8
360,164,196621,1,0
368,164,196706,1,0
376,164,196791,1,0
384,164,196877,1,8
392,164,196962,1,0
400,164,197047,1,0
408,164,197132,1,0
396,172,197303,5,0
388,176,197388,1,0
380,180,197473,1,0
372,184,197558,1,0
368,192,197644,1,8
364,196,197729,1,8
360,200,197814,1,8
356,204,197899,1,8
352,208,197985,1,0
348,212,198070,1,0
344,216,198155,1,0
336,220,198240,1,0
344,224,198325,1,8
348,228,198411,1,8
352,236,198496,1,8
356,244,198581,1,8
360,248,198666,1,8
364,252,198752,1,8
368,248,198837,1,0
372,244,198922,1,0
376,240,199007,1,8
380,236,199092,1,8
388,232,199178,1,0
396,228,199263,1,0
400,220,199348,1,8
320,200,199433,1,8
328,200,199519,1,0
336,200,199604,1,0
344,200,199689,1,8
352,196,199774,1,8
360,196,199860,1,0
364,184,200030,5,0
368,180,200115,1,0
376,176,200200,1,0
384,176,200286,1,0
392,172,200371,1,8
400,172,200456,1,0
408,172,200541,1,8
416,172,200627,1,0
420,180,200712,1,0
420,188,200797,1,0
420,196,200882,1,0
420,204,200967,1,0
424,200,201053,1,8
428,196,201138,1,0
432,192,201223,1,8
440,188,201308,1,0
432,192,201394,1,0
424,200,201564,1,12
396,200,201905,1,0
400,172,201990,1,8
396,168,202075,1,0
392,164,202161,1,0
388,160,202246,1,0
384,152,202331,1,8
384,144,202416,1,0
384,136,202502,1,0
384,128,202587,1,0
372,124,202757,5,12
400,132,203098,1,4
412,140,203269,1,12
432,160,203610,1,4
436,172,203780,1,12
452,208,204121,1,4
452,220,204292,1,12
424,188,204803,1,4
396,180,205144,1,12
396,152,205485,1,8
400,140,205655,1,0
408,132,205825,1,8
416,128,205939,1,8
424,132,206053,1,0
432,140,206166,1,8
436,148,206280,1,8
444,156,206394,1,0
448,164,206507,1,8
448,172,206621,1,8
448,180,206735,1,0
440,184,206848,1,0
432,188,206933,1,0
424,192,207019,1,0
424,204,207189,1,12
404,224,207530,1,0
400,228,207615,1,0
396,232,207700,1,0
384,236,207871,1,12
356,228,208212,5,4
336,220,208467,1,4
352,208,208723,1,12
360,196,208894,1,4
408,168,209575,1,4
408,196,209831,1,4
420,180,210087,1,12
432,172,210257,1,4
428,200,210513,1,4
412,212,210769,1,12
400,220,210939,1,8
392,224,211024,1,8
384,228,211110,1,0
376,232,211195,1,0
368,232,211280,1,8
360,232,211365,1,8
352,232,211450,1,0
344,232,211536,1,0
336,232,211621,1,0
328,232,211706,1,0
324,228,211791,1,8
320,224,211877,1,8
316,216,211962,1,0
312,208,212047,1,0
312,200,212132,1,8
316,196,212217,1,8
308,192,212303,2,0,B|72:276|72:276|160:116,1,420
124,124,213666,5,0
132,124,213752,1,0
140,124,213837,1,0
148,124,213922,1,0
156,124,214007,1,8
168,132,214178,1,0
176,136,214263,1,0
184,140,214348,1,0
192,144,214433,1,0
200,144,214519,1,8
212,144,214689,1,0
220,144,214774,1,0
228,144,214860,1,8
240,148,215030,1,0
248,152,215115,1,0
256,156,215200,1,0
264,156,215286,1,8
272,156,215371,1,8
284,156,215541,1,0
292,156,215627,1,0
300,156,215712,1,0
308,156,215797,1,8
316,156,215882,1,8
332,156,216053,1,0
340,156,216138,1,8
348,156,216223,1,8
124,124,216394,1,0
132,124,216480,1,0
140,124,216565,1,0
148,124,216650,1,0
156,124,216735,1,8
168,132,216906,1,0
176,136,216991,1,0
184,140,217076,1,0
192,144,217161,1,0
200,144,217247,1,8
212,144,217417,1,0
220,144,217502,1,0
228,144,217588,1,8
232,156,217757,1,0
232,164,217842,1,0
232,172,217928,1,0
232,180,218013,1,0
240,180,218098,1,8
248,180,218183,1,8
256,180,218269,1,0
268,180,218439,1,4
292,192,218780,1,4
124,124,219121,5,0
132,124,219207,1,0
140,124,219292,1,0
148,124,219377,1,0
156,124,219462,1,8
168,132,219633,1,0
176,136,219718,1,0
184,140,219803,1,0
192,144,219888,1,0
200,144,219974,1,8
212,144,220144,1,0
220,144,220229,1,0
228,144,220315,1,8
240,148,220485,1,0
248,152,220570,1,0
256,156,220655,1,0
264,156,220741,1,8
272,156,220826,1,8
284,156,220996,1,0
292,156,221082,1,0
300,156,221167,1,0
308,156,221252,1,8
316,156,221337,1,8
316,168,221507,1,0
324,168,221592,1,8
332,172,221678,1,8
324,184,221848,1,0
320,188,221933,1,0
316,192,222019,1,0
312,196,222104,1,0
320,196,222189,1,8
328,196,222274,1,8
336,196,222360,1,0
344,196,222445,1,0
352,192,222530,1,8
360,192,222615,1,8
368,192,222700,1,0
376,192,222786,1,0
384,188,222871,1,8
392,184,222956,1,8
400,180,223041,1,8
408,176,223127,1,8
408,184,223212,1,0
408,192,223297,1,0
408,200,223382,1,0
408,208,223467,1,0
412,204,223553,1,8
416,200,223638,1,8
420,192,223723,1,8
424,180,223894,1,4
432,152,224235,1,4
124,124,224575,5,0
132,124,224661,1,0
140,124,224746,1,0
148,124,224831,1,0
156,124,224916,1,8
168,132,225087,1,0
176,136,225172,1,0
184,140,225257,1,0
192,144,225342,1,0
200,144,225428,1,8
212,144,225598,1,0
220,144,225683,1,0
228,144,225769,1,8
240,148,225939,1,0
248,152,226024,1,0
256,156,226109,1,0
264,156,226195,1,8
272,156,226280,1,8
284,156,226450,1,0
292,156,226536,1,0
300,156,226621,1,0
308,156,226706,1,8
316,156,226791,1,8
332,156,226962,1,0
340,156,227047,1,8
348,156,227132,1,8
124,124,227303,1,0
132,124,227389,1,0
140,124,227474,1,0
148,124,227559,1,0
156,124,227644,1,8
168,132,227815,1,0
176,136,227900,1,0
184,140,227985,1,0
192,144,228070,1,0
200,144,228156,1,8
212,144,228326,1,0
220,144,228411,1,0
228,144,228497,1,8
240,144,228666,1,12
268,152,229007,1,12
292,168,229348,1,4
308,192,229689,1,4
124,124,230030,5,0
132,124,230116,1,0
140,124,230201,1,0
148,124,230286,1,0
156,124,230371,1,8
168,132,230542,1,0
176,136,230627,1,0
184,140,230712,1,0
192,144,230797,1,0
200,144,230883,1,8
212,144,231053,1,0
220,144,231138,1,0
228,144,231224,1,8
240,148,231394,1,0
248,152,231479,1,0
256,156,231564,1,0
264,156,231650,1,8
272,156,231735,1,8
284,156,231905,1,0
292,156,231991,1,0
300,156,232076,1,0
308,156,232161,1,8
316,156,232246,1,8
316,168,232416,1,0
324,168,232501,1,8
332,172,232587,1,8
324,184,232757,1,0
320,188,232842,1,0
316,192,232928,1,0
312,196,233013,1,0
320,196,233098,1,8
328,196,233183,1,8
336,196,233269,1,0
344,196,233354,1,0
352,192,233439,1,8
360,192,233524,1,8
368,192,233609,1,0
376,192,233695,1,0
384,188,233780,1,8
392,184,233865,1,8
400,180,233950,1,0
408,176,234036,1,0
408,168,234121,1,8
404,164,234206,1,8
400,160,234291,1,8
392,156,234377,1,8
384,156,234462,1,8
376,156,234547,1,8
368,156,234632,1,8
360,156,234717,1,8
360,164,234803,1,0
356,172,234888,1,0
352,176,234973,1,0
348,180,235058,1,0
344,188,235144,1,0
340,196,235229,1,0
336,204,235314,1,0
278,233,235485,5,4
333,236,236167,1,12
381,208,236848,1,4
394,203,237019,1,4
368,196,237360,1,4
411,164,237530,1,12
426,217,238212,1,4
411,164,238894,1,12
357,179,239576,1,4
345,186,239746,1,4
336,212,240087,1,4
411,164,240258,1,12
407,177,240428,1,4
407,204,240769,1,4
407,217,240939,5,4
437,170,241621,1,12
429,225,242303,1,4
423,237,242473,1,4
424,208,242814,1,4
408,197,242985,1,12
352,200,243667,1,4
303,228,244348,1,4
309,283,245030,1,4
330,264,245371,1,12
338,237,245712,1,0
340,230,245797,1,0
342,223,245883,1,0
344,216,245968,1,0
346,209,246053,1,0
349,202,246138,1,0
352,195,246223,1,0
355,188,246309,1,0
424,240,246394,5,0
404,220,246735,1,8
384,200,247076,1,0
372,176,247417,1,8
384,172,247587,1,0
396,164,247757,1,0
408,164,247928,1,8
416,176,248098,1,0
420,188,248269,1,0
420,200,248439,1,0
408,200,248610,1,0
408,212,248780,1,8
408,224,248951,1,8
404,232,249036,1,8
420,232,249121,1,0
420,204,249462,1,8
428,176,249803,1,8
428,176,249973,1,0
421,178,250059,1,0
424,164,250144,1,0
432,152,250314,1,8
428,140,250485,1,8
428,152,250655,1,0
424,160,250740,1,0
420,168,250826,1,0
416,176,250996,1,8
416,192,251167,1,8
412,200,251252,1,8
408,204,251337,1,8
408,212,251422,1,8
404,220,251507,1,0
396,224,251593,1,0
400,232,251678,1,0
424,240,251848,5,0
404,220,252189,1,8
384,200,252530,1,0
372,176,252871,1,8
384,172,253041,1,0
396,164,253211,1,0
408,164,253382,1,8
416,176,253552,1,0
420,188,253723,1,0
420,200,253893,1,0
408,200,254064,1,0
408,212,254234,1,8
408,224,254405,1,8
404,232,254490,1,8
420,232,254575,1,0
420,204,254916,1,8
428,176,255257,1,8
428,176,255427,1,0
421,178,255513,1,0
424,164,255598,1,0
432,152,255768,1,8
428,140,255939,1,8
428,152,256109,1,0
424,160,256194,1,0
420,168,256280,1,0
416,176,256450,1,8
404,180,256621,1,0
392,188,256791,1,0
400,200,256962,1,8
404,212,257132,1,8
392,216,257303,5,0
404,224,257473,1,8
408,236,257644,1,0
408,244,257729,1,0
416,248,257814,1,8
392,216,257985,1,0
404,224,258155,1,8
408,236,258326,1,0
408,244,258411,1,0
416,248,258496,1,8
392,216,258666,1,0
404,224,258836,1,8
408,236,259007,1,0
408,244,259092,1,0
416,248,259177,1,8
392,216,259348,1,0
384,216,259433,1,0
380,208,259519,1,8
376,204,259604,1,8
380,200,259689,1,0
384,188,259860,1,8
392,216,260030,1,0
404,224,260200,1,8
408,236,260371,1,0
408,244,260456,1,0
416,248,260541,1,8
392,216,260712,1,0
404,224,260882,1,8
408,236,261053,1,0
408,244,261138,1,0
416,248,261223,1,8
392,216,261394,1,0
404,224,261564,1,8
408,236,261735,1,0
408,244,261820,1,0
416,248,261905,1,8
404,248,262075,1,0
396,248,262161,1,0
392,240,262246,1,8
388,232,262331,1,8
388,224,262416,1,0
384,216,262502,1,0
388,208,262587,1,8
392,216,262757,5,0
404,224,262927,1,8
408,236,263098,1,0
408,244,263183,1,0
416,248,263268,1,8
392,216,263439,1,0
404,224,263609,1,8
408,236,263780,1,0
408,244,263865,1,0
416,248,263950,1,8
392,216,264120,1,0
404,224,264290,1,8
408,236,264461,1,0
408,244,264546,1,0
416,248,264631,1,8
392,216,264802,1,0
384,216,264887,1,0
380,208,264973,1,8
376,204,265058,1,8
380,200,265143,1,0
384,188,265314,1,8
392,216,265484,1,0
404,224,265654,1,8
408,236,265825,1,0
408,244,265910,1,0
416,248,265995,1,8
392,216,266166,1,0
404,224,266336,1,8
408,236,266507,1,0
408,244,266592,1,0
416,248,266677,1,8
392,216,266848,1,0
404,224,267018,1,8
408,236,267189,1,0
408,244,267274,1,0
416,248,267359,1,8
404,244,267530,1,0
396,244,267615,1,0
388,244,267700,1,0
380,244,267786,1,0
372,244,267871,1,0
364,244,267956,1,0
356,244,268041,1,0
348,244,268127,1,0
344,240,268212,1,0
340,236,268297,1,0
340,228,268382,1,8
340,220,268467,1,8
344,216,268553,1,0
348,212,268638,1,0
356,208,268723,1,8
360,200,268808,1,8
364,196,268894,1,0
372,184,268979,1,0
376,180,269064,1,8
380,172,269149,1,8
384,164,269235,1,0
388,156,269320,1,0
392,148,269405,1,0
400,136,269575,5,12
436,160,270087,1,4
444,188,270428,1,12
452,216,270769,1,4
440,220,270939,2,4,B|216:260,1,210
460,172,271621,1,12
