osu file format v9

[General]
AudioFilename: Sonic Hispeed Omega - THE BEST OF TOHO TEMPEST Disc2 - 07 - Plain Asia Guardian of the Village.mp3
AudioLeadIn: 2000
PreviewTime: 191859
Countdown: 0
SampleSet: Soft
StackLeniency: 0.7
Mode: 0
LetterboxInBreaks: 1

[Editor]
Bookmarks: 92710,103620
DistanceSpacing: 1
BeatDivisor: 4
GridSize: 4

[Metadata]
Title:Plain Asia ~ Guardian of the Village
Artist:SHO
Creator:Kite
Version:Insane
Source:Touhou
Tags:keine kamishirasawa IN zun imperishable night divine beast metal arrange boss battle theme eiyashou sonic hispeed omega lepidopodus

[Difficulty]
HPDrainRate:8
CircleSize:5
OverallDifficulty:8
ApproachRate:8
SliderMultiplier:1.6
SliderTickRate:1

[Events]
//Background and Video events
0,0,"guardian.jpg"
//Break Periods
2,32231,35355
2,92896,102855
2,148805,158768
//Storyboard Layer 0 (Background)
//Storyboard Layer 1 (Fail)
//Storyboard Layer 2 (Pass)
//Storyboard Layer 3 (Foreground)
//Storyboard Sound Samples
//Background Colour Transformations
3,100,163,162,255

[TimingPoints]
96,483.870967741935,4,2,1,55,1,0
15095,-100,4,2,1,64,0,0
28160,-100,4,2,0,61,0,0
29128,-100,4,2,0,46,0,0
30095,-100,4,2,0,34,0,0
31063,-100,4,2,0,18,0,0
32031,-100,4,2,0,0,0,0
36105,340.909090909091,4,2,0,79,1,0
37468,-100,4,1,2,70,0,0
40195,-100,4,2,1,70,0,0
42923,-100,4,1,2,70,0,0
45650,-100,4,2,1,70,0,0
47866,-100,4,1,1,70,0,0
59968,340.909090909091,4,1,1,79,1,1
60139,-66.6666666666667,4,1,1,79,0,0
82127,-100,4,1,1,79,0,0
102923,-100,4,1,1,70,0,0
115877,-66.6666666666667,4,1,1,79,0,1
137695,-100,4,1,1,79,0,0
159034,483.870967741935,4,2,0,49,1,0
159391,-200,4,2,1,31,0,0
175001,-200,4,2,1,55,0,0
190485,340.909090909091,4,1,1,70,1,0
191848,-66.6666666666667,4,1,1,79,0,1
192871,-66.6666666666667,4,1,1,79,0,0
213666,-66.6666666666667,4,1,1,79,0,1
235485,-100,4,2,1,79,0,0
247075,-100,4,1,1,79,0,0
247416,-100,4,2,1,79,0,0
248439,-100,4,1,1,79,0,0
248780,-100,4,2,1,79,0,0
249803,-100,4,1,1,79,0,0
249845,-100,4,2,1,79,0,0
251166,-100,4,1,1,79,0,0
251209,-100,4,2,1,79,0,0
252530,-100,4,1,1,79,0,0
252871,-100,4,2,1,79,0,0
253894,-100,4,1,1,79,0,0
254235,-100,4,2,1,79,0,0
255257,-100,4,1,1,79,0,0
255939,-100,4,2,1,79,0,0
257303,-66.6666666666667,4,1,1,79,0,1
271536,-66.6666666666667,4,1,1,79,0,0
271621,-66.6666666666667,4,1,1,79,0,1
271706,-66.6666666666667,4,1,1,79,0,0

[Colours]
Combo1 : 21,153,223
Combo2 : 31,184,100

[HitObjects]
368,344,95,2,0,B|432:296|448:208,2,160,0|2|0
256,232,1547,1,4
144,344,2031,2,0,B|80:296|64:208,2,160,0|2|0
256,232,3483,1,4
104,176,3966,6,0,B|120:88|56:32,2,160,0|2|0
256,120,5418,1,4
407,176,5902,2,0,B|392:88|456:31,2,160,0|2|0
256,120,7354,1,4
112,48,7837,6,0,B|96:96|64:112,1,80,0|2
72,192,8321,1,0
152,192,8563,1,2
112,264,8805,2,0,B|144:352|224:368,1,160,2|8
400,336,9773,6,0,B|416:288|448:272,1,80,0|2
440,192,10257,1,0
360,192,10499,1,2
400,120,10741,2,0,B|368:32|288:16,1,160,2|8
264,176,11708,6,0,B|247:138|224:104,1,80,0|2
160,152,12192,2,0,B|128:120|96:104,1,80,0|2
56,176,12676,2,0,B|24:256|72:328,1,160,2|8
152,336,13402,1,2
208,280,13644,2,0,B|248:296|296:296,1,80,0|2
344,352,14128,2,0,B|384:344|424:328,2,80,2|0|8
448,128,15095,5,2
384,80,15337,1,2
312,112,15579,2,0,B|248:160|160:136,2,160,2|2|10
64,256,17031,5,2
128,304,17273,1,2
200,272,17515,2,0,B|264:224|352:248,2,160,2|2|10
64,192,18966,6,0,B|128:128|88:40,1,160,2|0
168,48,19692,1,2
184,128,19934,2,0,B|224:120|264:104,2,80,2|0|8
336,192,20902,5,2
344,112,21144,1,2
408,64,21386,2,0,B|480:112|464:208,1,160,2|4
384,344,22354,6,0,B|320:280|240:280,2,160,2|2|2
432,280,23563,1,2
384,216,23805,1,0
400,136,24047,1,2
384,216,24289,1,8
224,208,24773,6,0,B|192:232|144:240,1,80,2|0
80,200,25257,1,0
48,128,25499,1,2
80,56,25741,1,0
48,128,25983,1,2
80,200,26225,1,8
256,192,26708,5,4
256,192,27192,12,0,32031
336,336,36105,5,0
368,304,36445,1,0
400,272,36786,1,0
432,240,37127,1,0
464,208,37468,6,0,B|464:120|400:64,1,160,2|0
256,120,38150,1,8
109,65,38491,2,0,B|48:120|48:208,1,160,2|0
176,304,39173,2,0,B|256:288|336:304,1,160,2|8
256,168,39854,1,4
112,240,40195,5,0
160,176,40366,1,2
184,96,40536,1,8
256,64,40707,1,2
400,144,40877,5,0
352,208,41048,1,2
328,288,41218,1,8
256,320,41389,1,2
112,240,41559,5,0
104,160,41729,1,2
184,144,41900,1,8
200,64,42070,1,2
256,120,42241,1,0
312,64,42411,1,2
328,144,42582,1,8
408,160,42752,1,2
400,240,42923,6,0,B|384:336|288:336,1,160,2|0
256,176,43604,1,8
112,240,43945,2,0,B|128:336|224:336,1,160,2|0
256,176,44627,1,8
296,104,44798,1,2
216,104,44968,1,2
216,104,45309,1,4
56,80,45650,5,0
104,144,45820,1,2
128,224,45991,1,8
176,288,46161,1,2
336,288,46332,5,0
384,224,46502,1,2
408,144,46673,1,8
456,80,46843,1,2
256,64,47014,5,0
256,64,47354,1,8
104,104,47695,5,0
64,176,47866,1,0
72,184,47951,1,0
80,192,48036,1,0
88,200,48122,1,0
96,208,48207,1,0
72,280,48377,5,0
120,344,48548,1,2
200,336,48718,2,0,B|248:256|224:184,1,160,2|8
223,183,49230,1,0
296,40,49570,5,2
376,48,49741,1,0
440,96,49911,1,2
472,168,50082,1,0
464,248,50252,1,2
424,320,50423,1,8
352,352,50593,5,2
344,344,50678,1,0
336,336,50764,1,0
256,320,50934,1,2
312,256,51105,2,0,B|368:192|328:104,1,160,0|2
176,64,51786,5,8
96,88,51957,1,2
112,168,52127,1,0
64,232,52298,1,2
184,312,52468,5,0
256,272,52639,1,2
256,352,52809,1,0
328,312,52980,1,2
448,232,53150,5,8
400,168,53321,1,2
400,168,53406,1,0
400,168,53491,1,0
416,88,53661,1,0
336,64,53832,5,0
256,56,54002,1,2
256,64,54087,1,0
256,72,54173,2,0,B|240:160|320:208,1,160,0|8
318,207,54684,1,2
240,344,55025,5,2
160,344,55195,1,0
200,272,55366,1,2
120,272,55536,1,0
80,344,55707,1,2
40,272,55877,1,8
80,200,56048,5,2
88,192,56133,1,0
96,184,56218,1,0
176,192,56389,1,2
152,112,56559,2,0,B|200:40|288:40,1,160,0|2
432,112,57241,5,8
408,192,57411,1,2
360,264,57582,1,0
328,192,57752,1,2
184,192,57923,5,0
152,264,58093,1,2
104,192,58264,1,0
80,112,58434,1,2
256,160,58605,5,8
256,80,58775,1,8
256,80,59116,1,8
336,56,59286,1,0
344,64,59372,1,0
352,72,59457,1,2
360,80,59542,1,0
368,88,59627,1,8
440,320,59968,5,4
320,336,60139,1,2
328,328,60224,1,0
336,320,60309,1,8
216,320,60480,1,2
96,344,60650,1,0
88,336,60735,1,0
80,328,60820,1,2
160,240,60991,1,8
40,224,61161,1,2
160,240,61332,5,0
168,232,61417,1,0
176,224,61502,1,2
296,232,61673,1,8
400,168,61843,1,2
408,176,61928,1,0
416,184,62014,1,0
424,192,62099,1,0
432,200,62184,1,2
464,80,62355,1,8
344,88,62525,1,10
224,48,62695,5,0
104,72,62866,2,0,B|71:77|48:96,2,59.9999982118607,2|0|8
168,168,63207,1,2
64,224,63377,1,0
144,312,63548,1,2
152,320,63633,1,0
160,328,63718,1,8
168,336,63803,1,0
176,344,63889,1,2
296,328,64059,5,0
416,304,64230,1,2
408,296,64315,1,0
400,288,64400,1,8
312,208,64570,1,2
432,192,64741,1,0
440,184,64826,1,0
448,176,64911,1,2
456,168,64997,1,0
464,160,65082,1,8
416,48,65252,1,10
304,96,65423,5,2
208,168,65593,1,0
216,176,65678,1,0
224,184,65764,2,0,B|240:248|280:296,1,119.999996423721,8|2
384,344,66105,1,0
368,224,66275,1,2
360,216,66360,1,0
352,208,66445,2,0,B|328:152|304:96,1,119.999996423721,8|2
192,48,66786,5,0
184,56,66872,1,0
176,64,66957,1,2
168,72,67042,1,0
160,80,67127,1,8
48,120,67298,1,2
152,184,67468,1,0
160,192,67553,1,0
168,200,67639,1,2
176,208,67724,1,0
184,216,67809,1,8
72,264,67980,1,10
176,328,68150,5,0
288,296,68320,2,0,B|297:329|320:352,2,59.9999982118607,2|0|8
408,296,68661,1,2
416,288,68747,1,0
424,280,68832,1,0
432,272,68917,1,0
440,264,69002,1,2
336,200,69173,1,8
448,152,69343,1,2
336,200,69514,5,0
328,192,69599,1,0
320,184,69684,1,2
312,176,69769,1,0
304,168,69855,1,8
248,64,70025,1,2
368,56,70195,1,0
372,68,70281,1,0
376,80,70366,1,2
460,168,70536,1,8
456,180,70622,1,0
452,192,70707,1,2
412,304,70877,6,0,B|386:322|360:332,2,59.9999982118607,0|0|2
308,244,71218,1,8
264,132,71389,1,2
260,144,71474,1,0
256,156,71559,1,0
252,168,71644,1,0
248,180,71730,1,2
160,100,71900,1,8
164,220,72070,1,2
96,320,72241,5,0
164,220,72411,1,2
44,216,72582,1,8
52,204,72667,1,0
60,192,72752,1,2
76,72,72923,1,0
84,84,73008,1,0
92,96,73093,1,2
100,108,73178,1,0
108,120,73264,1,8
220,80,73434,1,2
340,64,73605,5,0
260,152,73775,1,2
268,160,73860,1,0
276,168,73945,1,8
284,176,74031,1,0
292,184,74116,1,2
408,152,74286,1,0
484,244,74457,1,2
476,252,74542,1,0
468,260,74627,1,8
460,268,74713,1,0
452,276,74798,1,2
336,252,74968,5,0
256,340,75139,1,2
136,340,75309,1,8
132,328,75394,1,0
132,316,75480,1,2
128,304,75565,1,0
128,292,75650,2,0,B|140:262|140:228,3,59.9999982118607,0|0|2|0
132,224,75991,1,8
128,212,76076,1,0
128,200,76161,1,2
220,276,76332,5,0
324,332,76502,2,0,B|351:336|383:328,2,59.9999982118607,2|0|8
312,212,76843,1,2
428,240,77013,1,0
440,236,77098,1,0
452,236,77184,1,2
464,240,77269,1,0
476,240,77354,1,8
436,128,77525,1,2
336,60,77695,5,0
292,172,77866,1,2
216,80,78036,1,8
204,80,78122,1,0
192,84,78207,1,2
180,88,78292,1,0
168,92,78377,1,0
156,96,78462,1,0
144,96,78548,1,2
132,96,78633,1,0
120,92,78718,2,0,B|84:92|60:80,2,59.9999982118607,8|0|2
56,192,79059,5,0
96,304,79230,1,2
108,300,79315,1,0
120,296,79400,1,8
132,292,79485,1,0
144,288,79570,1,2
256,336,79741,1,0
364,288,79911,1,2
376,292,79996,1,0
388,296,80081,1,8
400,300,80166,1,0
412,304,80252,1,2
456,192,80423,1,0
344,152,80593,5,2
332,156,80678,1,0
320,164,80764,1,8
308,168,80849,1,0
296,172,80934,1,2
284,172,81019,1,0
272,168,81105,1,8
260,164,81190,1,0
248,168,81275,1,2
236,172,81361,1,0
224,172,81446,1,8
212,168,81531,1,0
200,164,81616,1,2
188,156,81700,1,0
176,152,81787,1,4
80,68,82298,5,2
80,68,82468,1,8
52,224,82809,1,0
188,308,83150,1,0
188,308,83320,1,2
256,164,83661,1,2
256,164,83832,1,8
324,308,84173,1,0
460,224,84514,5,4
256,348,85025,1,2
256,348,85195,1,8
256,188,85536,1,0
392,104,85877,1,0
392,104,86048,1,2
240,48,86389,1,2
240,48,86559,1,8
172,88,86730,1,2
92,76,86900,1,8
92,76,87070,1,2
172,88,87241,5,4
64,300,87752,1,2
64,300,87923,1,8
220,260,88264,1,0
352,348,88605,1,0
352,348,88775,1,2
400,284,88945,1,0
392,204,89116,1,2
392,204,89286,1,8
392,204,89627,1,4
448,56,89968,6,0,B|336:136|260:48|220:72,1,240,0|2
144,44,90650,2,0,B|72:124|184:236|148:272,1,240,8|2
216,312,91332,2,0,B|284:336|352:264|372:280,1,160
376,272,91758,1,0
384,268,91843,1,2
392,264,91928,1,0
400,260,92014,1,8
360,192,92184,5,2
256,80,92355,1,12
152,192,92525,1,2
256,304,92696,1,4
332,332,103605,6,0,B|368:252|444:220,2,160,0|2|8
256,308,104457,1,2
96,308,104798,1,2
152,252,104968,1,0
176,172,105139,1,2
204,40,105309,5,0
256,104,105480,1,2
308,40,105650,1,8
336,172,105820,5,2
360,248,105991,1,0
416,308,106161,5,2
416,308,106247,1,0
416,308,106332,2,0,B|468:244|456:156,1,160,2|0
316,80,107014,1,8
244,116,107184,1,2
164,104,107355,1,0
88,124,107525,1,2
88,260,107695,5,0
164,280,107865,1,2
244,268,108036,1,0
316,304,108206,1,2
316,192,108377,5,8
396,192,108548,1,2
476,192,108718,1,0
396,192,108889,5,2
396,192,108974,1,0
396,192,109059,2,0,B|408:104|336:52,1,160,2|0
260,72,109570,1,2
175,52,109741,2,0,B|104:100|116:192,1,160,8|2
80,264,110252,6,0,B|132:328,1,80,2|0
212,336,110593,2,0,B|200:252,1,80,2|0
256,196,110934,1,2
311,256,111105,2,0,B|300:336,1,80,8|2
381,326,111446,2,0,B|432:264,1,80,0|2
400,192,111786,5,0
256,120,112127,1,0
112,192,112468,1,8
144,264,112639,1,2
208,312,112809,1,0
288,320,112980,1,2
400,192,113150,5,0
368,120,113321,1,2
304,72,113491,1,0
224,64,113662,1,2
256,192,113832,5,8
256,192,114002,1,10
256,192,114343,1,0
256,192,114514,1,12
256,192,114599,12,4,115707
256,192,115877,5,8
76,352,116218,5,8
72,340,116303,1,0
64,332,116389,1,2
56,324,116474,1,0
48,316,116559,1,0
44,304,116644,1,0
44,292,116730,1,2
48,280,116815,1,0
56,272,116900,2,0,B|84:248|84:220,3,59.9999982118607,8|0|2|0
80,208,117241,5,0
76,196,117326,1,0
68,184,117411,1,2
60,172,117497,1,0
56,160,117582,1,8
56,148,117667,1,0
60,136,117752,1,2
64,124,117837,1,0
72,116,117923,2,0,B|84:88|120:80,3,59.9999982118607,0|0|2|0
128,84,118264,2,0,B|160:88|188:72,3,59.9999982118607,8|0|2|0
196,76,118605,6,0,B|308:24|432:84,1,239.999992847443,2|8
436,92,119031,1,0
440,104,119116,1,2
328,148,119286,1,4
440,196,119457,1,2
436,208,119542,1,0
432,220,119627,1,8
324,272,119798,1,6
420,344,119968,6,0,B|450:341|477:327,3,59.9999982118607,0|0|2|0
484,316,120309,1,8
488,304,120394,1,0
488,292,120480,1,2
484,280,120565,1,0
476,272,120650,6,0,B|445:269|418:255,3,59.9999982118607,0|0|2|0
408,248,120991,1,8
400,236,121076,1,0
396,224,121161,1,2
396,212,121247,1,0
400,200,121332,6,0,B|424:182|436:152,3,59.9999982118607,0|0|2|0
424,144,121673,2,0,B|360:144,3,59.9999982118607,8|0|2|0
352,148,122014,2,0,B|327:130|316:100,3,59.9999982118607,0|0|2|0
312,92,122355,5,8
304,84,122440,1,0
292,80,122525,1,2
280,80,122610,1,0
268,84,122695,1,0
280,204,122866,1,6
176,140,123036,1,8
180,152,123122,1,0
184,164,123207,1,2
120,68,123377,5,0
112,76,123462,1,0
104,88,123548,1,2
100,100,123633,1,0
96,112,123718,1,8
96,124,123803,1,0
96,136,123889,1,2
92,148,123974,1,0
88,160,124059,2,0,B|140:272|92:232|92:232|64:284|120:352,1,239.999992847443,2|8
132,348,124485,5,0
144,344,124570,1,2
156,344,124656,1,0
168,348,124741,2,0,B|200:360|228:340,3,59.9999982118607,0|0|2|0
228,328,125082,2,0,B|260:316|288:336,3,59.9999982118607,8|0|2|0
296,332,125423,5,0
308,328,125508,1,0
320,324,125593,1,2
332,324,125678,1,0
344,324,125764,1,8
356,328,125849,1,0
368,332,125934,1,2
380,336,126019,1,0
392,340,126105,2,0,B|420:360|452:352,3,59.9999982118607,0|0|2|0
456,344,126445,5,8
464,332,126531,1,0
468,320,126616,1,2
468,308,126701,1,0
464,296,126786,2,0,B|408:192|432:60,1,239.999992847443,2|8
420,60,127212,1,0
408,56,127298,1,2
396,56,127383,1,0
384,60,127468,2,0,B|324:172|192:192,1,239.999992847443,2|8
380,344,128150,5,4
272,296,128320,1,6
160,336,128491,1,8
164,324,128576,1,0
164,312,128661,1,2
160,300,128747,1,0
156,288,128832,1,0
156,276,128917,1,0
160,264,129002,1,2
168,256,129087,1,0
180,252,129173,1,8
192,248,129258,1,0
204,244,129343,1,2
212,236,129428,1,0
220,224,129514,6,0,B|236:196|232:164,3,59.9999982118607,0|0|2|0
220,164,129855,2,0,B|196:144|188:108,3,59.9999982118607,8|0|2|0
192,104,130195,2,0,B|184:76|152:56,3,59.9999982118607,0|0|2|0
144,64,130536,2,0,B|116:76|84:72,3,59.9999982118607,8|0|2|0
76,80,130877,5,0
68,92,130962,1,0
64,104,131048,1,2
60,116,131133,1,0
60,128,131218,1,8
64,140,131303,1,0
72,152,131389,1,2
80,160,131474,1,0
88,168,131559,2,0,B|128:300|256:324,1,239.999992847443,2|8
253,323,131985,1,0
253,323,132070,1,2
372,336,132241,6,0,B|452:232|416:104,1,239.999992847443,4|8
316,48,132752,1,2
304,52,132837,1,0
292,60,132923,2,0,B|252:180|112:200,1,239.999992847443,2|8
113,199,133349,1,0
113,199,133434,1,2
96,320,133605,5,2
256,212,133860,1,4
416,320,134116,1,2
416,320,134286,2,0,B|292:368|184:300,1,239.999992847443,4|8
185,301,134712,1,0
185,301,134798,1,2
88,232,134968,5,0
96,224,135053,1,0
100,212,135139,1,2
104,200,135224,1,0
108,188,135309,1,8
116,180,135394,1,0
128,176,135480,1,2
140,176,135565,1,0
152,172,135650,2,0,B|180:156|192:124,3,59.9999982118607,0|0|2|0
184,116,135991,2,0,B|184:80|208:56,3,59.9999982118607,8|0|2|0
216,56,136332,5,0
228,52,136417,1,0
240,52,136502,1,2
252,56,136587,1,0
264,64,136673,1,8
272,72,136758,1,0
280,80,136843,1,2
292,84,136928,1,0
304,92,137014,2,0,B|376:228|232:380|76:296,1,359.999989271164,2|0
36,256,137695,6,0,B|38:231|56:208,5,53.3333333333333,4|0|2|8|2|0
108,208,138377,2,0,B|117:181|100:152,5,53.3333333333333,8|0|2|8|2|0
48,152,139059,6,0,B|70:133|72:104,5,53.3333333333333,4|0|2|8|2|0
124,104,139741,2,0,B|109:80|116:52,5,53.3333333333333,8|0|2|8|2|0
168,40,140423,5,4
216,64,140536,1,0
268,56,140650,1,2
320,44,140764,1,8
364,72,140877,1,2
416,76,140991,1,0
444,124,141105,1,8
428,176,141218,1,0
448,224,141332,1,2
432,276,141445,1,8
444,328,141559,1,2
396,352,141673,1,0
344,344,141786,6,0,B|320:332|308:304,5,53.3333333333333,4|0|2|8|2|0
340,260,142468,1,8
356,208,142582,1,0
312,176,142695,1,2
300,124,142809,1,8
252,100,142923,1,2
212,64,143036,1,0
160,64,143150,6,0,B|132:76|120:104,5,53.3333333333333,4|0|2|8|2|0
156,144,143832,2,0,B|168:172|164:208,5,53.3333333333333,8|0|2|8|2|0
120,224,144514,5,4
84,260,144627,1,0
92,312,144741,1,2
136,340,144855,1,8
184,316,144968,1,2
232,336,145082,1,0
284,324,145195,2,0,B|304:348|336:348,5,53.3333333333333,8|0|2|8|2|0
380,328,145877,6,0,B|444:276|452:176|412:96|332:60,1,320,4|12
296,100,146673,1,0
244,100,146786,1,2
196,76,146900,1,8
144,84,147014,1,2
100,112,147127,1,0
256,192,147241,12,4,148605
304,332,159518,6,0,B|344:348|384:336,2,80,0|0|4
224,336,160969,1,0
188,324,161211,1,0
172,288,161453,2,0,B|160:248|120:224,1,80
64,172,162421,5,4
68,92,162905,1,0
144,68,163388,2,0,B|184:88|224:80,2,80,0|0|4
128,148,164840,5,0
148,184,165082,1,0
188,196,165324,2,0,B|224:172|268:180,1,80,0|4
308,112,166292,6,0,B|352:112|380:80,2,80,0|0|0
244,68,167743,1,4
160,76,168227,1,0
168,156,168711,5,0
184,192,168953,1,0
172,232,169195,2,0,B|128:252|120:300,1,80,0|4
192,328,170162,5,0
268,356,170646,1,0
340,320,171130,5,6
376,300,171372,1,0
388,260,171614,1,0
372,224,171856,1,0
364,184,172098,5,2
376,144,172340,1,0
404,116,172582,1,0
420,80,172824,1,0
396,48,173066,6,0,B|372:48|352:36,1,40,2|0
324,60,173550,2,0,B|304:56|280:72,1,40
260,100,174033,5,4
212,36,174517,1,4
132,36,175001,6,0,B|16:96|64:244,1,240,0|4
136,276,176937,2,0,B|204:308|232:264|280:264|308:304|376:280,1,240,0|4
448,241,178872,2,0,B|496:96|380:36,1,240,0|4
296,52,180808,2,0,B|256:44|216:52,1,80,0|2
216,132,181775,2,0,B|256:140|296:132,1,80,2|2
376,144,182743,6,0,B|352:232|480:200|464:324|428:352,1,240,0|4
372,296,184679,2,0,B|307:273|279:313|231:313|203:269|135:301,1,240,0|4
83,351,186614,2,0,B|48:324|32:200|160:232|136:144,1,240,0|4
136,64,188550,2,0,B|376:64,1,240,4|0
448,112,190485,5,0
440,120,190570,1,0
436,132,190655,1,2
436,144,190740,1,0
440,156,190825,1,0
448,168,190911,1,0
456,176,190996,1,2
464,184,191081,1,0
472,196,191166,1,0
476,208,191252,1,0
476,220,191337,1,2
472,232,191422,1,0
464,244,191507,1,0
456,252,191592,1,0
448,264,191678,1,2
444,276,191763,1,0
444,288,191848,6,0,B|336:340|208:332,1,239.999992847443,2|12
210,332,192274,1,0
210,332,192360,1,2
92,340,192530,1,0
100,332,192615,1,0
108,324,192700,1,2
116,316,192786,1,0
124,308,192871,1,8
220,236,193041,5,2
108,192,193212,1,0
68,80,193382,1,2
184,56,193553,5,8
196,60,193638,1,0
208,60,193723,1,2
220,56,193808,1,0
232,52,193894,2,0,B|264:36|292:52,3,59.9999982118607,0|0|2|0
300,56,194235,2,0,B|332:68|360:56,3,59.9999982118607,8|0|2|0
372,60,194575,5,0
380,68,194661,1,0
388,76,194746,1,2
396,84,194831,1,0
404,92,194916,1,8
412,100,195002,1,0
420,108,195087,1,2
428,116,195172,1,0
420,124,195257,5,0
412,132,195342,1,0
404,140,195428,1,2
396,148,195513,1,0
388,156,195598,1,8
380,164,195683,1,0
372,172,195769,1,2
364,180,195854,1,0
356,188,195939,5,0
384,304,196110,1,0
264,308,196280,1,0
288,192,196450,1,0
276,196,196536,1,0
264,196,196621,1,0
252,188,196706,1,0
244,180,196791,1,2
240,168,196877,1,0
240,156,196962,1,8
244,144,197047,1,0
252,136,197132,1,2
264,132,197217,1,0
272,124,197303,6,0,B|296:100|288:60,3,59.9999982118607,0|0|2|0
280,64,197644,1,8
268,60,197729,1,0
256,60,197814,1,2
244,64,197899,1,0
232,72,197985,2,0,B|204:92|172:88,3,59.9999982118607,0|0|2|0
168,80,198325,2,0,B|140:64|104:72,3,59.9999982118607,8|0|2|0
100,80,198666,5,0
92,88,198752,1,0
88,100,198837,1,2
88,112,198922,1,0
92,124,199007,1,8
100,136,199092,1,0
104,148,199178,1,2
100,160,199263,1,0
92,172,199348,2,0,B|84:208|108:236,3,59.9999982118607,0|0|2|0
108,240,199689,1,8
116,248,199774,1,0
120,260,199860,1,2
116,272,199945,1,0
108,284,200030,6,0,B|108:324|140:340,3,59.9999982118607,0|0|2|0
144,336,200371,2,0,B|176:344|204:320,3,59.9999982118607,8|0|2|0
204,312,200712,2,0,B|224:284|260:288,3,59.9999982118607,0|0|2|0
268,292,201053,1,8
276,300,201138,1,0
284,308,201223,1,2
292,316,201308,1,0
300,324,201394,1,0
424,324,201564,2,0,B|388:240|424:136|400:80,1,239.999992847443,6|2
392,84,201990,5,0
380,80,202075,1,0
368,76,202161,1,0
356,72,202246,1,0
344,68,202331,1,0
332,64,202416,1,8
320,60,202502,1,0
308,56,202587,1,0
296,52,202672,1,0
284,48,202757,6,0,B|260:136|180:100|180:100|124:76|92:136,1,239.999992847443,4|0
36,240,203269,2,0,B|64:328|64:328|116:268|144:360|200:316,1,239.999992847443,6|0
316,348,203780,2,0,B|264:272|328:236|328:236|384:200|344:144,1,239.999992847443,4|0
260,56,204291,2,0,B|180:80|256:152|168:172|168:172|152:204|192:248|192:248,1,239.999992847443,6|0
136,352,204803,2,0,B|260:360|340:240,1,239.999992847443,4|12
337,244,205229,1,0
337,244,205314,1,2
280,136,205485,5,4
196,56,205655,1,2
88,108,205825,1,8
84,120,205911,1,0
80,132,205996,1,2
76,144,206081,1,0
72,156,206166,2,0,B|60:188|80:216,3,59.9999982118607,0|0|2|0
92,216,206507,2,0,B|116:236|116:272,3,59.9999982118607,8|0|2|0
124,280,206848,5,0
132,288,206933,1,0
144,296,207019,1,2
156,300,207104,1,0
168,304,207189,1,8
180,304,207274,1,0
192,304,207360,1,2
204,300,207445,1,0
216,296,207530,2,0,B|236:268|272:272,3,59.9999982118607,0|0|2|0
280,276,207871,1,8
292,280,207956,1,0
304,288,208041,1,2
312,296,208127,1,0
320,304,208212,6,0,B|436:260|480:136,1,239.999992847443,6|8
408,40,208723,1,2
288,44,208894,2,0,B|153:59|113:187,1,239.999992847443,6|8
113,186,209320,1,0
113,186,209405,1,2
124,308,209575,5,2
296,172,209831,1,4
452,328,210087,1,2
448,88,210257,5,2
248,196,210513,1,4
76,64,210769,1,2
52,180,210939,6,0,B|52:216|72:240,3,59.9999982118607,0|0|2|0
80,236,211280,2,0,B|108:256|112:288,3,59.9999982118607,8|0|2|0
120,296,211621,1,0
128,304,211706,1,0
140,312,211791,1,2
152,316,211877,1,0
164,316,211962,2,0,B|188:296|228:304,3,59.9999982118607,8|0|2|0
232,308,212303,6,0,B|360:344|452:248,1,239.999992847443,4|8
356,176,212814,1,2
292,76,212985,1,0
304,80,213070,1,0
316,84,213155,1,2
328,88,213240,1,0
340,92,213325,1,8
352,96,213411,1,0
364,100,213496,1,2
376,104,213581,1,0
388,108,213666,6,0,B|456:220|376:336,1,239.999992847443,4|8
256,320,214178,2,0,B|256:76,1,239.999992847443,2|2
124,108,214689,2,0,B|56:220|136:336,1,239.999992847443,8|0
144,328,215115,1,0
156,324,215200,1,2
188,208,215371,1,8
196,200,215456,1,0
204,192,215541,1,2
180,76,215712,1,0
184,64,215797,1,0
188,52,215882,1,2
68,56,216053,5,12
48,172,216223,1,2
56,180,216308,1,0
64,188,216394,2,0,B|116:300|256:312,1,239.999992847443,0|8
356,248,216905,2,0,B|240:224|272:160|152:128,1,239.999992847443,2|2
256,72,217416,2,0,B|396:84|448:196,1,239.999992847443,8|4
452,208,217842,1,0
456,220,217928,1,2
436,340,218098,5,8
356,248,218269,1,2
344,244,218354,1,0
332,240,218439,1,0
252,332,218610,1,2
248,320,218695,1,0
244,308,218780,1,8
276,192,218950,1,2
364,108,219121,6,0,B|260:132|188:64|128:72,1,239.999992847443,4|8
112,192,219632,2,0,B|232:192,2,119.999996423721,2|0|2
130,312,220144,2,0,B|188:320|260:252|364:276,1,239.999992847443,8|0
376,268,220570,1,0
388,260,220655,1,2
464,168,220825,1,8
348,140,220996,1,2
340,132,221081,1,0
332,124,221166,1,0
324,116,221252,1,0
316,108,221337,1,2
208,56,221507,5,8
88,72,221678,1,0
84,84,221763,1,0
80,96,221848,2,0,B|140:168|60:232|96:332,1,239.999992847443,4|8
108,332,222274,5,0
120,336,222360,1,2
132,336,222445,1,0
144,332,222530,1,0
156,332,222615,1,0
168,328,222700,1,2
180,328,222786,1,0
192,328,222871,2,0,B|220:348|256:340,3,59.9999982118607,8|0|2|0
256,332,223212,2,0,B|284:325|312:345,3,59.9999982118607,0|0|2|0
324,340,223553,1,8
336,336,223638,1,0
348,336,223723,1,2
360,340,223808,1,0
372,340,223894,2,0,B|460:260|440:116,1,239.999992847443,4|12
348,44,224405,5,2
340,52,224490,1,0
332,60,224575,2,0,B|216:120|180:64|100:120,1,239.999992847443,4|8
200,192,225087,1,2
200,192,225257,1,0
320,196,225428,1,2
336,324,225598,2,0,B|220:264|184:320|104:264,1,239.999992847443,8|0
96,260,226024,1,0
88,252,226110,1,2
148,152,226280,1,8
144,140,226365,1,0
140,128,226450,1,2
260,128,226621,1,0
268,120,226706,1,0
276,112,226791,1,2
392,76,226962,5,8
464,172,227132,1,2
460,184,227217,1,0
456,196,227303,2,0,B|408:312|272:336,1,239.999992847443,4|8
156,316,227814,1,2
212,212,227985,1,0
96,232,228155,1,2
156,128,228325,1,8
36,148,228496,1,2
104,52,228666,5,4
408,52,229007,1,12
408,332,229348,1,0
104,332,229689,1,12
336,268,230030,5,0
296,156,230200,1,2
292,144,230286,1,0
288,132,230371,1,8
188,76,230541,1,2
176,80,230627,1,0
164,84,230712,2,0,B|44:116|52:272,1,239.999992847443,4|8
172,292,231223,1,2
280,348,231394,2,0,B|400:316|392:160,1,239.999992847443,0|8
388,148,231820,1,0
384,136,231905,1,2
268,108,232075,1,0
256,96,232161,1,0
244,84,232246,1,2
128,64,232416,5,8
52,160,232587,1,2
60,168,232672,1,0
68,176,232757,1,0
104,292,232928,1,2
208,232,233098,1,8
284,328,233269,1,2
376,248,233439,1,0
380,260,233524,1,0
384,272,233610,1,2
388,284,233695,1,0
392,296,233780,1,8
452,192,233950,1,6
440,72,234121,5,0
432,80,234206,1,0
420,88,234291,1,2
408,92,234377,1,0
396,96,234462,1,8
384,96,234547,1,0
372,92,234632,1,2
360,88,234717,1,0
348,88,234803,1,8
336,92,234888,1,0
324,100,234973,1,2
316,108,235058,1,0
308,116,235144,1,8
296,124,235229,1,0
284,128,235314,1,2
272,128,235399,1,0
264,124,235485,6,0,B|176:68|52:108|48:276|120:332|248:340|284:264,1,480,0|4
256,192,236848,12,0,237871
428,336,238212,6,0,B|396:216|312:176|188:176|104:216|80:344,1,480,0|4
256,192,239575,12,0,240598
52,348,240939,6,0,B|128:176|388:264|416:44,1,480,0|4
256,192,242303,12,0,243325
36,36,243666,5,4
476,344,244348,1,4
256,192,245030,12,0,246053
256,352,246394,6,0,B|352:352|392:272,1,160,0|8
256,192,247075,1,0
123,105,247416,2,0,B|160:32|256:32,1,160,8|0
396,112,248098,1,8
256,192,248439,1,0
116,272,248780,1,8
52,124,249121,6,0,B|140:132|176:40,1,160,0|8
337,42,249803,2,0,B|372:132|460:124,1,160,0|8
459,259,250485,2,0,B|372:252|337:342,1,160,0|8
174,341,251167,2,0,B|140:252|52:260,1,160,0|8
196,192,251848,6,0,B|108:180|76:96,2,160,0|8|0
256,44,252871,1,8
316,192,253212,2,0,B|404:204|436:288,2,160,0|8|0
256,340,254235,1,8
96,340,254575,5,0
256,64,255257,1,2
416,340,255939,1,0
256,64,256621,5,2
204,192,256791,1,0
256,320,256962,1,2
308,192,257132,1,0
388,192,257303,5,0
468,192,257473,1,2
468,192,257558,1,0
468,192,257644,2,0,B|456:56|316:32,1,239.999992847443,8|0
196,44,258155,1,2
188,56,258240,1,0
180,68,258325,1,8
64,100,258496,5,2
144,188,258666,1,0
188,300,258837,1,2
324,300,259007,5,8
368,188,259178,1,2
448,100,259348,1,0
316,40,259519,5,0
256,144,259689,1,8
196,40,259860,5,2
196,40,259945,1,0
196,40,260030,2,0,B|192:120|76:144|84:248,1,239.999992847443,0|8
88,256,260456,1,0
96,268,260541,1,2
196,336,260712,5,0
316,316,260882,1,2
412,244,261053,1,8
436,128,261223,1,2
316,48,261394,5,0
196,68,261564,1,2
100,140,261735,1,8
76,256,261905,1,2
204,192,262075,5,0
308,132,262246,1,2
308,252,262416,1,12
136,88,262757,5,0
84,196,262928,1,2
92,204,263013,1,0
100,212,263098,2,0,B|140:344|288:320,1,239.999992847443,8|0
408,324,263610,1,2
416,316,263695,1,0
424,308,263780,1,8
396,192,263950,5,2
328,92,264121,1,0
212,68,264291,1,2
116,192,264462,5,8
184,292,264633,1,2
300,316,264803,1,0
256,192,264973,5,2
156,124,265144,1,8
60,52,265314,5,2
60,52,265399,1,0
60,52,265485,2,0,B|188:28|256:88|300:60,1,239.999992847443,0|8
308,56,265911,1,0
316,48,265996,1,2
412,120,266166,5,0
408,240,266337,1,2
312,312,266507,1,8
316,192,266678,1,2
200,312,266848,5,0
104,240,267019,1,2
100,120,267189,1,8
196,192,267360,1,2
256,48,267530,5,4
376,64,267700,1,2
388,68,267786,1,0
396,76,267871,1,8
404,88,267956,1,0
404,100,268041,1,2
400,112,268127,1,0
392,124,268212,1,0
384,132,268297,1,0
376,144,268382,1,2
372,156,268467,1,0
372,168,268553,6,0,B|404:188|412:220,3,59.9999982118607,8|0|2|0
400,220,268894,2,0,B|376:244|376:276,3,59.9999982118607,0|0|2|0
388,280,269235,2,0,B|408:304|408:336,3,59.9999982118607,8|0|2|0
396,340,269575,6,0,B|272:356|128:316|76:216,1,359.999989271164,4|6
316,192,270428,1,2
84,132,270769,1,6
192,184,270939,2,0,B|216:48|368:56,1,239.999992847443,4|8
372,64,271365,1,0
380,72,271450,1,0
388,80,271536,1,0
396,88,271621,1,4
