osu file format v7

[General]
AudioFilename: death_moon.mp3
AudioLeadIn: 0
PreviewTime: -1
Countdown: 1
SampleSet: Normal
StackLeniency: 0.7
Mode: 0
LetterboxInBreaks: 1

[Editor]
Bookmarks: 3155,15155,16655,28655,40655,52655,60755,63755,65255,77255,89255,90755,101255,108755,110255,114755,126755,138755,150755
DistanceSpacing: 0.800000011920929
BeatDivisor: 4
GridSize: 16

[Metadata]
Title:Death Moon
Artist:SHK.o2SE
Creator:Inozuma
Version:Insane
Source:
Tags:

[Difficulty]
HPDrainRate:5
CircleSize:5
OverallDifficulty:8
SliderMultiplier:1.4
SliderTickRate:1

[Events]
//Background and Video events
//Break Periods
//Storyboard Layer 0 (Background)
//Storyboard Layer 1 (Fail)
//Storyboard Layer 2 (Pass)
//Storyboard Layer 3 (Foreground)
//Storyboard Sound Samples
//Background Colour Transformations
3,100,163,162,255

[TimingPoints]
3165,375,4,2,0,100,1,0
3717,-200,4,2,0,100,0,0
4655,-100,4,1,0,100,0,0
5967,-200,4,2,0,100,0,0
7655,-100,4,1,0,100,0,0
9155,-100,4,2,0,100,0,0
10655,-100,4,1,0,100,0,0
11967,-100,4,2,0,100,0,0
13655,-100,4,1,0,100,0,0
14967,-100,4,2,0,100,0,0
15530,-200,4,2,0,100,0,0
15905,-100,4,2,0,100,0,0
16280,-50,4,2,0,100,0,0
16655,-100,4,2,0,100,0,0
22467,-100,4,1,0,100,0,0
23030,-100,4,2,0,100,0,0
24155,-100,4,1,0,100,0,0
24530,-100,4,2,0,100,0,0
25467,-100,4,1,0,100,0,0
26030,-100,4,2,0,100,0,0
27155,-100,4,1,0,100,0,0
27530,-100,4,2,0,100,0,0
28655,-100,4,2,1,50,0,0
28655,-100,4,2,1,50,0,0
34665,-100,4,2,0,70,0,0
40665,-100,4,1,0,40,0,0
55665,400,4,2,0,100,1,0
56465,428.571428571429,4,2,0,100,1,0
57322,461.538461538462,4,2,0,100,1,0
58245,1000,4,2,0,100,1,0
60755,375,4,1,0,100,1,0
63755,-200,4,2,0,100,0,0
64505,-100,4,2,0,100,0,0
64880,-50,4,1,0,100,0,0
65255,-100,4,1,0,100,0,0

[HitObjects]
192,224,3165,1,4
224,128,3352,1,2
320,160,3540,1,2
288,256,3727,2,0,B|368:288,2,70
192,224,4665,5,0
320,160,5040,1,0
128,96,5415,1,0
256,32,5790,1,0
320,224,6165,5,4
288,128,6352,1,2
192,160,6540,1,2
224,256,6727,2,0,B|144:288,2,70
320,224,7665,5,4
192,160,8040,1,0
384,96,8415,1,0
256,32,8790,1,0
256,32,9165,5,4
256,192,9258,12,4,10665
448,128,11040,5,0
320,320,11415,1,0
64,256,11790,1,0
192,64,12165,5,2
208,96,12258,1,0
224,128,12352,1,2
304,176,12540,2,0,B|352:176,2,35,2|0|2
208,208,12915,2,0,B|160:208,2,35,2|0|2
288,256,13290,1,2
304,288,13383,1,0
320,320,13477,1,2
416,208,13665,5,0
272,64,14040,1,0
96,176,14415,1,0
240,320,14790,1,0
240,320,15165,5,4
240,320,15352,1,0
224,240,15540,2,0,B|272:240,1,35,4|0
208,160,15915,2,0,B|288:160,1,70,4|0
192,80,16290,2,0,B|336:80,1,140,4|0
416,96,16665,6,0,B|480:160|416:224,1,140,2|8
368,272,17227,1,2
368,272,17321,1,2
368,272,17415,2,0,B|304:208|368:144,1,140,2|8
304,96,17977,1,2
304,96,18071,1,2
304,96,18165,2,0,B|160:96,1,140,2|8
112,176,18727,1,2
112,176,18821,1,2
112,176,18915,2,0,B|256:176,1,140,2|8
304,256,19477,5,2
304,256,19571,1,2
304,256,19665,2,0,B|160:256,1,140,2|8
112,336,20227,1,2
112,336,20321,1,2
112,336,20415,2,0,B|256:336,1,140,2|8
336,320,20977,1,2
336,320,21071,1,2
336,320,21165,2,0,B|400:256|336:192,1,140,2|8
288,144,21727,1,2
288,144,21821,1,2
288,144,21915,2,0,B|224:208|288:272,1,140,2|8
256,64,22665,6,0,B|112:64,1,140,4|8
64,144,23415,2,0,B|208:144,1,140,0|8
304,144,23977,5,4
304,144,24071,1,4
304,144,24165,2,0,B|448:144,1,140,4|8
400,224,24915,2,0,B|256:224,1,140,0|8
256,320,25665,6,0,B|400:320,1,140,4|8
448,240,26415,2,0,B|304:240,1,140,0|8
208,240,26977,5,4
208,240,27071,1,4
208,240,27165,2,0,B|64:240,1,140,4|8
112,160,27915,2,0,B|256:160,1,140,0|8
252,160,28477,1,0
384,160,28665,5,4
320,256,28852,1,2
192,256,29040,1,8
128,160,29227,1,2
256,160,29415,1,8
320,64,29602,5,2
192,128,29790,1,8
256,32,29977,1,2
128,224,30165,5,8
192,128,30352,1,2
320,128,30540,1,8
384,224,30727,1,2
256,224,30915,1,8
192,320,31102,5,2
320,256,31290,1,8
256,352,31477,1,2
384,160,31665,5,8
256,224,31852,1,0
128,160,32040,1,8
256,96,32227,1,0
256,224,32415,1,8
256,224,32602,6,0,L|256:304,2,70,0|8|0
256,96,33165,2,0,L|256:64,32,17.5,2|2|2|2|2|2|2|2|2|2|2|2|2|2|2|2|2|2|2|2|2|2|2|2|2|2|2|2|2|2|2|2|4
192,208,34852,6,0,L|176:240,2,35,2|2|8
320,176,35227,2,0,L|336:208,2,35,2|2|0
128,192,35602,6,0,L|80:208,2,35,2|2|8
368,128,35977,2,0,L|416:144,2,35,2|2|0
80,144,36352,6,0,L|32:128,2,35,2|2|8
384,64,36727,2,0,L|432:48,2,35,2|2|0
96,80,37102,6,0,L|80:48,2,35,2|2|8
320,48,37477,2,0,L|336:16,2,35,2|2|0
288,112,37852,5,2
256,96,37946,1,2
224,80,38040,1,8
208,160,38227,1,2
176,144,38321,1,2
144,128,38415,1,0
64,144,38602,5,0
160,240,38790,1,8
256,336,38977,1,0
352,240,39165,5,2
256,224,39352,1,2
272,128,39540,1,8
368,144,39727,1,2
368,144,39915,1,2
272,128,40102,6,0,L|208:96,2,70,0|8|0
256,224,40665,6,2,L|176:208,1,70,0|0
272,272,41040,2,2,L|192:256,1,70,0|0
288,320,41415,2,2,L|208:304,1,70,0|0
304,368,41790,2,2,L|224:352,1,70,0|0
256,160,42165,6,2,L|336:176,1,70,0|0
240,112,42540,2,2,L|320:128,1,70,0|0
224,64,42915,2,2,L|304:80,1,70,0|0
208,16,43290,2,2,L|288:32,1,70,0|0
288,224,43665,6,0,L|304:304,1,70
352,192,44040,2,0,L|400:256,1,70
400,144,44415,2,0,L|464:192,1,70
416,80,44790,2,0,L|496:96,1,70
224,224,45165,6,0,L|208:304,1,70
160,192,45540,2,0,L|112:256,1,70
112,144,45915,2,0,L|48:192,1,70
96,80,46290,2,0,L|16:96,1,70
320,64,46665,6,0,L|352:48,2,35
192,96,47040,2,0,L|160:80,2,35
320,160,47415,2,0,L|352:176,2,35
192,192,47790,2,0,L|160:208,2,35
320,160,48165,6,0,L|352:144,2,35
192,192,48540,2,0,L|160:176,2,35
320,256,48915,2,0,L|352:272,2,35
192,288,49290,2,0,L|160:304,2,35
192,288,49665,6,0,L|192:368,1,70
320,160,50040,2,0,L|320:240,1,70
192,128,50415,2,0,L|192:208,1,70
320,0,50790,2,0,L|320:80,1,70
224,32,51165,5,0
192,128,51352,1,0
288,160,51540,1,0
320,64,51727,1,0
256,96,51915,5,0
128,160,52102,1,0
192,288,52290,1,0
320,224,52477,1,0
320,224,52665,5,0
256,256,52852,1,0
192,288,53040,1,0
192,288,53227,1,0
128,320,53415,5,0
96,256,53602,1,0
64,192,53790,1,0
64,192,53977,1,0
32,128,54165,5,0
96,96,54352,1,0
160,64,54540,1,0
160,64,54727,1,0
224,32,54915,5,0
256,96,55102,1,0
288,160,55290,1,0
288,160,55477,1,0
320,224,55665,5,0
288,320,55865,1,0
192,288,56065,1,0
224,192,56265,1,0
320,224,56465,5,0
400,256,56679,1,0
432,176,56893,1,0
352,144,57107,1,0
256,96,57322,5,0
192,128,57552,1,0
256,160,57783,1,0
192,192,58014,1,0
256,224,58245,5,0
224,240,58495,1,0
192,256,58745,1,0
160,272,58995,2,0,B|72:312,1,87.5
256,48,60755,5,0
256,48,61505,5,0
224,48,61598,1,0
192,64,61691,1,0
176,96,61785,1,0
176,128,61879,1,0
192,160,61973,1,0
224,176,62067,1,0
256,176,62160,1,0
288,192,62254,5,0
304,224,62348,1,0
304,256,62442,1,0
288,288,62535,1,0
256,304,62629,1,0
224,288,62723,1,0
208,256,62817,1,0
208,224,62910,1,0
224,192,63004,5,0
256,176,63098,1,0
288,176,63192,1,0
320,160,63286,1,0
336,128,63379,1,0
336,96,63473,1,0
320,64,63567,1,0
288,48,63661,1,0
256,48,63755,6,0,B|224:48|208:64,1,35,4|0
160,96,64130,2,0,B|144:112|144:144,1,35,4|0
144,208,64505,2,0,B|144:240|176:272,1,70,4|0
256,320,64880,2,0,B|304:336|368:320|400:288,1,140,4|0
448,240,65255,5,0
464,208,65348,1,0
464,176,65442,1,0
464,144,65536,1,0
448,112,65630,2,0,B|480:80,3,35
416,96,66005,5,0
384,96,66098,1,0
352,96,66192,1,0
320,96,66286,1,0
288,112,66380,2,0,B|288:160,3,35
256,96,66755,6,0,B|112:112,1,140,4|0
256,288,67317,2,0,B|400:272,1,140
464,304,67880,2,0,B|496:272|464:240,1,70
416,192,68255,6,0,B|368:176|368:96|416:80,1,140,4|0
96,192,68817,2,0,B|144:208|144:288|96:304,1,140
48,240,69380,1,0
192,304,69567,1,0
176,160,69755,6,0,L|160:96|80:80,1,140,4|0
336,224,70317,2,0,L|352:288|432:304,1,140
424,302,70880,1,0
64,240,71255,5,0
48,208,71348,1,0
48,176,71442,1,0
48,144,71536,1,0
64,112,71630,2,0,B|32:80,3,35
96,96,72005,5,0
128,96,72098,1,0
160,96,72192,1,0
192,96,72286,1,0
224,112,72380,2,0,B|224:160,3,35
256,96,72755,6,0,L|256:48,3,35
288,112,73130,2,0,L|288:160,3,35
320,96,73505,2,0,L|320:48,3,35
352,112,73880,2,0,L|352:160,3,35
384,96,74255,6,0,L|464:96,1,70
454,96,74630,1,0
416,160,74817,2,0,L|480:192,2,70
416,160,75380,1,0
416,160,75567,1,0
336,160,75755,6,0,B|304:176|288:224|304:272|336:288,1,140
176,224,76317,2,0,B|208:208|224:160|208:112|176:96,1,140,0|0
144,160,76880,2,0,B|64:144,1,70
80,256,77255,5,0
128,320,77442,1,0
240,288,77630,1,0
192,224,77817,1,0
240,288,78005,5,0
288,352,78192,1,0
400,320,78380,1,0
352,256,78567,1,0
320,144,78755,5,0
448,128,78942,1,0
480,240,79130,1,0
352,256,79317,1,0
192,144,79505,5,0
64,128,79692,1,0
32,240,79880,1,0
160,256,80067,1,0
192,144,80255,5,0
320,144,80442,1,0
160,256,80630,1,0
352,256,80817,1,0
256,304,81005,5,0
432,192,81192,1,0
64,192,81380,1,0
256,112,81567,1,0
352,256,81755,6,0,B|368:304|320:336,1,70
160,128,82130,2,0,B|144:80|192:48,1,70
256,112,82505,1,0
288,128,82598,1,0
304,160,82692,1,0
288,192,82786,1,0
256,208,82880,2,0,B|224:240|256:272,1,70
