osu file format v9

[General]
AudioFilename: weep Irish.mp3
AudioLeadIn: 1004
PreviewTime: 46339
Countdown: 0
SampleSet: Normal
StackLeniency: 0.6
Mode: 0
LetterboxInBreaks: 0

[Editor]
Bookmarks: 14891,28132,36408,46339,59581,72822,86063,99305,102615,109236,112546
DistanceSpacing: 0.5
BeatDivisor: 4
GridSize: 8

[Metadata]
Title:Weep Irish
Artist:SHK
Creator:AngelHoney
Version:Insane
Source:BMS
Tags:EZ2DJ O2jam fartownik KanaRin

[Difficulty]
HPDrainRate:6
CircleSize:5
OverallDifficulty:6
ApproachRate:8
SliderMultiplier:2.4
SliderTickRate:0.5

[Events]
//Background and Video events
0,0,"13869776.jpg"
//Break Periods
2,42819,45594
//Storyboard Layer 0 (Background)
//Storyboard Layer 1 (Fail)
//Storyboard Layer 2 (Pass)
//Storyboard Layer 3 (Foreground)
//Storyboard Sound Samples
//Background Colour Transformations
3,100,0,0,0

[TimingPoints]
1655,413.793103448276,4,1,1,80,1,0
14689,-100,4,1,1,90,0,0
26379,-100,4,1,1,100,0,0
28086,-100,4,1,2,40,0,0
32689,-100,4,1,2,35,0,0
32999,-100,4,1,2,30,0,0
33310,-100,4,1,2,25,0,0
33620,-100,4,1,2,20,0,0
34132,-100,4,2,0,0,0,0
36201,-100,4,1,2,40,0,0
41586,-100,4,1,2,35,0,0
41896,-100,4,1,2,30,0,0
42205,-200,4,1,2,30,0,0
43033,-100,4,1,1,100,0,0
45517,-100,4,1,1,80,0,0
52861,-100,4,1,1,85,0,0
57827,-100,4,1,1,95,0,0
58706,-100,4,1,1,100,0,0
59534,-100,4,1,1,90,0,0
76034,-100,4,1,1,95,0,0
77741,-100,4,1,1,100,0,0
79396,-100,4,1,1,90,0,0
82655,-100,4,1,1,95,0,0
84361,-100,4,1,1,100,0,0
86017,-100,4,1,1,90,0,0
89275,-100,4,1,1,95,0,0
90982,-100,4,1,1,100,0,0
92637,-100,4,1,1,90,0,0
95896,-100,4,1,1,95,0,0
97603,-100,4,1,1,100,0,0
99258,-100,4,1,1,50,0,0
99672,-100,4,1,1,90,0,0
102568,-100,4,1,1,100,0,0
102827,-100,4,1,1,90,0,0
109189,-100,4,1,1,50,0,0
109603,-100,4,1,1,90,0,0
112499,-200,4,2,0,80,0,0
113379,-200,4,2,1,0,0,0

[Colours]
Combo1 : 0,124,249
Combo2 : 227,0,0
Combo3 : 104,255,104
Combo4 : 255,111,40

[HitObjects]
128,48,1655,5,4
384,48,2068,1,0
128,128,2482,1,0
384,128,2896,1,0
128,208,3310,1,0
384,208,3723,1,0
128,288,4137,1,0
384,288,4551,1,0
128,368,4965,5,0
128,16,5379,1,0
208,368,5792,1,0
208,16,6206,1,0
288,368,6620,1,0
288,16,7034,1,0
368,368,7448,1,0
368,16,7861,1,0
448,368,8275,5,4
64,368,8689,1,0
448,288,9103,1,0
64,288,9517,1,0
448,208,9930,1,0
64,208,10344,1,0
448,128,10758,1,0
64,128,11172,1,0
448,48,11586,5,0
64,336,11999,1,0
400,96,12413,1,0
112,288,12827,1,0
352,144,13241,1,0
160,240,13655,1,0
304,192,14068,1,0
208,192,14482,1,0
80,80,14896,6,0,B|208:64,1,120,4|0
384,112,15310,2,0,B|256:128,1,120
80,224,15723,2,0,B|208:208,1,120
416,240,16137,1,0
384,248,16241,1,0
352,256,16344,1,0
224,352,16551,6,0,B|192:224,1,120
272,96,16965,2,0,B|304:224,1,120
96,208,17379,2,0,B|64:80,1,120
384,80,17792,1,0
376,112,17896,1,0
368,144,17999,1,0
176,208,18206,6,0,B|16:224,1,120
224,144,18620,2,0,B|96:128,1,120
240,256,19034,2,0,B|112:288,1,120
288,96,19448,2,0,B|160:64,1,120
288,160,19861,6,0,B|432:128,1,120
368,208,20275,2,0,B|512:224,1,120
304,304,20689,2,0,B|448:272,1,120
176,208,21103,2,0,B|320:240,1,120
192,144,21517,5,4
128,75,21723,1,0
38,99,21930,1,0
11,192,22137,1,0
75,260,22344,1,0
165,236,22551,1,0
256,208,22758,1,0
272,176,22861,1,0
288,144,22965,1,0
352,64,23172,5,0
437,120,23379,1,0
445,216,23586,1,0
371,287,23793,1,0
286,230,24000,1,0
278,135,24207,1,0
240,48,24414,1,0
208,40,24517,1,0
176,32,24621,1,0
64,96,24827,5,0
80,192,25034,1,0
160,128,25241,1,0
176,224,25448,1,0
256,160,25655,1,0
272,256,25862,1,0
352,192,26069,1,0
368,288,26276,1,0
448,224,26482,5,0
442,209,26586,1,0
437,194,26689,1,0
431,179,26792,1,0
425,164,26896,1,0
420,150,26999,1,0
414,135,27103,1,0
408,120,27206,1,0
399,107,27310,1,0
384,112,27413,1,0
369,118,27517,1,0
354,124,27620,1,0
339,130,27723,1,0
324,135,27827,1,0
309,141,27930,1,0
294,147,28034,1,0
278,154,28137,5,4
144,160,28448,1,0
208,272,28758,1,0
416,176,29172,1,0
224,48,29586,1,8
192,64,29792,5,0
176,176,30103,1,0
288,128,30413,1,0
64,48,30827,1,0
112,272,31241,1,8
144,288,31448,5,0
256,304,31758,1,0
215,208,32068,1,0
336,96,32482,1,0
416,224,32896,1,8
400,256,33103,5,0
320,320,33413,1,0
208,320,33723,1,0
256,192,34241,12,0,35999
96,96,36413,5,0
160,176,36723,1,0
192,80,37034,1,0
384,64,37448,1,0
288,224,37861,1,8
320,224,38068,5,0
400,304,38379,1,0
288,336,38689,1,0
80,288,39103,1,0
224,160,39517,1,8
208,128,39723,5,0
272,48,40034,1,0
320,144,40344,1,0
160,288,40758,1,0
352,320,41172,1,8
384,304,41379,5,0
464,240,41689,1,0
364,208,41999,1,0
208,160,42413,2,0,B|160:192,2,30,0|0|0
80,128,46344,5,6
144,224,46655,1,2
256,192,46965,1,2
256,176,47068,1,2
256,160,47172,1,2
352,96,47482,1,2
448,144,47792,1,0
464,176,47999,5,2
144,304,48620,1,0
160,288,48723,1,2
176,272,48827,1,2
128,176,49137,1,2
208,96,49448,1,0
240,80,49655,5,2
448,192,50275,1,0
416,200,50379,1,2
384,208,50482,1,2
288,288,50792,1,2
192,208,51103,1,0
208,176,51310,5,2
112,80,51620,1,2
32,192,51930,1,0
48,224,52137,5,2
240,64,52448,1,2
400,192,52758,1,0
416,224,52965,5,0
336,272,53172,1,0
320,296,53275,1,2
224,256,53482,1,2
208,232,53586,1,0
192,208,53689,1,2
176,184,53792,1,2
120,264,53999,1,0
96,272,54103,1,2
72,184,54310,1,2
48,176,54413,1,0
32,80,54620,5,2
120,40,54827,1,0
128,72,54930,1,2
216,104,55137,1,2
232,80,55241,1,0
248,56,55344,1,2
264,32,55448,1,2
336,104,55655,1,0
344,136,55758,1,2
432,88,55965,1,2
448,64,56068,1,0
464,184,56275,6,0,B|416:232|416:232|336:240,1,120,2|2
336,216,56586,2,0,B|264:208|264:208|208:232,1,120,2|2
216,264,56896,2,0,B|152:280|152:280|88:256,1,120,0|2
40,96,57413,1,2
232,96,57723,1,0
272,72,57930,5,0
288,88,58034,1,0
304,104,58137,1,0
320,120,58241,1,0
336,136,58344,1,0
352,152,58448,1,0
368,168,58551,1,0
384,184,58655,1,0
384,208,58758,1,0
368,224,58861,1,0
352,240,58965,1,0
336,256,59068,1,0
320,272,59172,1,0
304,288,59275,1,0
288,304,59379,1,0
272,320,59482,1,0
256,336,59586,6,0,B|112:328,1,120,6|8
8,240,59999,1,0
80,128,60206,1,2
112,144,60310,1,2
144,160,60413,2,0,B|200:184|200:184|272:152,1,120,0|10
280,144,60723,2,0,B|344:120|344:120|416:144,1,120,2|2
424,152,61034,1,2
280,56,61241,6,0,B|216:80|216:80|144:72,1,120,2|8
40,240,61655,2,0,B|96:216|96:216|184:232,1,120,0|2
184,232,61965,1,2
216,240,62068,2,0,B|280:256|280:256|344:224,1,120,0|10
352,216,62379,2,0,B|416:224|416:224|480:184,1,120,2|2
480,168,62689,2,0,B|424:144|424:144|392:80,1,120,2|2
248,32,63103,5,8
88,64,63310,2,0,B|144:104|144:104|168:160,1,120,0|2
176,184,63620,1,2
187,216,63723,1,2
384,304,64034,1,2
144,336,64344,1,2
120,320,64551,5,2
352,184,64861,1,2
112,112,65172,1,2
96,144,65379,5,2
360,56,65689,1,2
432,288,65999,1,2
408,312,66206,5,6
320,360,66413,1,8
232,296,66620,2,0,B|168:296|168:296|96:272,1,120,0|2
88,264,66930,1,2
60,247,67034,2,0,B|52:183|52:183|124:191,1,120,0|10
138,196,67344,2,0,B|232:198|248:118,1,120,2|2
257,118,67655,1,2
384,32,67861,6,0,B|400:168,1,120,0|8
408,272,68275,1,0
304,224,68482,1,2
272,232,68586,1,2
240,240,68689,1,0
152,296,68896,1,10
128,320,68999,1,2
144,184,69206,1,2
120,160,69310,1,2
56,56,69517,6,0,B|112:80|112:80|184:64,1,120,2|8
288,40,69930,1,0
256,144,70137,1,2
272,176,70241,1,2
288,208,70344,1,0
488,208,70655,1,2
376,352,70965,1,2
344,368,71172,5,2
120,336,71482,1,2
232,192,71792,1,2
240,224,71999,5,2
440,96,72310,1,2
224,16,72620,1,2
192,48,72827,6,0,B|128:56|72:32,1,120,4|10
336,112,73241,2,0,B|408:120|464:96,1,120,0|2
160,192,73655,2,0,B|96:200|16:176,1,120,2|10
368,248,74068,2,0,B|440:256|512:240,1,120,2|0
176,320,74482,6,0,B|104:312|40:352,1,120,0|10
272,216,74896,2,0,B|344:224|416:256,1,120,0|2
144,112,75310,2,0,B|72:120|0:152,1,120,2|10
320,56,75723,2,0,B|384:64|440:88,1,120,2|0
224,8,76137,5,2
236,32,76241,1,2
244,56,76344,1,10
252,80,76448,1,2
260,104,76551,1,2
264,128,76655,1,2
264,152,76758,1,2
260,176,76861,1,2
252,200,76965,1,2
240,224,77068,1,2
228,248,77172,1,10
216,272,77275,1,2
204,296,77379,1,2
196,320,77482,1,2
192,348,77586,1,2
197,373,77689,1,2
240,368,77792,5,0
272,360,77896,1,2
304,352,77999,1,8
336,344,78103,1,2
368,312,78206,5,0
336,304,78310,1,2
304,296,78413,1,0
272,288,78517,1,2
248,256,78620,5,0
288,240,78723,1,2
328,224,78827,1,8
368,208,78930,1,2
408,176,79034,5,0
360,152,79137,1,2
312,128,79241,1,0
264,104,79344,1,2
224,72,79448,6,0,B|352:56,1,120,4|10
152,88,79861,2,0,B|8:112,1,120,0|2
224,224,80275,2,0,B|352:248,1,120,2|10
152,208,80689,2,0,B|27:190,1,120,2|0
192,288,81103,6,0,B|248:320|280:376,1,120,0|10
136,176,81517,2,0,B|72:176|-8:224,1,120,0|2
288,136,81930,2,0,B|360:152|424:208,1,120,2|10
176,32,82344,2,0,B|109:29|24:56,1,120,2|0
320,32,82758,5,2
305,58,82861,1,2
285,81,82965,1,10
262,100,83068,1,2
236,116,83172,1,2
207,125,83275,1,2
177,131,83379,1,2
147,130,83482,1,2
117,123,83586,1,2
89,112,83689,1,2
59,114,83792,1,10
31,126,83896,1,2
16,152,83999,1,2
14,182,84103,1,2
20,211,84206,1,2
36,236,84310,1,2
32,272,84413,5,0
64,264,84517,1,2
96,256,84620,1,8
128,248,84723,1,2
160,264,84827,1,0
192,272,84930,1,2
224,280,85034,1,0
256,288,85137,1,2
288,280,85241,1,0
320,272,85344,1,2
352,280,85448,1,8
384,288,85551,1,2
416,296,85655,1,0
448,288,85758,1,2
479,271,85861,1,0
503,247,85965,1,2
512,216,86068,6,0,B|464:184|368:184,1,120,4|10
272,200,86482,1,0
152,160,86689,1,2
40,88,86896,2,0,B|96:56|184:64,1,120,2|10
272,80,87310,1,0
384,112,87517,1,2
352,208,87723,6,0,B|416:192|496:200,1,120,0|10
208,240,88137,2,0,B|152:256|80:248,1,120,0|2
256,128,88551,2,0,B|312:88|384:72,1,120,0|10
296,320,88965,2,0,B|248:360|184:384,1,120,0|2
56,320,89379,5,2
82,309,89482,1,2
80,280,89586,1,10
107,268,89689,1,2
96,240,89792,1,2
80,216,89896,1,2
104,200,89999,1,2
136,192,90103,1,2
155,214,90206,1,2
184,200,90310,1,2
183,169,90413,1,10
152,160,90517,1,2
120,160,90620,1,2
96,144,90723,1,2
72,160,90827,1,2
48,152,90930,1,2
24,128,91034,6,0,B|24:64,1,60,0|2
104,128,91241,2,0,B|120:64,1,60,8|2
184,144,91448,2,0,B|224:88,1,60,0|2
248,192,91655,2,0,B|312:160,1,60,0|2
296,264,91861,2,0,B|376:264,1,60,0|2
328,176,92068,2,0,B|392:208,1,60,8|2
376,112,92275,2,0,B|432:168,1,60,0|2
448,64,92482,2,0,B|472:120,1,60,0|2
504,144,92689,6,0,B|512:208|480:264,1,120,4|10
304,240,93103,2,0,B|256:208|176:192,1,120,0|2
40,200,93517,1,2
128,96,93723,2,0,B|200:88|256:48,1,120,10|0
368,64,94137,1,2
288,160,94344,6,0,B|216:160|152:200,1,120,0|10
216,320,94758,2,0,B|288:320|344:280,1,120,0|2
208,96,95172,2,0,B|136:128|104:200,1,120,0|10
328,352,95586,2,0,B|384:320|416:256,1,120,0|2
512,104,95999,5,2
480,112,96103,1,2
448,120,96206,1,10
416,120,96310,1,2
384,112,96413,1,2
352,104,96517,1,2
320,96,96620,1,2
288,92,96723,1,2
256,104,96827,1,2
224,116,96930,1,2
192,128,97034,1,10
160,136,97137,1,2
128,144,97241,1,2
96,148,97344,1,2
64,144,97448,1,2
32,132,97551,1,2
16,160,97655,6,0,B|16:224,1,60
80,272,97861,2,0,B|80:208,1,60,8|2
144,176,98068,2,0,B|144:240,1,60,0|2
208,288,98275,2,0,B|208:224,1,60,0|2
272,160,98482,2,0,B|272:224,1,60,0|2
336,304,98689,2,0,B|336:240,1,60,8|2
400,144,98896,2,0,B|400:208,1,60,0|2
464,320,99103,2,0,B|464:240,1,60,0|2
496,176,99310,6,0,B|493:139|472:104,3,60
458,91,99723,1,6
432,72,99827,1,2
400,56,99930,1,2
369,45,100034,1,0
335,37,100137,1,0
304,32,100241,1,0
272,32,100344,1,10
240,35,100448,1,0
208,40,100551,1,2
176,56,100655,1,2
152,72,100758,1,2
136,96,100861,1,0
120,120,100965,5,0
128,144,101068,1,2
136,168,101172,1,10
144,192,101275,1,0
176,216,101379,5,0
184,184,101482,1,2
192,152,101586,1,2
200,120,101689,1,0
232,96,101792,5,0
248,128,101896,1,2
264,160,101999,1,10
280,192,102103,1,0
320,216,102206,5,0
336,176,102310,1,2
352,136,102413,1,2
368,96,102517,1,0
416,80,102620,5,0
448,296,103034,1,6
419,303,103137,1,2
389,308,103241,1,2
359,313,103344,1,0
328,315,103448,1,0
298,315,103551,1,2
268,311,103655,1,10
239,303,103758,1,0
211,290,103861,1,2
182,279,103965,1,2
155,266,104068,1,2
125,260,104172,1,0
81,251,104275,5,0
68,223,104379,1,0
53,196,104482,1,8
57,166,104586,1,0
82,150,104689,1,2
109,138,104792,1,2
138,141,104896,1,2
165,152,104999,1,0
191,165,105103,1,0
219,174,105206,1,0
247,182,105310,1,10
276,184,105413,1,0
305,179,105517,1,2
332,167,105620,1,2
358,154,105723,1,2
384,139,105827,1,0
453,102,105930,6,0,B|458:186,3,60,6|2|10|0
458,191,106344,1,2
459,221,106448,1,0
462,250,106551,1,2
462,280,106655,1,0
383,304,106758,6,0,B|380:242,3,60,2|2|10|0
378,213,107172,1,2
375,183,107275,1,0
373,152,107379,1,2
371,122,107482,1,0
284,115,107586,6,0,B|288:189,3,60,2|2|10|0
289,204,107999,1,2
291,234,108103,1,0
292,263,108206,1,2
295,292,108310,1,0
207,304,108413,6,0,B|204:234,3,60,2|2|10|0
202,213,108827,1,2
202,183,108930,1,0
200,152,109034,1,2
198,122,109137,1,0
128,56,109241,6,0,B|64:56,3,60
88,176,109655,6,0,B|184:176,3,60,6|2|2|0
232,88,110068,6,0,B|312:88,3,60,2|0|10|0
360,192,110482,6,0,B|296:192,3,60,2|2|2|0
440,128,110896,6,0,B|504:128,3,60,2|0|10|0
432,288,111310,6,0,B|352:288,3,60,2|2|2|0
208,232,111723,6,0,B|272:232,3,60,2|2|10|0
112,312,112137,6,0,B|32:312,3,60,2|2|2|0
64,192,112551,6,0,B|192:232|320:192,1,240,4|0
