osu file format v14

[General]
AudioFilename: Super_Fantasy_-_SHK___HQ_Audio,_PIU_2015_PRIME.mp3
AudioLeadIn: 0
PreviewTime: -1
Countdown: 1
SampleSet: Soft
StackLeniency: 0.7
Mode: 3
LetterboxInBreaks: 1
SpecialStyle: 1
WidescreenStoryboard: 1

[Editor]
DistanceSpacing: 0.9
BeatDivisor: 4
GridSize: 8
TimelineZoom: 1.7

[Metadata]
Title:Super fantasy
TitleUnicode:Super fantasy
Artist:SHK
ArtistUnicode:SHK
Creator:kelvinkakashi
Version:hyper
Source:pump it up
Tags:
BeatmapID:695689
BeatmapSetID:306503

[Difficulty]
HPDrainRate:5
CircleSize:7
OverallDifficulty:5
ApproachRate:5
SliderMultiplier:1.4
SliderTickRate:1

[Events]
//Background and Video events
0,0,"SHK-Super-Fantasy-Pump-It-Up-Prime-Teaser-Preview.jpg",0,0
//Break Periods
//Storyboard Layer 0 (Background)
//Storyboard Layer 1 (Fail)
//Storyboard Layer 2 (Pass)
//Storyboard Layer 3 (Foreground)
//Storyboard Sound Samples

[TimingPoints]
206,206.896551724138,4,2,0,5,1,0
206,-500,4,2,0,5,0,0
6826,413.793103448276,4,2,0,5,1,0
6826,-133.333333333333,4,2,0,5,0,0
11792,-66.6666666666667,4,2,0,5,0,0
12826,-500,4,2,0,5,0,0
13136,413.793103448276,4,2,0,5,1,0
13136,-133.333333333333,4,2,0,5,0,0
13446,-100,4,2,0,5,0,0
21308,20.6896551724138,4,2,0,5,1,0
21308,-10,4,2,0,5,0,0
21320,4000,4,2,0,5,1,0
21359,-1000,4,2,0,5,0,0
21619,413.793103448276,4,2,0,5,1,0
21719,-100,4,2,0,5,0,0
21825,413.793103448276,4,2,0,5,1,0
23066,20.6896551724138,4,2,0,5,1,0
23066,-10,4,2,0,5,0,0
23081,4000,4,2,0,5,1,0
23081,-1000,4,2,0,5,0,0
23376,413.793103448276,4,2,0,5,1,0
23376,-100,4,2,0,5,0,0
26688,-133.333333333333,4,2,0,5,0,0
29585,-66.6666666666667,4,2,0,5,0,0
29999,-133.333333333333,4,2,0,5,0,0
32895,-66.6666666666667,4,2,0,5,0,0
33309,-133.333333333333,4,2,0,5,0,0
36206,-66.6666666666667,4,2,0,5,0,0
36619,-133.333333333333,4,2,0,5,0,0
39516,-66.6666666666667,4,2,0,5,0,0
39930,-83.3333333333333,4,2,0,5,0,0
40031,413.793103448276,4,2,0,5,1,0
46137,-66.6666666666667,4,2,0,5,0,0
46550,-100,4,2,0,5,0,0
59792,-142.857142857143,4,2,0,5,0,0
73033,-76.9230769230769,4,2,0,5,0,0
73861,-133.333333333333,4,2,0,5,0,0
74688,-76.9230769230769,4,2,0,5,0,0
75516,-133.333333333333,4,2,0,5,0,0
76343,-76.9230769230769,4,2,0,5,0,0
77171,-133.333333333333,4,2,0,5,0,0
77585,-76.9230769230769,4,2,0,5,0,0
80481,-133.333333333333,4,2,0,5,0,0
81309,-76.9230769230769,4,2,0,5,0,0
82137,-133.333333333333,4,2,0,5,0,0
82998,-76.9230769230769,4,2,0,5,0,0
83792,-133.333333333333,4,2,0,5,0,0
84206,-76.9230769230769,4,2,0,5,0,0
85861,-66.6666666666667,4,2,0,5,0,0
86274,-100,4,2,0,5,0,0
92895,-133.333333333333,4,2,0,5,0,0
94237,20.6896551724138,4,2,0,5,1,0
94237,-10,4,2,0,5,0,0
94252,4000,4,2,0,5,1,0
94252,-1000,4,2,0,5,0,0
94651,413.793103448276,4,2,0,5,1,0
94651,-133.333333333333,4,2,0,5,0,0
95892,20.6896551724138,4,2,0,5,1,0
95892,-10,4,2,0,5,0,0
95907,4000,4,2,0,5,1,0
95907,-1000,4,2,0,5,0,0
96306,413.793103448276,4,2,0,5,1,0
96306,-133.333333333333,4,2,0,5,0,0
99616,-100,4,2,0,5,0,0
112857,4000,4,2,0,5,1,0
112857,-1000,4,2,0,5,0,0
114512,413.793103448276,4,2,0,5,1,0

[HitObjects]
36,192,206,128,0,6826:0:0:0:0:
256,192,206,128,0,6826:0:0:0:0:
475,192,206,128,0,6826:0:0:0:0:
329,192,1861,128,0,5171:0:0:0:0:
109,192,3516,128,0,6826:0:0:0:0:
402,192,5171,128,0,6826:0:0:0:0:
182,192,6826,1,0,0:0:0:0:
329,192,6826,1,0,0:0:0:0:
329,192,7239,1,0,0:0:0:0:
182,192,7239,1,0,0:0:0:0:
182,192,7653,1,0,0:0:0:0:
329,192,7653,1,0,0:0:0:0:
329,192,8067,1,0,0:0:0:0:
182,192,8067,1,0,0:0:0:0:
475,192,8067,128,0,8481:0:0:0:0:
182,192,8481,1,0,0:0:0:0:
329,192,8481,1,0,0:0:0:0:
329,192,8894,1,0,0:0:0:0:
182,192,8894,1,0,0:0:0:0:
36,192,8894,128,0,9308:0:0:0:0:
329,192,9308,1,0,0:0:0:0:
182,192,9308,1,0,0:0:0:0:
182,192,9722,1,0,0:0:0:0:
329,192,9722,1,0,0:0:0:0:
329,192,10136,1,0,0:0:0:0:
182,192,10136,1,0,0:0:0:0:
402,192,10136,128,0,11377:0:0:0:0:
329,192,10550,1,0,0:0:0:0:
182,192,10550,1,0,0:0:0:0:
182,192,10963,1,0,0:0:0:0:
329,192,10963,1,0,0:0:0:0:
329,192,11377,1,0,0:0:0:0:
182,192,11377,1,0,0:0:0:0:
36,192,11791,128,0,13549:0:0:0:0:
475,192,11791,128,0,13549:0:0:0:0:
256,192,11791,128,0,13549:0:0:0:0:
182,192,13136,1,0,0:0:0:0:
329,192,13239,1,0,0:0:0:0:
109,192,13342,1,0,0:0:0:0:
402,192,13446,1,0,0:0:0:0:
182,192,13549,1,0,0:0:0:0:
329,192,13653,1,0,0:0:0:0:
182,192,13756,1,0,0:0:0:0:
402,192,13860,1,0,0:0:0:0:
109,192,13963,1,0,0:0:0:0:
475,192,14067,1,0,0:0:0:0:
36,192,14170,1,0,0:0:0:0:
402,192,14273,1,0,0:0:0:0:
109,192,14377,1,0,0:0:0:0:
182,192,14480,1,0,0:0:0:0:
256,192,14584,1,0,0:0:0:0:
329,192,14687,1,0,0:0:0:0:
256,192,14791,1,0,0:0:0:0:
329,192,14894,1,0,0:0:0:0:
402,192,14998,1,0,0:0:0:0:
475,192,15101,1,0,0:0:0:0:
402,192,15204,1,0,0:0:0:0:
329,192,15308,1,0,0:0:0:0:
475,192,15411,1,0,0:0:0:0:
109,192,15515,1,0,0:0:0:0:
36,192,15618,1,0,0:0:0:0:
182,192,15722,1,0,0:0:0:0:
329,192,15825,1,0,0:0:0:0:
256,192,15929,1,0,0:0:0:0:
182,192,16032,1,0,0:0:0:0:
256,192,16136,1,0,0:0:0:0:
402,192,16239,1,0,0:0:0:0:
329,192,16342,1,0,0:0:0:0:
36,192,16446,1,0,0:0:0:0:
109,192,16549,1,0,0:0:0:0:
182,192,16653,1,0,0:0:0:0:
256,192,16756,1,0,0:0:0:0:
475,192,16860,1,0,0:0:0:0:
402,192,16963,1,0,0:0:0:0:
329,192,17067,1,0,0:0:0:0:
475,192,17170,1,0,0:0:0:0:
36,192,17273,1,0,0:0:0:0:
109,192,17377,1,0,0:0:0:0:
182,192,17480,1,0,0:0:0:0:
36,192,17584,1,0,0:0:0:0:
475,192,17687,1,0,0:0:0:0:
402,192,17791,1,0,0:0:0:0:
475,192,17894,1,0,0:0:0:0:
329,192,17998,1,0,0:0:0:0:
475,192,18101,1,0,0:0:0:0:
256,192,18204,1,0,0:0:0:0:
475,192,18308,1,0,0:0:0:0:
182,192,18411,1,0,0:0:0:0:
402,192,18515,1,0,0:0:0:0:
475,192,18618,1,0,0:0:0:0:
402,192,18722,1,0,0:0:0:0:
182,192,18825,1,0,0:0:0:0:
109,192,18929,1,0,0:0:0:0:
182,192,19032,1,0,0:0:0:0:
329,192,19136,1,0,0:0:0:0:
402,192,19239,1,0,0:0:0:0:
329,192,19342,1,0,0:0:0:0:
182,192,19446,1,0,0:0:0:0:
109,192,19549,1,0,0:0:0:0:
182,192,19653,1,0,0:0:0:0:
402,192,19756,1,0,0:0:0:0:
475,192,19860,1,0,0:0:0:0:
402,192,19963,1,0,0:0:0:0:
329,192,20067,1,0,0:0:0:0:
36,192,20170,1,0,0:0:0:0:
182,192,20273,1,0,0:0:0:0:
109,192,20377,1,0,0:0:0:0:
256,192,20480,1,0,0:0:0:0:
182,192,20584,1,0,0:0:0:0:
329,192,20687,1,0,0:0:0:0:
256,192,20791,1,0,0:0:0:0:
402,192,20894,1,0,0:0:0:0:
329,192,20998,1,0,0:0:0:0:
475,192,21101,1,0,0:0:0:0:
402,192,21204,1,0,0:0:0:0:
329,192,21308,1,0,0:0:0:0:
256,192,21308,1,0,0:0:0:0:
182,192,21308,1,0,0:0:0:0:
329,192,21320,1,0,0:0:0:0:
182,192,21619,1,0,0:0:0:0:
256,192,21619,1,0,0:0:0:0:
329,192,21619,1,0,0:0:0:0:
109,192,21722,1,0,0:0:0:0:
36,192,21825,1,0,0:0:0:0:
182,192,21928,1,0,0:0:0:0:
109,192,22031,1,0,0:0:0:0:
256,192,22135,1,0,0:0:0:0:
182,192,22238,1,0,0:0:0:0:
329,192,22342,1,0,0:0:0:0:
256,192,22445,1,0,0:0:0:0:
402,192,22549,1,0,0:0:0:0:
329,192,22652,1,0,0:0:0:0:
475,192,22756,1,0,0:0:0:0:
402,192,22859,1,0,0:0:0:0:
329,192,22962,1,0,0:0:0:0:
256,192,23066,1,0,0:0:0:0:
182,192,23066,1,0,0:0:0:0:
109,192,23066,1,0,0:0:0:0:
109,192,23376,1,0,0:0:0:0:
182,192,23376,1,0,0:0:0:0:
256,192,23376,1,0,0:0:0:0:
475,192,23479,1,0,0:0:0:0:
329,192,23582,1,0,0:0:0:0:
36,192,23686,1,0,0:0:0:0:
182,192,23789,1,0,0:0:0:0:
329,192,23893,1,0,0:0:0:0:
256,192,23996,1,0,0:0:0:0:
182,192,24100,1,0,0:0:0:0:
475,192,24203,1,0,0:0:0:0:
402,192,24307,1,0,0:0:0:0:
329,192,24410,1,0,0:0:0:0:
256,192,24513,1,0,0:0:0:0:
182,192,24617,1,0,0:0:0:0:
109,192,24720,1,0,0:0:0:0:
36,192,24824,1,0,0:0:0:0:
109,192,24927,1,0,0:0:0:0:
475,192,25031,1,0,0:0:0:0:
329,192,25031,1,0,0:0:0:0:
402,192,25134,1,0,0:0:0:0:
329,192,25238,1,0,0:0:0:0:
256,192,25341,1,0,0:0:0:0:
36,192,25444,1,0,0:0:0:0:
182,192,25444,1,0,0:0:0:0:
109,192,25548,1,0,0:0:0:0:
182,192,25651,1,0,0:0:0:0:
256,192,25755,1,0,0:0:0:0:
329,192,25858,1,0,0:0:0:0:
475,192,25858,1,0,0:0:0:0:
402,192,25962,1,0,0:0:0:0:
329,192,26065,1,0,0:0:0:0:
256,192,26169,1,0,0:0:0:0:
36,192,26272,1,0,0:0:0:0:
182,192,26272,1,0,0:0:0:0:
109,192,26376,1,0,0:0:0:0:
182,192,26479,1,0,0:0:0:0:
256,192,26582,1,0,0:0:0:0:
182,192,26686,128,0,29996:0:0:0:0:
402,192,26686,128,0,29996:0:0:0:0:
475,192,26686,128,0,29996:0:0:0:0:
329,192,27100,1,0,0:0:0:0:
109,192,27203,1,0,0:0:0:0:
256,192,27307,1,0,0:0:0:0:
109,192,27410,128,0,28755:0:0:0:0:
256,192,28755,1,0,0:0:0:0:
329,192,28755,1,0,0:0:0:0:
329,192,28962,1,0,0:0:0:0:
256,192,28962,1,0,0:0:0:0:
36,192,29582,128,0,33307:0:0:0:0:
329,192,29582,128,0,29996:0:0:0:0:
109,192,29996,128,0,33307:0:0:0:0:
256,192,29996,128,0,33307:0:0:0:0:
475,192,30410,1,0,0:0:0:0:
329,192,30513,1,0,0:0:0:0:
475,192,30617,1,0,0:0:0:0:
182,192,30720,128,0,31651:0:0:0:0:
329,192,32065,1,0,0:0:0:0:
475,192,32065,1,0,0:0:0:0:
475,192,32272,1,0,0:0:0:0:
329,192,32272,1,0,0:0:0:0:
182,192,32893,128,0,36617:0:0:0:0:
402,192,33307,128,0,36617:0:0:0:0:
329,192,33307,128,0,36617:0:0:0:0:
109,192,33720,1,0,0:0:0:0:
256,192,33824,1,0,0:0:0:0:
36,192,33927,1,0,0:0:0:0:
475,192,34031,128,0,34962:0:0:0:0:
109,192,35376,1,0,0:0:0:0:
475,192,35376,1,0,0:0:0:0:
475,192,35582,1,0,0:0:0:0:
109,192,35582,1,0,0:0:0:0:
36,192,36410,128,0,36617:0:0:0:0:
109,192,36410,128,0,36617:0:0:0:0:
475,192,36617,1,0,0:0:0:0:
402,192,36720,1,0,0:0:0:0:
329,192,36824,1,0,0:0:0:0:
36,192,36927,1,0,0:0:0:0:
109,192,37031,1,0,0:0:0:0:
182,192,37134,1,0,0:0:0:0:
475,192,37238,1,0,0:0:0:0:
329,192,37341,1,0,0:0:0:0:
402,192,37444,1,0,0:0:0:0:
182,192,37548,1,0,0:0:0:0:
36,192,37651,1,0,0:0:0:0:
109,192,37755,1,0,0:0:0:0:
402,192,37858,1,0,0:0:0:0:
329,192,37962,1,0,0:0:0:0:
182,192,38065,1,0,0:0:0:0:
109,192,38169,1,0,0:0:0:0:
329,192,38272,1,0,0:0:0:0:
475,192,38376,1,0,0:0:0:0:
402,192,38479,1,0,0:0:0:0:
329,192,38582,1,0,0:0:0:0:
182,192,38686,1,0,0:0:0:0:
36,192,38789,1,0,0:0:0:0:
109,192,38893,1,0,0:0:0:0:
182,192,38996,1,0,0:0:0:0:
475,192,39100,1,0,0:0:0:0:
402,192,39203,1,0,0:0:0:0:
109,192,39307,1,0,0:0:0:0:
36,192,39410,1,0,0:0:0:0:
329,192,39513,128,0,39927:0:0:0:0:
475,192,39513,128,0,39927:0:0:0:0:
109,192,39513,128,0,39927:0:0:0:0:
36,192,39927,1,0,0:0:0:0:
109,192,40031,1,0,0:0:0:0:
182,192,40134,128,0,40341:0:0:0:0:
475,192,40341,1,0,0:0:0:0:
402,192,40444,1,0,0:0:0:0:
329,192,40548,128,0,40755:0:0:0:0:
109,192,40755,1,0,0:0:0:0:
182,192,40858,1,0,0:0:0:0:
256,192,40962,128,0,41272:0:0:0:0:
402,192,41272,1,0,0:0:0:0:
329,192,41375,1,0,0:0:0:0:
256,192,41479,128,0,41686:0:0:0:0:
329,192,41686,1,0,0:0:0:0:
402,192,41789,1,0,0:0:0:0:
475,192,41893,128,0,42099:0:0:0:0:
182,192,42099,1,0,0:0:0:0:
109,192,42203,1,0,0:0:0:0:
36,192,42306,128,0,42513:0:0:0:0:
256,192,42513,1,0,0:0:0:0:
329,192,42617,1,0,0:0:0:0:
402,192,42720,128,0,42927:0:0:0:0:
256,192,42927,1,0,0:0:0:0:
182,192,43031,1,0,0:0:0:0:
109,192,43134,128,0,43341:0:0:0:0:
475,192,43341,1,0,0:0:0:0:
329,192,43444,1,0,0:0:0:0:
402,192,43548,128,0,43755:0:0:0:0:
36,192,43755,1,0,0:0:0:0:
182,192,43858,1,0,0:0:0:0:
109,192,43962,128,0,44168:0:0:0:0:
329,192,44168,1,0,0:0:0:0:
182,192,44272,1,0,0:0:0:0:
109,192,44375,128,0,44582:0:0:0:0:
182,192,44582,1,0,0:0:0:0:
329,192,44686,1,0,0:0:0:0:
402,192,44789,128,0,44996:0:0:0:0:
329,192,44996,1,0,0:0:0:0:
182,192,45099,1,0,0:0:0:0:
36,192,45203,128,0,45410:0:0:0:0:
329,192,45410,1,0,0:0:0:0:
182,192,45513,1,0,0:0:0:0:
36,192,45617,128,0,45824:0:0:0:0:
182,192,45824,1,0,0:0:0:0:
256,192,45927,1,0,0:0:0:0:
402,192,46031,128,0,46237:0:0:0:0:
36,192,46237,128,0,46651:0:0:0:0:
182,192,46237,128,0,46651:0:0:0:0:
475,192,46237,128,0,46651:0:0:0:0:
402,192,46651,1,0,0:0:0:0:
329,192,46755,1,0,0:0:0:0:
256,192,46858,1,0,0:0:0:0:
109,192,46962,1,0,0:0:0:0:
182,192,47065,1,0,0:0:0:0:
256,192,47168,1,0,0:0:0:0:
475,192,47272,1,0,0:0:0:0:
329,192,47375,1,0,0:0:0:0:
475,192,47479,1,0,0:0:0:0:
109,192,47582,1,0,0:0:0:0:
182,192,47686,1,0,0:0:0:0:
109,192,47789,1,0,0:0:0:0:
36,192,47893,1,0,0:0:0:0:
182,192,47996,1,0,0:0:0:0:
329,192,48099,1,0,0:0:0:0:
475,192,48203,1,0,0:0:0:0:
402,192,48306,1,0,0:0:0:0:
256,192,48410,1,0,0:0:0:0:
329,192,48513,1,0,0:0:0:0:
182,192,48617,1,0,0:0:0:0:
256,192,48720,1,0,0:0:0:0:
109,192,48824,1,0,0:0:0:0:
182,192,48927,1,0,0:0:0:0:
36,192,49031,1,0,0:0:0:0:
109,192,49134,1,0,0:0:0:0:
36,192,49237,1,0,0:0:0:0:
182,192,49341,1,0,0:0:0:0:
109,192,49444,1,0,0:0:0:0:
475,192,49548,1,0,0:0:0:0:
329,192,49651,1,0,0:0:0:0:
182,192,49755,1,0,0:0:0:0:
36,192,49858,1,0,0:0:0:0:
182,192,49962,1,0,0:0:0:0:
256,192,50065,1,0,0:0:0:0:
402,192,50168,1,0,0:0:0:0:
256,192,50272,1,0,0:0:0:0:
109,192,50375,1,0,0:0:0:0:
182,192,50479,1,0,0:0:0:0:
36,192,50582,1,0,0:0:0:0:
329,192,50686,1,0,0:0:0:0:
402,192,50789,1,0,0:0:0:0:
475,192,50893,1,0,0:0:0:0:
402,192,50996,1,0,0:0:0:0:
475,192,51099,1,0,0:0:0:0:
109,192,51203,1,0,0:0:0:0:
36,192,51306,1,0,0:0:0:0:
109,192,51410,1,0,0:0:0:0:
36,192,51513,1,0,0:0:0:0:
329,192,51617,1,0,0:0:0:0:
402,192,51720,1,0,0:0:0:0:
329,192,51824,1,0,0:0:0:0:
402,192,51927,1,0,0:0:0:0:
182,192,52031,1,0,0:0:0:0:
109,192,52134,1,0,0:0:0:0:
182,192,52237,1,0,0:0:0:0:
109,192,52341,1,0,0:0:0:0:
256,192,52444,1,0,0:0:0:0:
329,192,52548,1,0,0:0:0:0:
256,192,52651,1,0,0:0:0:0:
329,192,52755,1,0,0:0:0:0:
256,192,52858,1,0,0:0:0:0:
182,192,52962,1,0,0:0:0:0:
256,192,53065,1,0,0:0:0:0:
182,192,53168,1,0,0:0:0:0:
475,192,53272,1,0,0:0:0:0:
329,192,53375,1,0,0:0:0:0:
402,192,53479,1,0,0:0:0:0:
182,192,53582,1,0,0:0:0:0:
36,192,53686,1,0,0:0:0:0:
329,192,53789,1,0,0:0:0:0:
182,192,53893,1,0,0:0:0:0:
475,192,53996,1,0,0:0:0:0:
329,192,54099,1,0,0:0:0:0:
182,192,54203,1,0,0:0:0:0:
36,192,54306,1,0,0:0:0:0:
182,192,54410,1,0,0:0:0:0:
36,192,54513,1,0,0:0:0:0:
109,192,54617,1,0,0:0:0:0:
182,192,54720,1,0,0:0:0:0:
256,192,54824,1,0,0:0:0:0:
402,192,54927,1,0,0:0:0:0:
329,192,55031,1,0,0:0:0:0:
475,192,55134,1,0,0:0:0:0:
256,192,55237,1,0,0:0:0:0:
402,192,55341,1,0,0:0:0:0:
109,192,55444,1,0,0:0:0:0:
256,192,55548,1,0,0:0:0:0:
36,192,55651,1,0,0:0:0:0:
182,192,55755,1,0,0:0:0:0:
109,192,55858,1,0,0:0:0:0:
182,192,55962,1,0,0:0:0:0:
256,192,56065,1,0,0:0:0:0:
475,192,56168,1,0,0:0:0:0:
402,192,56272,1,0,0:0:0:0:
329,192,56375,1,0,0:0:0:0:
256,192,56479,1,0,0:0:0:0:
109,192,56582,1,0,0:0:0:0:
182,192,56686,1,0,0:0:0:0:
109,192,56789,1,0,0:0:0:0:
182,192,56893,1,0,0:0:0:0:
256,192,56996,1,0,0:0:0:0:
182,192,57099,1,0,0:0:0:0:
256,192,57203,1,0,0:0:0:0:
182,192,57306,1,0,0:0:0:0:
475,192,57410,1,0,0:0:0:0:
402,192,57513,1,0,0:0:0:0:
329,192,57617,1,0,0:0:0:0:
256,192,57720,1,0,0:0:0:0:
182,192,57824,1,0,0:0:0:0:
109,192,57927,1,0,0:0:0:0:
256,192,58031,1,0,0:0:0:0:
182,192,58134,1,0,0:0:0:0:
475,192,58237,1,0,0:0:0:0:
402,192,58237,1,0,0:0:0:0:
182,192,58341,1,0,0:0:0:0:
109,192,58444,1,0,0:0:0:0:
182,192,58548,1,0,0:0:0:0:
402,192,58651,1,0,0:0:0:0:
475,192,58651,1,0,0:0:0:0:
182,192,58755,1,0,0:0:0:0:
109,192,58858,1,0,0:0:0:0:
182,192,58962,1,0,0:0:0:0:
36,192,59065,1,0,0:0:0:0:
109,192,59065,1,0,0:0:0:0:
329,192,59168,1,0,0:0:0:0:
402,192,59272,1,0,0:0:0:0:
329,192,59375,1,0,0:0:0:0:
36,192,59479,1,0,0:0:0:0:
109,192,59479,1,0,0:0:0:0:
329,192,59582,1,0,0:0:0:0:
402,192,59686,1,0,0:0:0:0:
329,192,59789,1,0,0:0:0:0:
36,192,59893,128,0,63203:0:0:0:0:
109,192,59893,128,0,59996:0:0:0:0:
256,192,59996,128,0,60099:0:0:0:0:
182,192,60099,128,0,60203:0:0:0:0:
329,192,60203,128,0,60306:0:0:0:0:
256,192,60306,128,0,60410:0:0:0:0:
402,192,60410,128,0,60513:0:0:0:0:
329,192,60513,128,0,60617:0:0:0:0:
475,192,60617,128,0,60720:0:0:0:0:
402,192,60720,128,0,60824:0:0:0:0:
256,192,60824,128,0,60927:0:0:0:0:
329,192,60927,128,0,61031:0:0:0:0:
475,192,61031,128,0,61134:0:0:0:0:
182,192,61134,128,0,61237:0:0:0:0:
329,192,61237,128,0,61341:0:0:0:0:
109,192,61341,128,0,61444:0:0:0:0:
475,192,61444,128,0,61548:0:0:0:0:
256,192,61548,128,0,61651:0:0:0:0:
402,192,61651,128,0,61755:0:0:0:0:
182,192,61755,128,0,61858:0:0:0:0:
329,192,61858,128,0,61962:0:0:0:0:
109,192,61962,128,0,62065:0:0:0:0:
256,192,62065,128,0,62168:0:0:0:0:
109,192,62168,128,0,62272:0:0:0:0:
182,192,62272,128,0,62375:0:0:0:0:
329,192,62375,128,0,62479:0:0:0:0:
182,192,62479,128,0,62582:0:0:0:0:
402,192,62582,128,0,62686:0:0:0:0:
329,192,62686,128,0,62789:0:0:0:0:
182,192,62789,128,0,62893:0:0:0:0:
475,192,62893,128,0,62996:0:0:0:0:
329,192,62996,128,0,63099:0:0:0:0:
182,192,63099,128,0,63203:0:0:0:0:
475,192,63203,128,0,66513:0:0:0:0:
402,192,63203,1,0,0:0:0:0:
256,192,63306,1,0,0:0:0:0:
329,192,63410,1,0,0:0:0:0:
182,192,63513,1,0,0:0:0:0:
402,192,63617,1,0,0:0:0:0:
329,192,63720,1,0,0:0:0:0:
402,192,63824,1,0,0:0:0:0:
256,192,63927,1,0,0:0:0:0:
329,192,64031,1,0,0:0:0:0:
256,192,64134,1,0,0:0:0:0:
109,192,64134,1,0,0:0:0:0:
36,192,64237,1,0,0:0:0:0:
182,192,64341,1,0,0:0:0:0:
329,192,64444,1,0,0:0:0:0:
109,192,64548,1,0,0:0:0:0:
182,192,64651,1,0,0:0:0:0:
36,192,64755,1,0,0:0:0:0:
182,192,64858,1,0,0:0:0:0:
329,192,64962,1,0,0:0:0:0:
182,192,65065,1,0,0:0:0:0:
402,192,65168,1,0,0:0:0:0:
256,192,65272,1,0,0:0:0:0:
36,192,65375,1,0,0:0:0:0:
109,192,65479,1,0,0:0:0:0:
36,192,65582,1,0,0:0:0:0:
182,192,65686,1,0,0:0:0:0:
109,192,65789,1,0,0:0:0:0:
329,192,65893,1,0,0:0:0:0:
182,192,65996,1,0,0:0:0:0:
329,192,66099,1,0,0:0:0:0:
182,192,66203,1,0,0:0:0:0:
36,192,66306,1,0,0:0:0:0:
256,192,66410,1,0,0:0:0:0:
109,192,66513,128,0,69824:0:0:0:0:
36,192,66513,128,0,66617:0:0:0:0:
256,192,66617,128,0,66720:0:0:0:0:
402,192,66720,128,0,66824:0:0:0:0:
182,192,66824,128,0,66927:0:0:0:0:
402,192,67031,128,0,67134:0:0:0:0:
256,192,67134,128,0,67237:0:0:0:0:
36,192,67237,128,0,67341:0:0:0:0:
329,192,67341,128,0,67444:0:0:0:0:
475,192,67444,128,0,67548:0:0:0:0:
256,192,67548,128,0,67651:0:0:0:0:
36,192,67651,128,0,67755:0:0:0:0:
402,192,67755,128,0,67858:0:0:0:0:
256,192,67858,128,0,67962:0:0:0:0:
329,192,67962,128,0,68065:0:0:0:0:
402,192,68065,128,0,68168:0:0:0:0:
475,192,68168,128,0,68272:0:0:0:0:
329,192,68272,128,0,68375:0:0:0:0:
36,192,68375,128,0,68479:0:0:0:0:
256,192,68479,128,0,68582:0:0:0:0:
402,192,68582,128,0,68686:0:0:0:0:
182,192,68686,128,0,68789:0:0:0:0:
475,192,68789,128,0,68893:0:0:0:0:
36,192,68893,128,0,68996:0:0:0:0:
256,192,68996,128,0,69099:0:0:0:0:
475,192,69099,128,0,69203:0:0:0:0:
182,192,69203,128,0,69306:0:0:0:0:
329,192,69306,128,0,69410:0:0:0:0:
36,192,69410,128,0,69513:0:0:0:0:
182,192,69513,128,0,69617:0:0:0:0:
475,192,69617,128,0,69720:0:0:0:0:
256,192,69720,128,0,69824:0:0:0:0:
402,192,69824,128,0,73134:0:0:0:0:
36,192,69824,1,0,0:0:0:0:
256,192,69927,1,0,0:0:0:0:
182,192,70031,1,0,0:0:0:0:
329,192,70134,1,0,0:0:0:0:
182,192,70237,1,0,0:0:0:0:
256,192,70341,1,0,0:0:0:0:
109,192,70444,1,0,0:0:0:0:
36,192,70548,1,0,0:0:0:0:
329,192,70651,1,0,0:0:0:0:
256,192,70755,1,0,0:0:0:0:
182,192,70858,1,0,0:0:0:0:
475,192,70962,1,0,0:0:0:0:
329,192,71065,1,0,0:0:0:0:
256,192,71168,1,0,0:0:0:0:
182,192,71272,1,0,0:0:0:0:
475,192,71375,1,0,0:0:0:0:
36,192,71479,1,0,0:0:0:0:
109,192,71582,1,0,0:0:0:0:
182,192,71686,1,0,0:0:0:0:
475,192,71789,1,0,0:0:0:0:
36,192,71893,1,0,0:0:0:0:
109,192,71996,1,0,0:0:0:0:
182,192,72099,1,0,0:0:0:0:
475,192,72203,1,0,0:0:0:0:
329,192,72306,1,0,0:0:0:0:
256,192,72410,1,0,0:0:0:0:
182,192,72513,1,0,0:0:0:0:
256,192,72617,1,0,0:0:0:0:
109,192,72720,1,0,0:0:0:0:
256,192,72824,1,0,0:0:0:0:
109,192,72927,1,0,0:0:0:0:
329,192,73031,1,0,0:0:0:0:
36,192,73134,128,0,74789:0:0:0:0:
256,192,73134,128,0,74789:0:0:0:0:
475,192,73134,128,0,74789:0:0:0:0:
182,192,73962,128,0,74065:0:0:0:0:
329,192,74065,128,0,74168:0:0:0:0:
182,192,74168,128,0,74272:0:0:0:0:
109,192,74375,128,0,74479:0:0:0:0:
329,192,74479,128,0,74582:0:0:0:0:
109,192,74582,128,0,74686:0:0:0:0:
182,192,74789,128,0,76444:0:0:0:0:
329,192,74789,128,0,76444:0:0:0:0:
475,192,75617,128,0,75720:0:0:0:0:
402,192,75720,128,0,75824:0:0:0:0:
475,192,75824,128,0,75927:0:0:0:0:
36,192,76031,128,0,76134:0:0:0:0:
109,192,76134,128,0,76237:0:0:0:0:
36,192,76237,128,0,76341:0:0:0:0:
475,192,76444,128,0,79755:0:0:0:0:
256,192,76444,128,0,79755:0:0:0:0:
36,192,77272,128,0,77375:0:0:0:0:
182,192,77375,128,0,77479:0:0:0:0:
329,192,77479,128,0,77582:0:0:0:0:
402,192,77582,128,0,77686:0:0:0:0:
36,192,78099,128,0,78203:0:0:0:0:
182,192,78099,128,0,78203:0:0:0:0:
329,192,78306,128,0,78410:0:0:0:0:
109,192,78306,128,0,78410:0:0:0:0:
182,192,78513,128,0,78617:0:0:0:0:
402,192,78513,128,0,78617:0:0:0:0:
36,192,78927,128,0,79755:0:0:0:0:
109,192,79341,128,0,79755:0:0:0:0:
182,192,79755,128,0,81410:0:0:0:0:
329,192,79755,128,0,81410:0:0:0:0:
36,192,80582,128,0,80686:0:0:0:0:
256,192,80686,128,0,80789:0:0:0:0:
36,192,80789,128,0,80893:0:0:0:0:
475,192,80996,128,0,81099:0:0:0:0:
256,192,81099,128,0,81203:0:0:0:0:
475,192,81203,128,0,81306:0:0:0:0:
109,192,81410,128,0,83065:0:0:0:0:
256,192,81410,128,0,83065:0:0:0:0:
402,192,81410,128,0,83065:0:0:0:0:
182,192,82237,128,0,82341:0:0:0:0:
329,192,82341,128,0,82444:0:0:0:0:
182,192,82444,128,0,82548:0:0:0:0:
475,192,82651,128,0,82755:0:0:0:0:
36,192,82755,128,0,82858:0:0:0:0:
475,192,82858,128,0,82962:0:0:0:0:
36,192,83065,128,0,86375:0:0:0:0:
475,192,83065,128,0,86375:0:0:0:0:
109,192,83893,128,0,84306:0:0:0:0:
402,192,83996,128,0,84306:0:0:0:0:
182,192,84099,128,0,84306:0:0:0:0:
329,192,84203,128,0,84306:0:0:0:0:
109,192,84720,128,0,84927:0:0:0:0:
329,192,85134,128,0,85341:0:0:0:0:
182,192,85548,128,0,85755:0:0:0:0:
256,192,85962,128,0,86375:0:0:0:0:
109,192,85962,128,0,86375:0:0:0:0:
402,192,86375,1,0,0:0:0:0:
475,192,86479,1,0,0:0:0:0:
402,192,86582,1,0,0:0:0:0:
329,192,86686,1,0,0:0:0:0:
475,192,86789,1,0,0:0:0:0:
402,192,86893,1,0,0:0:0:0:
329,192,86996,1,0,0:0:0:0:
329,192,87099,1,0,0:0:0:0:
36,192,87203,1,0,0:0:0:0:
109,192,87306,1,0,0:0:0:0:
182,192,87410,1,0,0:0:0:0:
256,192,87513,1,0,0:0:0:0:
475,192,87617,1,0,0:0:0:0:
402,192,87720,1,0,0:0:0:0:
329,192,87824,1,0,0:0:0:0:
256,192,87927,1,0,0:0:0:0:
36,192,88031,1,0,0:0:0:0:
182,192,88134,1,0,0:0:0:0:
109,192,88237,1,0,0:0:0:0:
256,192,88341,1,0,0:0:0:0:
402,192,88444,1,0,0:0:0:0:
329,192,88548,1,0,0:0:0:0:
475,192,88651,1,0,0:0:0:0:
475,192,88755,1,0,0:0:0:0:
402,192,88858,1,0,0:0:0:0:
329,192,88962,1,0,0:0:0:0:
256,192,89065,1,0,0:0:0:0:
182,192,89168,1,0,0:0:0:0:
329,192,89272,1,0,0:0:0:0:
256,192,89375,1,0,0:0:0:0:
182,192,89479,1,0,0:0:0:0:
109,192,89582,1,0,0:0:0:0:
329,192,89686,1,0,0:0:0:0:
402,192,89789,1,0,0:0:0:0:
256,192,89893,1,0,0:0:0:0:
329,192,89996,1,0,0:0:0:0:
475,192,90099,1,0,0:0:0:0:
402,192,90203,1,0,0:0:0:0:
109,192,90306,1,0,0:0:0:0:
182,192,90410,1,0,0:0:0:0:
36,192,90513,1,0,0:0:0:0:
256,192,90617,1,0,0:0:0:0:
109,192,90720,1,0,0:0:0:0:
329,192,90824,1,0,0:0:0:0:
182,192,90927,1,0,0:0:0:0:
256,192,91031,1,0,0:0:0:0:
475,192,91134,1,0,0:0:0:0:
256,192,91237,1,0,0:0:0:0:
402,192,91341,1,0,0:0:0:0:
109,192,91444,1,0,0:0:0:0:
182,192,91548,1,0,0:0:0:0:
36,192,91651,1,0,0:0:0:0:
402,192,91755,1,0,0:0:0:0:
256,192,91962,1,0,0:0:0:0:
475,192,92065,1,0,0:0:0:0:
36,192,92168,1,0,0:0:0:0:
109,192,92272,1,0,0:0:0:0:
182,192,92375,1,0,0:0:0:0:
256,192,92479,1,0,0:0:0:0:
402,192,92582,1,0,0:0:0:0:
182,192,92686,1,0,0:0:0:0:
256,192,92789,1,0,0:0:0:0:
329,192,92893,1,0,0:0:0:0:
402,192,92996,1,0,0:0:0:0:
475,192,92996,1,0,0:0:0:0:
109,192,93203,1,0,0:0:0:0:
256,192,93306,1,0,0:0:0:0:
182,192,93410,1,0,0:0:0:0:
402,192,93617,1,0,0:0:0:0:
256,192,93824,1,0,0:0:0:0:
475,192,94031,1,0,0:0:0:0:
182,192,94237,1,0,0:0:0:0:
109,192,94237,1,0,0:0:0:0:
36,192,94237,1,0,0:0:0:0:
36,192,94651,1,0,0:0:0:0:
109,192,94651,1,0,0:0:0:0:
182,192,94651,1,0,0:0:0:0:
402,192,94857,1,0,0:0:0:0:
475,192,94857,1,0,0:0:0:0:
475,192,95064,1,0,0:0:0:0:
402,192,95064,1,0,0:0:0:0:
256,192,95271,1,0,0:0:0:0:
109,192,95478,1,0,0:0:0:0:
475,192,95685,1,0,0:0:0:0:
402,192,95892,1,0,0:0:0:0:
256,192,95892,1,0,0:0:0:0:
329,192,95892,1,0,0:0:0:0:
256,192,96306,1,0,0:0:0:0:
329,192,96306,1,0,0:0:0:0:
402,192,96306,1,0,0:0:0:0:
182,192,96409,1,0,0:0:0:0:
109,192,96512,1,0,0:0:0:0:
182,192,96616,1,0,0:0:0:0:
256,192,96719,1,0,0:0:0:0:
329,192,96823,1,0,0:0:0:0:
256,192,96926,1,0,0:0:0:0:
182,192,97030,1,0,0:0:0:0:
109,192,97133,1,0,0:0:0:0:
329,192,97237,1,0,0:0:0:0:
256,192,97340,1,0,0:0:0:0:
329,192,97443,1,0,0:0:0:0:
475,192,97547,1,0,0:0:0:0:
329,192,97650,1,0,0:0:0:0:
182,192,97754,1,0,0:0:0:0:
109,192,97857,1,0,0:0:0:0:
36,192,97961,1,0,0:0:0:0:
109,192,98064,1,0,0:0:0:0:
182,192,98168,1,0,0:0:0:0:
256,192,98271,1,0,0:0:0:0:
329,192,98374,1,0,0:0:0:0:
402,192,98478,1,0,0:0:0:0:
475,192,98581,1,0,0:0:0:0:
402,192,98685,1,0,0:0:0:0:
329,192,98788,1,0,0:0:0:0:
256,192,98892,1,0,0:0:0:0:
182,192,98995,1,0,0:0:0:0:
109,192,99099,1,0,0:0:0:0:
36,192,99202,1,0,0:0:0:0:
109,192,99306,1,0,0:0:0:0:
182,192,99409,1,0,0:0:0:0:
256,192,99512,1,0,0:0:0:0:
329,192,99616,1,0,0:0:0:0:
475,192,99616,1,0,0:0:0:0:
402,192,99719,1,0,0:0:0:0:
475,192,99823,1,0,0:0:0:0:
329,192,99926,1,0,0:0:0:0:
182,192,100030,1,0,0:0:0:0:
256,192,100133,1,0,0:0:0:0:
109,192,100237,1,0,0:0:0:0:
329,192,100340,1,0,0:0:0:0:
182,192,100443,1,0,0:0:0:0:
36,192,100547,1,0,0:0:0:0:
256,192,100650,1,0,0:0:0:0:
182,192,100754,1,0,0:0:0:0:
402,192,100857,1,0,0:0:0:0:
182,192,100961,1,0,0:0:0:0:
402,192,101064,1,0,0:0:0:0:
329,192,101168,1,0,0:0:0:0:
256,192,101271,1,0,0:0:0:0:
36,192,101374,1,0,0:0:0:0:
182,192,101478,1,0,0:0:0:0:
109,192,101581,1,0,0:0:0:0:
475,192,101685,1,0,0:0:0:0:
402,192,101788,1,0,0:0:0:0:
256,192,101892,1,0,0:0:0:0:
329,192,101995,1,0,0:0:0:0:
182,192,102099,1,0,0:0:0:0:
256,192,102306,1,0,0:0:0:0:
109,192,102409,1,0,0:0:0:0:
402,192,102512,1,0,0:0:0:0:
329,192,102616,1,0,0:0:0:0:
475,192,102719,1,0,0:0:0:0:
256,192,102823,1,0,0:0:0:0:
36,192,102926,1,0,0:0:0:0:
109,192,103030,1,0,0:0:0:0:
182,192,103133,1,0,0:0:0:0:
475,192,103237,1,0,0:0:0:0:
36,192,103340,1,0,0:0:0:0:
109,192,103443,1,0,0:0:0:0:
182,192,103547,1,0,0:0:0:0:
475,192,103650,1,0,0:0:0:0:
36,192,103754,1,0,0:0:0:0:
109,192,103857,1,0,0:0:0:0:
182,192,103961,1,0,0:0:0:0:
475,192,104064,1,0,0:0:0:0:
36,192,104168,1,0,0:0:0:0:
109,192,104271,1,0,0:0:0:0:
182,192,104374,1,0,0:0:0:0:
475,192,104478,1,0,0:0:0:0:
402,192,104581,1,0,0:0:0:0:
329,192,104685,1,0,0:0:0:0:
402,192,104788,1,0,0:0:0:0:
329,192,104892,1,0,0:0:0:0:
182,192,104995,1,0,0:0:0:0:
109,192,105099,1,0,0:0:0:0:
182,192,105202,1,0,0:0:0:0:
109,192,105306,1,0,0:0:0:0:
182,192,105409,1,0,0:0:0:0:
329,192,105512,1,0,0:0:0:0:
182,192,105616,1,0,0:0:0:0:
329,192,105719,1,0,0:0:0:0:
182,192,105823,1,0,0:0:0:0:
329,192,105926,1,0,0:0:0:0:
182,192,106030,1,0,0:0:0:0:
329,192,106133,1,0,0:0:0:0:
36,192,106237,1,0,0:0:0:0:
109,192,106237,1,0,0:0:0:0:
402,192,106340,1,0,0:0:0:0:
256,192,106443,1,0,0:0:0:0:
329,192,106547,1,0,0:0:0:0:
182,192,106650,1,0,0:0:0:0:
36,192,106754,1,0,0:0:0:0:
109,192,106857,1,0,0:0:0:0:
475,192,106961,1,0,0:0:0:0:
329,192,107064,1,0,0:0:0:0:
475,192,107168,1,0,0:0:0:0:
329,192,107271,1,0,0:0:0:0:
182,192,107374,1,0,0:0:0:0:
109,192,107478,1,0,0:0:0:0:
329,192,107581,1,0,0:0:0:0:
182,192,107685,1,0,0:0:0:0:
36,192,107788,1,0,0:0:0:0:
256,192,107892,1,0,0:0:0:0:
182,192,107995,1,0,0:0:0:0:
402,192,108099,1,0,0:0:0:0:
109,192,108202,1,0,0:0:0:0:
402,192,108306,1,0,0:0:0:0:
329,192,108409,1,0,0:0:0:0:
36,192,108512,1,0,0:0:0:0:
256,192,108616,1,0,0:0:0:0:
182,192,108719,1,0,0:0:0:0:
109,192,108823,1,0,0:0:0:0:
402,192,108926,1,0,0:0:0:0:
256,192,109030,1,0,0:0:0:0:
402,192,109133,1,0,0:0:0:0:
329,192,109237,1,0,0:0:0:0:
256,192,109340,1,0,0:0:0:0:
182,192,109443,1,0,0:0:0:0:
36,192,109547,1,0,0:0:0:0:
109,192,109547,1,0,0:0:0:0:
182,192,109599,1,0,0:0:0:0:
256,192,109650,1,0,0:0:0:0:
329,192,109702,1,0,0:0:0:0:
402,192,109754,1,0,0:0:0:0:
475,192,109806,1,0,0:0:0:0:
36,192,109961,1,0,0:0:0:0:
109,192,109961,1,0,0:0:0:0:
182,192,110012,1,0,0:0:0:0:
256,192,110064,1,0,0:0:0:0:
329,192,110116,1,0,0:0:0:0:
402,192,110168,1,0,0:0:0:0:
475,192,110219,1,0,0:0:0:0:
475,192,110374,1,0,0:0:0:0:
402,192,110374,1,0,0:0:0:0:
329,192,110426,1,0,0:0:0:0:
256,192,110478,1,0,0:0:0:0:
182,192,110530,1,0,0:0:0:0:
109,192,110581,1,0,0:0:0:0:
36,192,110633,1,0,0:0:0:0:
475,192,110788,1,0,0:0:0:0:
402,192,110788,1,0,0:0:0:0:
329,192,110840,1,0,0:0:0:0:
256,192,110892,1,0,0:0:0:0:
182,192,110943,1,0,0:0:0:0:
109,192,110995,1,0,0:0:0:0:
36,192,111047,1,0,0:0:0:0:
182,192,111202,1,0,0:0:0:0:
329,192,111306,1,0,0:0:0:0:
182,192,111409,1,0,0:0:0:0:
329,192,111512,1,0,0:0:0:0:
182,192,111616,1,0,0:0:0:0:
329,192,111719,1,0,0:0:0:0:
182,192,111823,1,0,0:0:0:0:
329,192,111926,1,0,0:0:0:0:
109,192,112030,1,0,0:0:0:0:
402,192,112133,1,0,0:0:0:0:
109,192,112237,1,0,0:0:0:0:
402,192,112340,1,0,0:0:0:0:
109,192,112443,1,0,0:0:0:0:
402,192,112547,1,0,0:0:0:0:
36,192,112650,1,0,0:0:0:0:
475,192,112754,1,0,0:0:0:0:
402,192,112857,1,0,0:0:0:0:
256,192,112857,1,0,0:0:0:0:
109,192,112857,1,0,0:0:0:0:
36,192,114512,128,0,117822:0:0:0:0:
256,192,114512,128,0,117822:0:0:0:0:
475,192,114512,128,0,117822:0:0:0:0:
329,192,115753,1,0,0:0:0:0:
182,192,115856,1,0,0:0:0:0:
329,192,115960,1,0,0:0:0:0:
182,192,116063,1,0,0:0:0:0:
329,192,116167,1,0,0:0:0:0:
182,192,116270,1,0,0:0:0:0:
329,192,116374,1,0,0:0:0:0:
182,192,116477,1,0,0:0:0:0:
329,192,116580,1,0,0:0:0:0:
182,192,116684,1,0,0:0:0:0:
329,192,116787,1,0,0:0:0:0:
182,192,116891,1,0,0:0:0:0:
402,192,116994,1,0,0:0:0:0:
109,192,117098,1,0,0:0:0:0:
402,192,117201,1,0,0:0:0:0:
109,192,117305,1,0,0:0:0:0:
402,192,117408,1,0,0:0:0:0:
109,192,117512,1,0,0:0:0:0:
402,192,117615,1,0,0:0:0:0:
109,192,117718,1,0,0:0:0:0:
182,192,117822,1,0,0:0:0:0:
329,192,117822,1,0,0:0:0:0:
109,192,117822,128,0,118236:0:0:0:0:
402,192,117822,128,0,118236:0:0:0:0:
36,192,118236,128,0,118649:0:0:0:0:
475,192,118236,128,0,118649:0:0:0:0:
