osu file format v14

[General]
AudioFilename: Super_Fantasy_-_SHK___HQ_Audio,_PIU_2015_PRIME.mp3
AudioLeadIn: 0
PreviewTime: -1
Countdown: 1
SampleSet: Soft
StackLeniency: 0.7
Mode: 3
LetterboxInBreaks: 1
SpecialStyle: 1
WidescreenStoryboard: 1

[Editor]
DistanceSpacing: 0.9
BeatDivisor: 8
GridSize: 8
TimelineZoom: 2.1

[Metadata]
Title:Super fantasy
TitleUnicode:Super fantasy
Artist:SHK
ArtistUnicode:SHK
Creator:kelvinkakashi
Version:expert
Source:pump it up
Tags:
BeatmapID:695688
BeatmapSetID:306503

[Difficulty]
HPDrainRate:5
CircleSize:4
OverallDifficulty:5
ApproachRate:5
SliderMultiplier:1.4
SliderTickRate:1

[Events]
//Background and Video events
0,0,"SHK-Super-Fantasy-Pump-It-Up-Prime-Teaser-Preview.jpg",0,0
//Break Periods
//Storyboard Layer 0 (Background)
//Storyboard Layer 1 (Fail)
//Storyboard Layer 2 (Pass)
//Storyboard Layer 3 (Foreground)
//Storyboard Sound Samples

[TimingPoints]
206,413.793103448276,4,2,0,5,1,0
206,-500,4,2,0,5,0,0
6309,-100,4,2,0,5,0,0
11792,-20,4,2,0,5,0,0
12619,-50,4,2,0,5,0,0
12826,-100,4,2,0,5,0,0
13033,-200,4,2,0,5,0,0
13137,-1000,4,2,0,5,0,0
13188,-66.6666666666667,4,2,0,5,0,0
13240,-1000,4,2,0,5,0,0
13292,-66.6666666666667,4,2,0,5,0,0
13343,-1000,4,2,0,5,0,0
13395,-100,4,2,0,5,0,0
21309,20.6896551724138,4,2,0,5,1,0
21309,-10,4,2,0,5,0,0
21316,4000,4,2,0,5,1,0
21316,-1000,4,2,0,5,0,0
21723,413.793103448276,4,2,0,5,1,0
21723,-100,4,2,0,5,0,0
22964,20.6896551724138,4,2,0,5,1,0
22964,-10,4,2,0,5,0,0
22971,4000,4,2,0,5,1,0
22971,-1000,4,2,0,5,0,0
23378,413.793103448276,4,2,0,5,1,0
23378,-100,4,2,0,5,0,0
29584,-1000,4,2,0,5,0,0
29610,-50,4,2,0,5,0,0
29636,-1000,4,2,0,5,0,0
29662,-50,4,2,0,5,0,0
29688,-1000,4,2,0,5,0,0
29714,-50,4,2,0,5,0,0
29740,-1000,4,2,0,5,0,0
29765,-50,4,2,0,5,0,0
29791,-1000,4,2,0,5,0,0
29817,-50,4,2,0,5,0,0
29843,-1000,4,2,0,5,0,0
29869,-50,4,2,0,5,0,0
29895,-1000,4,2,0,5,0,0
29921,-50,4,2,0,5,0,0
29946,-1000,4,2,0,5,0,0
29972,-50,4,2,0,5,0,0
29998,-100,4,2,0,5,0,0
32895,-1000,4,2,0,5,0,0
32921,-50,4,2,0,5,0,0
32946,-1000,4,2,0,5,0,0
32972,-50,4,2,0,5,0,0
32998,-1000,4,2,0,5,0,0
33024,-50,4,2,0,5,0,0
33050,-1000,4,2,0,5,0,0
33076,-50,4,2,0,5,0,0
33102,-1000,4,2,0,5,0,0
33128,-50,4,2,0,5,0,0
33153,-1000,4,2,0,5,0,0
33179,-50,4,2,0,5,0,0
33205,-1000,4,2,0,5,0,0
33231,-50,4,2,0,5,0,0
33257,-1000,4,2,0,5,0,0
33283,-50,4,2,0,5,0,0
33309,-100,4,2,0,5,0,0
36205,-1000,4,2,0,5,0,0
36231,-50,4,2,0,5,0,0
36257,-1000,4,2,0,5,0,0
36283,-50,4,2,0,5,0,0
36309,-1000,4,2,0,5,0,0
36334,-50,4,2,0,5,0,0
36360,-1000,4,2,0,5,0,0
36386,-50,4,2,0,5,0,0
36412,-1000,4,2,0,5,0,0
36438,-50,4,2,0,5,0,0
36464,-1000,4,2,0,5,0,0
36490,-50,4,2,0,5,0,0
36515,-1000,4,2,0,5,0,0
36541,-50,4,2,0,5,0,0
36567,-1000,4,2,0,5,0,0
36593,-50,4,2,0,5,0,0
36619,-100,4,2,0,5,0,0
39515,-1000,4,2,0,5,0,0
39541,-50,4,2,0,5,0,0
39567,-1000,4,2,0,5,0,0
39593,-50,4,2,0,5,0,0
39619,-1000,4,2,0,5,0,0
39645,-50,4,2,0,5,0,0
39671,-1000,4,2,0,5,0,0
39696,-50,4,2,0,5,0,0
39722,-1000,4,2,0,5,0,0
39748,-50,4,2,0,5,0,0
39774,-1000,4,2,0,5,0,0
39800,-50,4,2,0,5,0,0
39826,-1000,4,2,0,5,0,0
39852,-50,4,2,0,5,0,0
39878,-1000,4,2,0,5,0,0
39903,-50,4,2,0,5,0,0
39929,-133.333333333333,4,2,0,5,0,0
46136,-1000,4,2,0,5,0,0
46162,-50,4,2,0,5,0,0
46188,-1000,4,2,0,5,0,0
46214,-50,4,2,0,5,0,0
46240,-1000,4,2,0,5,0,0
46265,-50,4,2,0,5,0,0
46291,-1000,4,2,0,5,0,0
46317,-50,4,2,0,5,0,0
46343,-1000,4,2,0,5,0,0
46369,-50,4,2,0,5,0,0
46395,-1000,4,2,0,5,0,0
46421,-50,4,2,0,5,0,0
46446,-1000,4,2,0,5,0,0
46472,-50,4,2,0,5,0,0
46498,-1000,4,2,0,5,0,0
46524,-50,4,2,0,5,0,0
46550,-100,4,2,0,5,0,0
59791,-80,4,2,0,5,0,0
73033,-33.3333333333333,4,2,0,5,0,0
73446,-200,4,2,0,5,0,0
73860,-1000,4,2,0,5,0,0
73912,-50,4,2,0,5,0,0
73964,-1000,4,2,0,5,0,0
74015,-50,4,2,0,5,0,0
74067,-1000,4,2,0,5,0,0
74119,-50,4,2,0,5,0,0
74171,-100,4,2,0,5,0,0
74274,-1000,4,2,0,5,0,0
74326,-50,4,2,0,5,0,0
74378,-1000,4,2,0,5,0,0
74429,-50,4,2,0,5,0,0
74481,-1000,4,2,0,5,0,0
74533,-50,4,2,0,5,0,0
74584,-66.6666666666667,4,2,0,5,0,0
74688,-33.3333333333333,4,2,0,5,0,0
75102,-200,4,2,0,5,0,0
75515,-1000,4,2,0,5,0,0
75567,-50,4,2,0,5,0,0
75619,-1000,4,2,0,5,0,0
75671,-50,4,2,0,5,0,0
75722,-1000,4,2,0,5,0,0
75774,-50,4,2,0,5,0,0
75826,-100,4,2,0,5,0,0
75929,-1000,4,2,0,5,0,0
75981,-50,4,2,0,5,0,0
76033,-1000,4,2,0,5,0,0
76084,-50,4,2,0,5,0,0
76136,-1000,4,2,0,5,0,0
76188,-50,4,2,0,5,0,0
76240,-66.6666666666667,4,2,0,5,0,0
76343,-33.3333333333333,4,2,0,5,0,0
76757,-200,4,2,0,5,0,0
77171,-1000,4,2,0,5,0,0
77222,-50,4,2,0,5,0,0
77274,-1000,4,2,0,5,0,0
77326,-50,4,2,0,5,0,0
77378,-1000,4,2,0,5,0,0
77429,-50,4,2,0,5,0,0
77481,-1000,4,2,0,5,0,0
77533,-50,4,2,0,5,0,0
77584,-100,4,2,0,5,0,0
77998,-40,4,2,0,5,0,0
78102,-1000,4,2,0,5,0,0
78205,-133.333333333333,4,2,0,5,0,0
78412,-40,4,2,0,5,0,0
78464,-1000,4,2,0,5,0,0
78515,-133.333333333333,4,2,0,5,0,0
78619,-40,4,2,0,5,0,0
78671,-1000,4,2,0,5,0,0
78722,-133.333333333333,4,2,0,5,0,0
78826,-1000,4,2,0,5,0,0
78852,-50,4,2,0,5,0,0
78878,-1000,4,2,0,5,0,0
78903,-50,4,2,0,5,0,0
78929,-1000,4,2,0,5,0,0
78955,-50,4,2,0,5,0,0
78981,-1000,4,2,0,5,0,0
79007,-50,4,2,0,5,0,0
79033,-1000,4,2,0,5,0,0
79059,-50,4,2,0,5,0,0
79084,-1000,4,2,0,5,0,0
79110,-50,4,2,0,5,0,0
79136,-1000,4,2,0,5,0,0
79162,-50,4,2,0,5,0,0
79188,-1000,4,2,0,5,0,0
79214,-50,4,2,0,5,0,0
79240,-1000,4,2,0,5,0,0
79265,-50,4,2,0,5,0,0
79291,-1000,4,2,0,5,0,0
79317,-50,4,2,0,5,0,0
79343,-1000,4,2,0,5,0,0
79369,-50,4,2,0,5,0,0
79395,-1000,4,2,0,5,0,0
79421,-50,4,2,0,5,0,0
79446,-1000,4,2,0,5,0,0
79472,-50,4,2,0,5,0,0
79498,-1000,4,2,0,5,0,0
79524,-50,4,2,0,5,0,0
79550,-1000,4,2,0,5,0,0
79576,-50,4,2,0,5,0,0
79602,-1000,4,2,0,5,0,0
79628,-50,4,2,0,5,0,0
79653,-33.3333333333333,4,2,0,5,0,0
80067,-200,4,2,0,5,0,0
80481,-1000,4,2,0,5,0,0
80533,-50,4,2,0,5,0,0
80584,-1000,4,2,0,5,0,0
80636,-50,4,2,0,5,0,0
80688,-1000,4,2,0,5,0,0
80740,-50,4,2,0,5,0,0
80791,-100,4,2,0,5,0,0
80895,-1000,4,2,0,5,0,0
80946,-50,4,2,0,5,0,0
80998,-1000,4,2,0,5,0,0
81050,-50,4,2,0,5,0,0
81102,-1000,4,2,0,5,0,0
81153,-50,4,2,0,5,0,0
81205,-66.6666666666667,4,2,0,5,0,0
81309,-33.3333333333333,4,2,0,5,0,0
81722,-200,4,2,0,5,0,0
82136,-1000,4,2,0,5,0,0
82188,-50,4,2,0,5,0,0
82240,-1000,4,2,0,5,0,0
82291,-50,4,2,0,5,0,0
82343,-1000,4,2,0,5,0,0
82395,-50,4,2,0,5,0,0
82446,-100,4,2,0,5,0,0
82550,-1000,4,2,0,5,0,0
82602,-50,4,2,0,5,0,0
82653,-1000,4,2,0,5,0,0
82705,-50,4,2,0,5,0,0
82757,-1000,4,2,0,5,0,0
82809,-50,4,2,0,5,0,0
82860,-66.6666666666667,4,2,0,5,0,0
82964,-33.3333333333333,4,2,0,5,0,0
83378,-200,4,2,0,5,0,0
83791,-1000,4,2,0,5,0,0
83843,-50,4,2,0,5,0,0
83895,-1000,4,2,0,5,0,0
83946,-50,4,2,0,5,0,0
83998,-1000,4,2,0,5,0,0
84050,-50,4,2,0,5,0,0
84205,-1000,4,2,0,5,0,0
84257,-50,4,2,0,5,0,0
84309,-100,4,2,0,5,0,0
84619,-40,4,2,0,5,0,0
84830,-200,4,2,0,5,0,0
85033,-40,4,2,0,5,0,0
85240,-200,4,2,0,5,0,0
85446,-40,4,2,0,5,0,0
85653,-200,4,2,0,5,0,0
85912,-1000,4,2,0,5,0,0
85938,-50,4,2,0,5,0,0
85964,-1000,4,2,0,5,0,0
85990,-50,4,2,0,5,0,0
86015,-1000,4,2,0,5,0,0
86041,-50,4,2,0,5,0,0
86067,-1000,4,2,0,5,0,0
86093,-50,4,2,0,5,0,0
86119,-1000,4,2,0,5,0,0
86145,-50,4,2,0,5,0,0
86171,-1000,4,2,0,5,0,0
86196,-50,4,2,0,5,0,0
86222,-1000,4,2,0,5,0,0
86248,-50,4,2,0,5,0,0
86274,-100,4,2,0,5,0,0
92895,-133.333333333333,4,2,0,5,0,0
94136,20.6896551724138,4,2,0,5,1,0
94136,-10,4,2,0,5,0,0
94164,4000,4,2,0,5,1,0
94164,-1000,4,2,0,5,0,0
94550,413.793103448276,4,2,0,5,1,0
94550,-133.333333333333,4,2,0,5,0,0
95791,20.6896551724138,4,2,0,5,1,0
95791,-10,4,2,0,5,0,0
95819,4000,4,2,0,5,1,0
95819,-1000,4,2,0,5,0,0
96205,413.793103448276,4,2,0,5,1,0
96205,-100,4,2,0,5,0,0
112756,4000,4,2,0,5,1,0
112756,-1000,4,2,0,5,0,0
114411,413.793103448276,4,2,0,5,1,0
114411,-100,4,2,0,5,0,0
117721,4000,4,2,0,5,1,0
117721,-1000,4,2,0,5,0,0
118445,20.6896551724138,4,2,0,5,1,0
118445,-10,4,2,0,5,0,0
118548,413.793103448276,4,2,0,5,1,0

[HitObjects]
64,192,206,128,0,1809:0:0:0:0:
320,192,206,128,0,1809:0:0:0:0:
64,192,1861,128,0,3464:0:0:0:0:
320,192,1861,128,0,3464:0:0:0:0:
192,192,3516,128,0,5119:0:0:0:0:
448,192,3516,128,0,5119:0:0:0:0:
448,192,5171,128,0,6774:0:0:0:0:
192,192,5171,128,0,6774:0:0:0:0:
64,192,6826,1,0,0:0:0:0:
320,192,6826,1,0,0:0:0:0:
192,192,6826,128,0,8068:0:0:0:0:
64,192,7240,1,0,0:0:0:0:
320,192,7240,1,0,0:0:0:0:
320,192,7654,1,0,0:0:0:0:
448,192,7654,1,0,0:0:0:0:
448,192,8068,128,0,8481:0:0:0:0:
320,192,8068,1,0,0:0:0:0:
64,192,8068,1,0,0:0:0:0:
320,192,8274,1,0,0:0:0:0:
64,192,8274,1,0,0:0:0:0:
320,192,8481,128,0,8895:0:0:0:0:
192,192,8481,1,0,0:0:0:0:
64,192,8481,1,0,0:0:0:0:
64,192,8895,128,0,9102:0:0:0:0:
448,192,8895,1,0,0:0:0:0:
320,192,8921,128,0,10137:0:0:0:0:
192,192,9128,128,0,9309:0:0:0:0:
448,192,9309,1,0,0:0:0:0:
64,192,9335,128,0,9516:0:0:0:0:
448,192,9723,1,0,0:0:0:0:
192,192,9723,1,0,0:0:0:0:
448,192,10137,128,0,11792:0:0:0:0:
192,192,10137,1,0,0:0:0:0:
64,192,10137,1,0,0:0:0:0:
192,192,10550,1,0,0:0:0:0:
320,192,10550,1,0,0:0:0:0:
192,192,10964,1,0,0:0:0:0:
64,192,10964,1,0,0:0:0:0:
320,192,11171,1,0,0:0:0:0:
192,192,11171,1,0,0:0:0:0:
192,192,11378,1,0,0:0:0:0:
64,192,11378,1,0,0:0:0:0:
64,192,11792,128,0,13447:0:0:0:0:
320,192,11792,128,0,13447:0:0:0:0:
192,192,11792,1,0,0:0:0:0:
192,192,13137,1,0,0:0:0:0:
448,192,13137,1,0,0:0:0:0:
448,192,13240,1,0,0:0:0:0:
192,192,13240,1,0,0:0:0:0:
192,192,13343,1,0,0:0:0:0:
448,192,13343,1,0,0:0:0:0:
448,192,13447,1,0,0:0:0:0:
192,192,13447,1,0,0:0:0:0:
448,192,13550,1,0,0:0:0:0:
320,192,13654,1,0,0:0:0:0:
192,192,13757,1,0,0:0:0:0:
448,192,13861,1,0,0:0:0:0:
64,192,13964,1,0,0:0:0:0:
192,192,14068,1,0,0:0:0:0:
320,192,14171,1,0,0:0:0:0:
64,192,14274,1,0,0:0:0:0:
192,192,14378,1,0,0:0:0:0:
448,192,14481,1,0,0:0:0:0:
192,192,14585,1,0,0:0:0:0:
64,192,14688,1,0,0:0:0:0:
192,192,14792,1,0,0:0:0:0:
320,192,14895,1,0,0:0:0:0:
448,192,14999,1,0,0:0:0:0:
320,192,15102,1,0,0:0:0:0:
64,192,15206,1,0,0:0:0:0:
320,192,15309,1,0,0:0:0:0:
192,192,15412,1,0,0:0:0:0:
448,192,15516,1,0,0:0:0:0:
320,192,15619,1,0,0:0:0:0:
64,192,15723,1,0,0:0:0:0:
192,192,15826,1,0,0:0:0:0:
320,192,15930,1,0,0:0:0:0:
192,192,16033,1,0,0:0:0:0:
320,192,16137,1,0,0:0:0:0:
64,192,16240,1,0,0:0:0:0:
448,192,16343,1,0,0:0:0:0:
320,192,16447,1,0,0:0:0:0:
192,192,16550,1,0,0:0:0:0:
64,192,16654,1,0,0:0:0:0:
192,192,16757,1,0,0:0:0:0:
448,192,16861,1,0,0:0:0:0:
192,192,16964,1,0,0:0:0:0:
320,192,17068,1,0,0:0:0:0:
64,192,17171,1,0,0:0:0:0:
192,192,17274,1,0,0:0:0:0:
448,192,17378,1,0,0:0:0:0:
192,192,17481,1,0,0:0:0:0:
64,192,17585,1,0,0:0:0:0:
448,192,17688,1,0,0:0:0:0:
192,192,17792,1,0,0:0:0:0:
320,192,17895,1,0,0:0:0:0:
64,192,17999,1,0,0:0:0:0:
448,192,18102,1,0,0:0:0:0:
192,192,18206,1,0,0:0:0:0:
320,192,18309,1,0,0:0:0:0:
320,192,18412,1,0,0:0:0:0:
192,192,18516,1,0,0:0:0:0:
448,192,18619,1,0,0:0:0:0:
64,192,18723,1,0,0:0:0:0:
320,192,18826,1,0,0:0:0:0:
192,192,18930,1,0,0:0:0:0:
448,192,19033,1,0,0:0:0:0:
64,192,19137,1,0,0:0:0:0:
448,192,19240,1,0,0:0:0:0:
320,192,19343,1,0,0:0:0:0:
192,192,19447,1,0,0:0:0:0:
64,192,19550,1,0,0:0:0:0:
64,192,19654,1,0,0:0:0:0:
192,192,19757,1,0,0:0:0:0:
320,192,19861,1,0,0:0:0:0:
448,192,19964,1,0,0:0:0:0:
64,192,20068,1,0,0:0:0:0:
320,192,20171,1,0,0:0:0:0:
192,192,20274,1,0,0:0:0:0:
448,192,20378,1,0,0:0:0:0:
192,192,20481,1,0,0:0:0:0:
448,192,20585,1,0,0:0:0:0:
64,192,20688,1,0,0:0:0:0:
320,192,20792,1,0,0:0:0:0:
192,192,20895,1,0,0:0:0:0:
448,192,20999,1,0,0:0:0:0:
192,192,21102,1,0,0:0:0:0:
64,192,21206,1,0,0:0:0:0:
192,192,21309,128,0,21723:0:0:0:0:
320,192,21309,128,0,21723:0:0:0:0:
448,192,21309,128,0,21723:0:0:0:0:
64,192,21826,1,0,0:0:0:0:
320,192,21930,1,0,0:0:0:0:
320,192,22033,1,0,0:0:0:0:
192,192,22137,1,0,0:0:0:0:
64,192,22240,1,0,0:0:0:0:
448,192,22343,1,0,0:0:0:0:
320,192,22447,1,0,0:0:0:0:
64,192,22550,1,0,0:0:0:0:
448,192,22654,1,0,0:0:0:0:
192,192,22757,1,0,0:0:0:0:
448,192,22861,1,0,0:0:0:0:
64,192,22964,128,0,23378:0:0:0:0:
320,192,22964,128,0,23378:0:0:0:0:
192,192,22964,128,0,23378:0:0:0:0:
448,192,23481,1,0,0:0:0:0:
320,192,23585,1,0,0:0:0:0:
192,192,23688,1,0,0:0:0:0:
320,192,23792,1,0,0:0:0:0:
192,192,23895,1,0,0:0:0:0:
320,192,23999,1,0,0:0:0:0:
64,192,24102,1,0,0:0:0:0:
448,192,24206,1,0,0:0:0:0:
192,192,24309,1,0,0:0:0:0:
320,192,24412,1,0,0:0:0:0:
64,192,24516,1,0,0:0:0:0:
448,192,24619,1,0,0:0:0:0:
64,192,24723,1,0,0:0:0:0:
320,192,24826,1,0,0:0:0:0:
192,192,24930,1,0,0:0:0:0:
64,192,25033,1,0,0:0:0:0:
448,192,25033,128,0,25240:0:0:0:0:
192,192,25137,1,0,0:0:0:0:
320,192,25240,1,0,0:0:0:0:
320,192,25446,1,0,0:0:0:0:
448,192,25447,128,0,25654:0:0:0:0:
192,192,25550,1,0,0:0:0:0:
64,192,25653,1,0,0:0:0:0:
64,192,25861,1,0,0:0:0:0:
448,192,25861,128,0,26068:0:0:0:0:
192,192,25964,1,0,0:0:0:0:
320,192,26068,1,0,0:0:0:0:
320,192,26274,1,0,0:0:0:0:
448,192,26274,128,0,26481:0:0:0:0:
192,192,26378,1,0,0:0:0:0:
64,192,26481,1,0,0:0:0:0:
448,192,26585,1,0,0:0:0:0:
64,192,26688,1,0,0:0:0:0:
192,192,26688,128,0,27515:0:0:0:0:
448,192,26791,1,0,0:0:0:0:
320,192,26895,1,0,0:0:0:0:
448,192,26998,1,0,0:0:0:0:
64,192,27102,1,0,0:0:0:0:
320,192,27206,1,0,0:0:0:0:
64,192,27309,1,0,0:0:0:0:
448,192,27412,1,0,0:0:0:0:
320,192,27515,1,0,0:0:0:0:
448,192,27516,128,0,27956:0:0:0:0:
192,192,27619,1,0,0:0:0:0:
64,192,27723,1,0,0:0:0:0:
192,192,27826,1,0,0:0:0:0:
320,192,27929,1,0,0:0:0:0:
192,192,27930,128,0,28343:0:0:0:0:
448,192,28033,1,0,0:0:0:0:
64,192,28137,1,0,0:0:0:0:
320,192,28240,1,0,0:0:0:0:
64,192,28343,1,0,0:0:0:0:
448,192,28343,128,0,29171:0:0:0:0:
192,192,28446,1,0,0:0:0:0:
64,192,28550,1,0,0:0:0:0:
320,192,28654,1,0,0:0:0:0:
192,192,28757,1,0,0:0:0:0:
320,192,28861,1,0,0:0:0:0:
192,192,28964,1,0,0:0:0:0:
64,192,29067,1,0,0:0:0:0:
320,192,29171,1,0,0:0:0:0:
192,192,29171,128,0,29481:0:0:0:0:
448,192,29274,1,0,0:0:0:0:
64,192,29378,1,0,0:0:0:0:
320,192,29481,1,0,0:0:0:0:
64,192,29585,1,0,0:0:0:0:
192,192,29637,1,0,0:0:0:0:
320,192,29688,1,0,0:0:0:0:
448,192,29740,1,0,0:0:0:0:
64,192,29792,1,0,0:0:0:0:
192,192,29843,1,0,0:0:0:0:
320,192,29895,1,0,0:0:0:0:
448,192,29947,1,0,0:0:0:0:
320,192,29999,1,0,0:0:0:0:
192,192,29999,128,0,30826:0:0:0:0:
64,192,30102,1,0,0:0:0:0:
320,192,30206,1,0,0:0:0:0:
448,192,30309,1,0,0:0:0:0:
320,192,30412,1,0,0:0:0:0:
448,192,30515,1,0,0:0:0:0:
64,192,30619,1,0,0:0:0:0:
448,192,30722,1,0,0:0:0:0:
320,192,30826,1,0,0:0:0:0:
448,192,30826,128,0,31240:0:0:0:0:
64,192,30930,1,0,0:0:0:0:
320,192,31033,1,0,0:0:0:0:
192,192,31136,1,0,0:0:0:0:
320,192,31240,1,0,0:0:0:0:
192,192,31240,128,0,31654:0:0:0:0:
64,192,31343,1,0,0:0:0:0:
320,192,31447,1,0,0:0:0:0:
448,192,31550,1,0,0:0:0:0:
320,192,31654,1,0,0:0:0:0:
448,192,31654,128,0,32481:0:0:0:0:
192,192,31757,1,0,0:0:0:0:
64,192,31860,1,0,0:0:0:0:
192,192,31964,1,0,0:0:0:0:
320,192,32068,1,0,0:0:0:0:
192,192,32171,1,0,0:0:0:0:
64,192,32274,1,0,0:0:0:0:
192,192,32378,1,0,0:0:0:0:
320,192,32481,1,0,0:0:0:0:
192,192,32481,128,0,32792:0:0:0:0:
448,192,32584,1,0,0:0:0:0:
320,192,32688,1,0,0:0:0:0:
64,192,32792,1,0,0:0:0:0:
448,192,32895,1,0,0:0:0:0:
320,192,32947,1,0,0:0:0:0:
192,192,32999,1,0,0:0:0:0:
64,192,33050,1,0,0:0:0:0:
448,192,33102,1,0,0:0:0:0:
320,192,33154,1,0,0:0:0:0:
192,192,33206,1,0,0:0:0:0:
64,192,33257,1,0,0:0:0:0:
448,192,33309,1,0,0:0:0:0:
320,192,33309,128,0,34137:0:0:0:0:
64,192,33412,1,0,0:0:0:0:
448,192,33516,1,0,0:0:0:0:
64,192,33619,1,0,0:0:0:0:
448,192,33723,1,0,0:0:0:0:
192,192,33826,1,0,0:0:0:0:
448,192,33930,1,0,0:0:0:0:
192,192,34033,1,0,0:0:0:0:
448,192,34137,1,0,0:0:0:0:
192,192,34137,128,0,34550:0:0:0:0:
320,192,34240,1,0,0:0:0:0:
448,192,34343,1,0,0:0:0:0:
320,192,34446,1,0,0:0:0:0:
64,192,34550,1,0,0:0:0:0:
320,192,34550,128,0,34964:0:0:0:0:
192,192,34653,1,0,0:0:0:0:
64,192,34757,1,0,0:0:0:0:
192,192,34860,1,0,0:0:0:0:
448,192,34964,1,0,0:0:0:0:
192,192,34964,128,0,35792:0:0:0:0:
320,192,35067,1,0,0:0:0:0:
64,192,35171,1,0,0:0:0:0:
320,192,35274,1,0,0:0:0:0:
448,192,35378,1,0,0:0:0:0:
320,192,35481,1,0,0:0:0:0:
64,192,35584,1,0,0:0:0:0:
320,192,35688,1,0,0:0:0:0:
448,192,35792,1,0,0:0:0:0:
320,192,35792,128,0,36102:0:0:0:0:
64,192,35895,1,0,0:0:0:0:
448,192,35999,1,0,0:0:0:0:
64,192,36102,1,0,0:0:0:0:
448,192,36206,1,0,0:0:0:0:
320,192,36257,1,0,0:0:0:0:
192,192,36309,1,0,0:0:0:0:
64,192,36361,1,0,0:0:0:0:
448,192,36412,1,0,0:0:0:0:
320,192,36464,1,0,0:0:0:0:
192,192,36516,1,0,0:0:0:0:
64,192,36568,1,0,0:0:0:0:
320,192,36619,1,0,0:0:0:0:
448,192,36619,128,0,37447:0:0:0:0:
192,192,36723,1,0,0:0:0:0:
64,192,36826,1,0,0:0:0:0:
64,192,36929,1,0,0:0:0:0:
192,192,37033,1,0,0:0:0:0:
320,192,37136,1,0,0:0:0:0:
320,192,37240,1,0,0:0:0:0:
192,192,37343,1,0,0:0:0:0:
320,192,37447,1,0,0:0:0:0:
64,192,37447,128,0,37861:0:0:0:0:
448,192,37550,1,0,0:0:0:0:
320,192,37654,1,0,0:0:0:0:
192,192,37757,1,0,0:0:0:0:
320,192,37861,1,0,0:0:0:0:
448,192,37861,128,0,38274:0:0:0:0:
64,192,37964,1,0,0:0:0:0:
320,192,38068,1,0,0:0:0:0:
64,192,38171,1,0,0:0:0:0:
320,192,38274,1,0,0:0:0:0:
64,192,38274,128,0,39102:0:0:0:0:
192,192,38378,1,0,0:0:0:0:
320,192,38481,1,0,0:0:0:0:
448,192,38584,1,0,0:0:0:0:
320,192,38688,1,0,0:0:0:0:
448,192,38791,1,0,0:0:0:0:
320,192,38895,1,0,0:0:0:0:
192,192,38999,1,0,0:0:0:0:
320,192,39102,1,0,0:0:0:0:
448,192,39102,128,0,39412:0:0:0:0:
64,192,39205,1,0,0:0:0:0:
192,192,39309,1,0,0:0:0:0:
320,192,39412,1,0,0:0:0:0:
64,192,39516,1,0,0:0:0:0:
192,192,39568,1,0,0:0:0:0:
320,192,39619,1,0,0:0:0:0:
448,192,39671,1,0,0:0:0:0:
64,192,39723,1,0,0:0:0:0:
192,192,39774,1,0,0:0:0:0:
320,192,39826,1,0,0:0:0:0:
448,192,39878,1,0,0:0:0:0:
64,192,39930,128,0,40137:0:0:0:0:
320,192,39930,1,0,0:0:0:0:
448,192,40033,1,0,0:0:0:0:
192,192,40137,1,0,0:0:0:0:
448,192,40240,1,0,0:0:0:0:
320,192,40343,128,0,40550:0:0:0:0:
192,192,40343,1,0,0:0:0:0:
64,192,40447,1,0,0:0:0:0:
448,192,40550,1,0,0:0:0:0:
320,192,40654,1,0,0:0:0:0:
448,192,40757,128,0,40964:0:0:0:0:
64,192,40757,1,0,0:0:0:0:
320,192,40861,1,0,0:0:0:0:
192,192,40964,1,0,0:0:0:0:
448,192,41068,1,0,0:0:0:0:
64,192,41171,128,0,41378:0:0:0:0:
320,192,41171,1,0,0:0:0:0:
192,192,41274,1,0,0:0:0:0:
448,192,41378,1,0,0:0:0:0:
320,192,41481,1,0,0:0:0:0:
192,192,41585,128,0,41792:0:0:0:0:
64,192,41585,1,0,0:0:0:0:
448,192,41688,1,0,0:0:0:0:
64,192,41792,1,0,0:0:0:0:
448,192,41895,1,0,0:0:0:0:
448,192,41999,128,0,42206:0:0:0:0:
320,192,41999,1,0,0:0:0:0:
64,192,42102,1,0,0:0:0:0:
192,192,42206,1,0,0:0:0:0:
448,192,42309,1,0,0:0:0:0:
64,192,42412,128,0,42619:0:0:0:0:
192,192,42412,1,0,0:0:0:0:
448,192,42516,1,0,0:0:0:0:
192,192,42619,1,0,0:0:0:0:
448,192,42723,1,0,0:0:0:0:
192,192,42826,128,0,43033:0:0:0:0:
64,192,42826,1,0,0:0:0:0:
320,192,42930,1,0,0:0:0:0:
64,192,43033,1,0,0:0:0:0:
320,192,43137,1,0,0:0:0:0:
64,192,43240,128,0,43447:0:0:0:0:
448,192,43240,1,0,0:0:0:0:
192,192,43343,1,0,0:0:0:0:
320,192,43447,1,0,0:0:0:0:
448,192,43550,1,0,0:0:0:0:
448,192,43654,128,0,43861:0:0:0:0:
64,192,43654,1,0,0:0:0:0:
192,192,43757,1,0,0:0:0:0:
320,192,43861,1,0,0:0:0:0:
448,192,43964,1,0,0:0:0:0:
320,192,44068,128,0,44274:0:0:0:0:
192,192,44068,1,0,0:0:0:0:
448,192,44171,1,0,0:0:0:0:
64,192,44274,128,0,44481:0:0:0:0:
192,192,44274,1,0,0:0:0:0:
448,192,44378,1,0,0:0:0:0:
320,192,44481,1,0,0:0:0:0:
192,192,44585,1,0,0:0:0:0:
448,192,44688,1,0,0:0:0:0:
64,192,44792,1,0,0:0:0:0:
64,192,44895,128,0,45102:0:0:0:0:
320,192,44895,1,0,0:0:0:0:
192,192,44999,1,0,0:0:0:0:
448,192,45102,1,0,0:0:0:0:
192,192,45206,1,0,0:0:0:0:
192,192,45309,128,0,45516:0:0:0:0:
448,192,45309,1,0,0:0:0:0:
320,192,45412,1,0,0:0:0:0:
64,192,45516,1,0,0:0:0:0:
320,192,45619,1,0,0:0:0:0:
448,192,45723,128,0,45930:0:0:0:0:
192,192,45723,1,0,0:0:0:0:
64,192,45826,1,0,0:0:0:0:
320,192,45930,1,0,0:0:0:0:
448,192,46033,1,0,0:0:0:0:
64,192,46137,1,0,0:0:0:0:
192,192,46188,1,0,0:0:0:0:
320,192,46240,1,0,0:0:0:0:
448,192,46292,1,0,0:0:0:0:
64,192,46343,1,0,0:0:0:0:
192,192,46395,1,0,0:0:0:0:
320,192,46447,1,0,0:0:0:0:
448,192,46499,1,0,0:0:0:0:
64,192,46550,1,0,0:0:0:0:
320,192,46550,1,0,0:0:0:0:
192,192,46654,1,0,0:0:0:0:
448,192,46757,1,0,0:0:0:0:
192,192,46861,1,0,0:0:0:0:
320,192,46964,1,0,0:0:0:0:
64,192,47068,1,0,0:0:0:0:
448,192,47171,1,0,0:0:0:0:
192,192,47274,1,0,0:0:0:0:
320,192,47378,1,0,0:0:0:0:
64,192,47481,1,0,0:0:0:0:
448,192,47585,1,0,0:0:0:0:
192,192,47688,1,0,0:0:0:0:
448,192,47792,1,0,0:0:0:0:
320,192,47895,1,0,0:0:0:0:
64,192,47999,1,0,0:0:0:0:
192,192,48102,1,0,0:0:0:0:
448,192,48206,1,0,0:0:0:0:
320,192,48206,1,0,0:0:0:0:
64,192,48309,1,0,0:0:0:0:
320,192,48412,1,0,0:0:0:0:
192,192,48516,1,0,0:0:0:0:
448,192,48619,1,0,0:0:0:0:
320,192,48723,1,0,0:0:0:0:
192,192,48826,1,0,0:0:0:0:
64,192,48930,1,0,0:0:0:0:
192,192,49033,1,0,0:0:0:0:
448,192,49137,1,0,0:0:0:0:
192,192,49240,1,0,0:0:0:0:
320,192,49343,1,0,0:0:0:0:
192,192,49447,1,0,0:0:0:0:
64,192,49550,1,0,0:0:0:0:
192,192,49654,1,0,0:0:0:0:
320,192,49757,1,0,0:0:0:0:
192,192,49861,1,0,0:0:0:0:
64,192,49861,1,0,0:0:0:0:
448,192,49964,1,0,0:0:0:0:
320,192,50068,1,0,0:0:0:0:
192,192,50171,1,0,0:0:0:0:
320,192,50274,1,0,0:0:0:0:
448,192,50378,1,0,0:0:0:0:
320,192,50481,1,0,0:0:0:0:
448,192,50585,1,0,0:0:0:0:
320,192,50688,1,0,0:0:0:0:
448,192,50792,1,0,0:0:0:0:
64,192,50895,1,0,0:0:0:0:
192,192,50999,1,0,0:0:0:0:
64,192,51102,1,0,0:0:0:0:
448,192,51206,1,0,0:0:0:0:
320,192,51309,1,0,0:0:0:0:
448,192,51412,1,0,0:0:0:0:
64,192,51516,1,0,0:0:0:0:
192,192,51619,1,0,0:0:0:0:
64,192,51723,1,0,0:0:0:0:
192,192,51826,1,0,0:0:0:0:
320,192,51930,1,0,0:0:0:0:
192,192,52033,1,0,0:0:0:0:
320,192,52137,1,0,0:0:0:0:
448,192,52240,1,0,0:0:0:0:
320,192,52343,1,0,0:0:0:0:
448,192,52447,1,0,0:0:0:0:
64,192,52550,1,0,0:0:0:0:
448,192,52654,1,0,0:0:0:0:
320,192,52757,1,0,0:0:0:0:
192,192,52861,1,0,0:0:0:0:
448,192,52964,1,0,0:0:0:0:
192,192,53068,1,0,0:0:0:0:
64,192,53171,1,0,0:0:0:0:
448,192,53171,1,0,0:0:0:0:
192,192,53274,1,0,0:0:0:0:
64,192,53378,1,0,0:0:0:0:
192,192,53481,1,0,0:0:0:0:
320,192,53585,1,0,0:0:0:0:
192,192,53688,1,0,0:0:0:0:
320,192,53792,1,0,0:0:0:0:
448,192,53895,1,0,0:0:0:0:
320,192,53999,1,0,0:0:0:0:
192,192,54102,1,0,0:0:0:0:
320,192,54206,1,0,0:0:0:0:
192,192,54309,1,0,0:0:0:0:
64,192,54412,1,0,0:0:0:0:
192,192,54516,1,0,0:0:0:0:
320,192,54619,1,0,0:0:0:0:
64,192,54722,1,0,0:0:0:0:
320,192,54826,1,0,0:0:0:0:
192,192,54826,1,0,0:0:0:0:
448,192,54930,1,0,0:0:0:0:
320,192,55033,1,0,0:0:0:0:
448,192,55137,1,0,0:0:0:0:
320,192,55240,1,0,0:0:0:0:
192,192,55343,1,0,0:0:0:0:
320,192,55447,1,0,0:0:0:0:
192,192,55550,1,0,0:0:0:0:
64,192,55654,1,0,0:0:0:0:
192,192,55757,1,0,0:0:0:0:
320,192,55861,1,0,0:0:0:0:
448,192,55964,1,0,0:0:0:0:
320,192,56068,1,0,0:0:0:0:
192,192,56171,1,0,0:0:0:0:
64,192,56274,1,0,0:0:0:0:
192,192,56378,1,0,0:0:0:0:
448,192,56481,1,0,0:0:0:0:
320,192,56481,1,0,0:0:0:0:
192,192,56585,1,0,0:0:0:0:
64,192,56688,1,0,0:0:0:0:
192,192,56792,1,0,0:0:0:0:
64,192,56895,1,0,0:0:0:0:
192,192,56999,1,0,0:0:0:0:
64,192,57102,1,0,0:0:0:0:
192,192,57206,1,0,0:0:0:0:
64,192,57309,1,0,0:0:0:0:
448,192,57412,1,0,0:0:0:0:
320,192,57516,1,0,0:0:0:0:
192,192,57619,1,0,0:0:0:0:
64,192,57723,1,0,0:0:0:0:
192,192,57826,1,0,0:0:0:0:
320,192,57930,1,0,0:0:0:0:
192,192,58033,1,0,0:0:0:0:
64,192,58137,128,0,58343:0:0:0:0:
192,192,58137,1,0,0:0:0:0:
320,192,58240,1,0,0:0:0:0:
448,192,58343,1,0,0:0:0:0:
448,192,58550,128,0,58757:0:0:0:0:
64,192,58550,1,0,0:0:0:0:
192,192,58654,1,0,0:0:0:0:
320,192,58757,1,0,0:0:0:0:
64,192,58964,128,0,59171:0:0:0:0:
448,192,58964,1,0,0:0:0:0:
320,192,59068,1,0,0:0:0:0:
192,192,59171,1,0,0:0:0:0:
448,192,59378,128,0,59585:0:0:0:0:
64,192,59378,1,0,0:0:0:0:
192,192,59481,1,0,0:0:0:0:
320,192,59585,1,0,0:0:0:0:
64,192,59791,128,0,59895:0:0:0:0:
320,192,59791,1,0,0:0:0:0:
448,192,59895,1,0,0:0:0:0:
320,192,59998,1,0,0:0:0:0:
64,192,60102,1,0,0:0:0:0:
448,192,60205,128,0,60309:0:0:0:0:
192,192,60205,1,0,0:0:0:0:
320,192,60309,1,0,0:0:0:0:
64,192,60412,1,0,0:0:0:0:
320,192,60515,1,0,0:0:0:0:
64,192,60619,128,0,60722:0:0:0:0:
320,192,60619,1,0,0:0:0:0:
448,192,60722,1,0,0:0:0:0:
192,192,60826,1,0,0:0:0:0:
64,192,60929,1,0,0:0:0:0:
448,192,61033,128,0,61136:0:0:0:0:
320,192,61033,1,0,0:0:0:0:
192,192,61136,1,0,0:0:0:0:
64,192,61240,1,0,0:0:0:0:
448,192,61343,1,0,0:0:0:0:
320,192,61446,128,0,61550:0:0:0:0:
192,192,61446,1,0,0:0:0:0:
64,192,61550,1,0,0:0:0:0:
192,192,61653,1,0,0:0:0:0:
64,192,61757,1,0,0:0:0:0:
192,192,61860,128,0,61964:0:0:0:0:
448,192,61860,1,0,0:0:0:0:
320,192,61964,1,0,0:0:0:0:
448,192,62067,1,0,0:0:0:0:
320,192,62171,1,0,0:0:0:0:
320,192,62274,128,0,62378:0:0:0:0:
64,192,62274,1,0,0:0:0:0:
192,192,62378,1,0,0:0:0:0:
320,192,62481,1,0,0:0:0:0:
448,192,62584,1,0,0:0:0:0:
192,192,62688,128,0,62791:0:0:0:0:
64,192,62688,1,0,0:0:0:0:
448,192,62791,1,0,0:0:0:0:
320,192,62895,1,0,0:0:0:0:
64,192,62998,1,0,0:0:0:0:
192,192,63102,128,0,63205:0:0:0:0:
448,192,63102,1,0,0:0:0:0:
320,192,63205,1,0,0:0:0:0:
192,192,63309,1,0,0:0:0:0:
448,192,63412,1,0,0:0:0:0:
64,192,63515,128,0,63619:0:0:0:0:
192,192,63515,1,0,0:0:0:0:
448,192,63619,1,0,0:0:0:0:
320,192,63722,1,0,0:0:0:0:
64,192,63826,1,0,0:0:0:0:
320,192,63929,128,0,64033:0:0:0:0:
448,192,63929,1,0,0:0:0:0:
64,192,64033,1,0,0:0:0:0:
192,192,64136,1,0,0:0:0:0:
320,192,64240,1,0,0:0:0:0:
448,192,64343,128,0,64446:0:0:0:0:
64,192,64343,1,0,0:0:0:0:
192,192,64446,1,0,0:0:0:0:
64,192,64550,1,0,0:0:0:0:
320,192,64653,1,0,0:0:0:0:
448,192,64757,128,0,64860:0:0:0:0:
192,192,64757,1,0,0:0:0:0:
64,192,64860,1,0,0:0:0:0:
192,192,64964,1,0,0:0:0:0:
320,192,65067,1,0,0:0:0:0:
320,192,65171,128,0,65274:0:0:0:0:
448,192,65171,1,0,0:0:0:0:
192,192,65274,1,0,0:0:0:0:
448,192,65378,1,0,0:0:0:0:
320,192,65481,1,0,0:0:0:0:
192,192,65584,128,0,65688:0:0:0:0:
64,192,65584,1,0,0:0:0:0:
448,192,65688,1,0,0:0:0:0:
64,192,65791,1,0,0:0:0:0:
448,192,65895,1,0,0:0:0:0:
64,192,65998,128,0,66102:0:0:0:0:
320,192,65998,1,0,0:0:0:0:
192,192,66102,1,0,0:0:0:0:
320,192,66205,1,0,0:0:0:0:
448,192,66309,1,0,0:0:0:0:
448,192,66412,128,0,66515:0:0:0:0:
64,192,66412,1,0,0:0:0:0:
192,192,66515,1,0,0:0:0:0:
320,192,66619,1,0,0:0:0:0:
448,192,66722,1,0,0:0:0:0:
192,192,66826,128,0,66929:0:0:0:0:
64,192,66826,1,0,0:0:0:0:
320,192,66929,1,0,0:0:0:0:
64,192,67033,1,0,0:0:0:0:
448,192,67136,1,0,0:0:0:0:
64,192,67240,128,0,67343:0:0:0:0:
320,192,67240,1,0,0:0:0:0:
448,192,67343,1,0,0:0:0:0:
64,192,67446,1,0,0:0:0:0:
320,192,67550,1,0,0:0:0:0:
320,192,67653,128,0,67757:0:0:0:0:
192,192,67653,1,0,0:0:0:0:
64,192,67757,1,0,0:0:0:0:
448,192,67860,1,0,0:0:0:0:
192,192,67964,1,0,0:0:0:0:
64,192,68067,128,0,68171:0:0:0:0:
448,192,68067,1,0,0:0:0:0:
192,192,68171,1,0,0:0:0:0:
320,192,68274,1,0,0:0:0:0:
64,192,68378,1,0,0:0:0:0:
448,192,68481,128,0,68584:0:0:0:0:
192,192,68481,1,0,0:0:0:0:
320,192,68584,1,0,0:0:0:0:
64,192,68688,1,0,0:0:0:0:
192,192,68791,1,0,0:0:0:0:
320,192,68895,1,0,0:0:0:0:
448,192,68895,128,0,68998:0:0:0:0:
192,192,68998,1,0,0:0:0:0:
448,192,69102,1,0,0:0:0:0:
192,192,69205,1,0,0:0:0:0:
192,192,69309,128,0,69412:0:0:0:0:
448,192,69309,1,0,0:0:0:0:
64,192,69412,1,0,0:0:0:0:
320,192,69515,1,0,0:0:0:0:
192,192,69619,1,0,0:0:0:0:
448,192,69723,1,0,0:0:0:0:
320,192,69723,1,0,0:0:0:0:
192,192,69826,1,0,0:0:0:0:
64,192,69930,1,0,0:0:0:0:
448,192,70033,1,0,0:0:0:0:
448,192,70137,1,0,0:0:0:0:
320,192,70137,1,0,0:0:0:0:
192,192,70240,1,0,0:0:0:0:
320,192,70343,1,0,0:0:0:0:
64,192,70447,1,0,0:0:0:0:
448,192,70550,1,0,0:0:0:0:
320,192,70550,1,0,0:0:0:0:
192,192,70654,1,0,0:0:0:0:
448,192,70757,1,0,0:0:0:0:
64,192,70861,1,0,0:0:0:0:
448,192,70964,1,0,0:0:0:0:
320,192,70964,1,0,0:0:0:0:
192,192,71068,1,0,0:0:0:0:
448,192,71171,1,0,0:0:0:0:
320,192,71274,1,0,0:0:0:0:
64,192,71378,1,0,0:0:0:0:
192,192,71378,1,0,0:0:0:0:
448,192,71481,1,0,0:0:0:0:
320,192,71585,1,0,0:0:0:0:
192,192,71688,1,0,0:0:0:0:
192,192,71792,1,0,0:0:0:0:
64,192,71792,1,0,0:0:0:0:
64,192,71895,1,0,0:0:0:0:
320,192,71999,1,0,0:0:0:0:
448,192,72102,1,0,0:0:0:0:
192,192,72206,1,0,0:0:0:0:
64,192,72206,1,0,0:0:0:0:
448,192,72309,1,0,0:0:0:0:
320,192,72412,1,0,0:0:0:0:
192,192,72516,1,0,0:0:0:0:
192,192,72619,1,0,0:0:0:0:
64,192,72619,1,0,0:0:0:0:
320,192,72723,1,0,0:0:0:0:
64,192,72826,1,0,0:0:0:0:
448,192,72878,1,0,0:0:0:0:
192,192,72929,1,0,0:0:0:0:
320,192,72981,1,0,0:0:0:0:
448,192,73033,1,0,0:0:0:0:
64,192,73033,1,0,0:0:0:0:
320,192,73033,128,0,74688:0:0:0:0:
192,192,73861,1,0,0:0:0:0:
448,192,73861,1,0,0:0:0:0:
192,192,73964,1,0,0:0:0:0:
448,192,73964,1,0,0:0:0:0:
192,192,74068,1,0,0:0:0:0:
448,192,74068,1,0,0:0:0:0:
64,192,74274,1,0,0:0:0:0:
192,192,74274,1,0,0:0:0:0:
192,192,74378,1,0,0:0:0:0:
64,192,74378,1,0,0:0:0:0:
192,192,74481,1,0,0:0:0:0:
64,192,74481,1,0,0:0:0:0:
64,192,74688,128,0,76343:0:0:0:0:
448,192,74688,1,0,0:0:0:0:
192,192,74688,1,0,0:0:0:0:
448,192,75515,1,0,0:0:0:0:
320,192,75516,1,0,0:0:0:0:
320,192,75619,1,0,0:0:0:0:
448,192,75619,1,0,0:0:0:0:
448,192,75722,1,0,0:0:0:0:
320,192,75723,1,0,0:0:0:0:
192,192,75929,1,0,0:0:0:0:
320,192,75930,1,0,0:0:0:0:
192,192,76033,1,0,0:0:0:0:
320,192,76033,1,0,0:0:0:0:
192,192,76136,1,0,0:0:0:0:
320,192,76137,1,0,0:0:0:0:
448,192,76343,128,0,78826:0:0:0:0:
320,192,76343,1,0,0:0:0:0:
192,192,76343,1,0,0:0:0:0:
192,192,77171,1,0,0:0:0:0:
320,192,77171,1,0,0:0:0:0:
320,192,77274,1,0,0:0:0:0:
192,192,77274,1,0,0:0:0:0:
192,192,77378,1,0,0:0:0:0:
64,192,77378,1,0,0:0:0:0:
192,192,77481,1,0,0:0:0:0:
64,192,77481,1,0,0:0:0:0:
64,192,77999,128,0,78206:0:0:0:0:
192,192,78412,128,0,78516:0:0:0:0:
64,192,78619,128,0,78723:0:0:0:0:
64,192,78826,1,0,0:0:0:0:
192,192,78878,1,0,0:0:0:0:
320,192,78929,1,0,0:0:0:0:
448,192,78981,1,0,0:0:0:0:
64,192,79033,1,0,0:0:0:0:
192,192,79085,1,0,0:0:0:0:
320,192,79136,1,0,0:0:0:0:
448,192,79188,1,0,0:0:0:0:
192,192,79240,1,0,0:0:0:0:
320,192,79292,1,0,0:0:0:0:
448,192,79343,1,0,0:0:0:0:
320,192,79395,1,0,0:0:0:0:
64,192,79446,1,0,0:0:0:0:
192,192,79498,1,0,0:0:0:0:
320,192,79550,1,0,0:0:0:0:
448,192,79602,1,0,0:0:0:0:
320,192,79653,1,0,0:0:0:0:
192,192,79654,128,0,81309:0:0:0:0:
64,192,79654,1,0,0:0:0:0:
64,192,80481,1,0,0:0:0:0:
320,192,80481,1,0,0:0:0:0:
64,192,80584,1,0,0:0:0:0:
320,192,80584,1,0,0:0:0:0:
320,192,80688,1,0,0:0:0:0:
64,192,80688,1,0,0:0:0:0:
448,192,80895,1,0,0:0:0:0:
320,192,80895,1,0,0:0:0:0:
320,192,80999,1,0,0:0:0:0:
448,192,80999,1,0,0:0:0:0:
320,192,81102,1,0,0:0:0:0:
448,192,81102,1,0,0:0:0:0:
320,192,81309,128,0,82964:0:0:0:0:
64,192,81309,1,0,0:0:0:0:
448,192,81309,1,0,0:0:0:0:
448,192,82137,1,0,0:0:0:0:
192,192,82137,1,0,0:0:0:0:
192,192,82240,1,0,0:0:0:0:
448,192,82240,1,0,0:0:0:0:
192,192,82343,1,0,0:0:0:0:
448,192,82343,1,0,0:0:0:0:
64,192,82550,1,0,0:0:0:0:
192,192,82550,1,0,0:0:0:0:
192,192,82654,1,0,0:0:0:0:
64,192,82654,1,0,0:0:0:0:
192,192,82757,1,0,0:0:0:0:
64,192,82757,1,0,0:0:0:0:
64,192,82964,128,0,85861:0:0:0:0:
448,192,82964,1,0,0:0:0:0:
192,192,82964,1,0,0:0:0:0:
320,192,83791,1,0,0:0:0:0:
192,192,83792,1,0,0:0:0:0:
320,192,83895,1,0,0:0:0:0:
192,192,83895,1,0,0:0:0:0:
192,192,83998,1,0,0:0:0:0:
320,192,83998,1,0,0:0:0:0:
320,192,84205,1,0,0:0:0:0:
192,192,84205,1,0,0:0:0:0:
448,192,84619,128,0,85861:0:0:0:0:
320,192,85033,128,0,85861:0:0:0:0:
192,192,85447,128,0,85861:0:0:0:0:
448,192,85912,1,0,0:0:0:0:
320,192,85964,1,0,0:0:0:0:
192,192,86015,1,0,0:0:0:0:
64,192,86068,1,0,0:0:0:0:
448,192,86119,1,0,0:0:0:0:
320,192,86171,1,0,0:0:0:0:
192,192,86222,1,0,0:0:0:0:
64,192,86274,1,0,0:0:0:0:
320,192,86274,1,0,0:0:0:0:
192,192,86378,1,0,0:0:0:0:
320,192,86481,1,0,0:0:0:0:
192,192,86585,1,0,0:0:0:0:
64,192,86688,1,0,0:0:0:0:
320,192,86688,1,0,0:0:0:0:
448,192,86792,1,0,0:0:0:0:
320,192,86895,1,0,0:0:0:0:
192,192,86999,1,0,0:0:0:0:
448,192,87102,1,0,0:0:0:0:
192,192,87102,1,0,0:0:0:0:
64,192,87206,1,0,0:0:0:0:
448,192,87309,1,0,0:0:0:0:
64,192,87412,1,0,0:0:0:0:
448,192,87516,1,0,0:0:0:0:
192,192,87516,1,0,0:0:0:0:
320,192,87619,1,0,0:0:0:0:
64,192,87723,1,0,0:0:0:0:
448,192,87826,1,0,0:0:0:0:
64,192,87930,1,0,0:0:0:0:
192,192,87930,1,0,0:0:0:0:
320,192,88033,1,0,0:0:0:0:
448,192,88137,1,0,0:0:0:0:
192,192,88240,1,0,0:0:0:0:
192,192,88343,1,0,0:0:0:0:
64,192,88343,1,0,0:0:0:0:
448,192,88447,1,0,0:0:0:0:
192,192,88550,1,0,0:0:0:0:
64,192,88654,1,0,0:0:0:0:
320,192,88757,1,0,0:0:0:0:
448,192,88757,1,0,0:0:0:0:
320,192,88861,1,0,0:0:0:0:
192,192,88964,1,0,0:0:0:0:
64,192,89068,1,0,0:0:0:0:
448,192,89171,1,0,0:0:0:0:
320,192,89171,1,0,0:0:0:0:
64,192,89274,1,0,0:0:0:0:
192,192,89378,1,0,0:0:0:0:
448,192,89481,1,0,0:0:0:0:
192,192,89585,1,0,0:0:0:0:
320,192,89585,1,0,0:0:0:0:
64,192,89688,1,0,0:0:0:0:
320,192,89792,1,0,0:0:0:0:
64,192,89895,1,0,0:0:0:0:
320,192,89999,1,0,0:0:0:0:
192,192,89999,1,0,0:0:0:0:
448,192,90102,1,0,0:0:0:0:
192,192,90206,1,0,0:0:0:0:
320,192,90309,1,0,0:0:0:0:
64,192,90412,1,0,0:0:0:0:
448,192,90412,1,0,0:0:0:0:
64,192,90516,1,0,0:0:0:0:
448,192,90619,1,0,0:0:0:0:
320,192,90722,1,0,0:0:0:0:
448,192,90826,1,0,0:0:0:0:
64,192,90826,1,0,0:0:0:0:
192,192,90930,1,0,0:0:0:0:
320,192,91033,1,0,0:0:0:0:
64,192,91137,1,0,0:0:0:0:
64,192,91240,1,0,0:0:0:0:
448,192,91240,1,0,0:0:0:0:
192,192,91343,1,0,0:0:0:0:
448,192,91447,1,0,0:0:0:0:
64,192,91550,1,0,0:0:0:0:
448,192,91654,1,0,0:0:0:0:
64,192,91654,1,0,0:0:0:0:
448,192,91757,1,0,0:0:0:0:
64,192,91861,1,0,0:0:0:0:
448,192,91964,1,0,0:0:0:0:
64,192,92068,1,0,0:0:0:0:
448,192,92068,1,0,0:0:0:0:
320,192,92171,1,0,0:0:0:0:
192,192,92274,1,0,0:0:0:0:
320,192,92378,1,0,0:0:0:0:
448,192,92481,1,0,0:0:0:0:
64,192,92481,1,0,0:0:0:0:
192,192,92585,1,0,0:0:0:0:
320,192,92688,1,0,0:0:0:0:
192,192,92792,1,0,0:0:0:0:
64,192,92895,1,0,0:0:0:0:
320,192,92895,1,0,0:0:0:0:
448,192,92895,1,0,0:0:0:0:
64,192,93102,1,0,0:0:0:0:
320,192,93102,1,0,0:0:0:0:
448,192,93206,1,0,0:0:0:0:
192,192,93206,1,0,0:0:0:0:
320,192,93309,1,0,0:0:0:0:
64,192,93309,1,0,0:0:0:0:
448,192,93516,1,0,0:0:0:0:
320,192,93516,1,0,0:0:0:0:
192,192,93723,1,0,0:0:0:0:
64,192,93723,1,0,0:0:0:0:
320,192,93930,1,0,0:0:0:0:
448,192,93930,1,0,0:0:0:0:
64,192,94137,128,0,94550:0:0:0:0:
320,192,94137,128,0,94550:0:0:0:0:
448,192,94137,128,0,94550:0:0:0:0:
448,192,94757,1,0,0:0:0:0:
192,192,94757,1,0,0:0:0:0:
320,192,94757,1,0,0:0:0:0:
64,192,94964,1,0,0:0:0:0:
192,192,94964,1,0,0:0:0:0:
320,192,94964,1,0,0:0:0:0:
448,192,95171,1,0,0:0:0:0:
320,192,95171,1,0,0:0:0:0:
320,192,95378,1,0,0:0:0:0:
192,192,95378,1,0,0:0:0:0:
192,192,95585,1,0,0:0:0:0:
64,192,95585,1,0,0:0:0:0:
64,192,95792,128,0,96206:0:0:0:0:
192,192,95792,128,0,96206:0:0:0:0:
448,192,95792,128,0,96206:0:0:0:0:
448,192,96309,1,0,0:0:0:0:
320,192,96412,1,0,0:0:0:0:
64,192,96516,1,0,0:0:0:0:
448,192,96619,1,0,0:0:0:0:
320,192,96723,1,0,0:0:0:0:
192,192,96826,1,0,0:0:0:0:
320,192,96930,1,0,0:0:0:0:
64,192,97033,1,0,0:0:0:0:
320,192,97137,1,0,0:0:0:0:
192,192,97240,1,0,0:0:0:0:
448,192,97343,1,0,0:0:0:0:
64,192,97447,1,0,0:0:0:0:
320,192,97550,1,0,0:0:0:0:
192,192,97654,1,0,0:0:0:0:
64,192,97757,1,0,0:0:0:0:
64,192,97861,1,0,0:0:0:0:
448,192,97964,1,0,0:0:0:0:
448,192,98068,1,0,0:0:0:0:
320,192,98171,1,0,0:0:0:0:
192,192,98274,1,0,0:0:0:0:
64,192,98378,1,0,0:0:0:0:
192,192,98481,1,0,0:0:0:0:
320,192,98585,1,0,0:0:0:0:
448,192,98688,1,0,0:0:0:0:
320,192,98740,1,0,0:0:0:0:
192,192,98792,1,0,0:0:0:0:
64,192,98843,1,0,0:0:0:0:
192,192,98895,1,0,0:0:0:0:
320,192,98947,1,0,0:0:0:0:
448,192,98999,1,0,0:0:0:0:
320,192,99050,1,0,0:0:0:0:
192,192,99102,1,0,0:0:0:0:
64,192,99154,1,0,0:0:0:0:
192,192,99206,1,0,0:0:0:0:
320,192,99257,1,0,0:0:0:0:
448,192,99309,1,0,0:0:0:0:
320,192,99361,1,0,0:0:0:0:
192,192,99412,1,0,0:0:0:0:
64,192,99464,1,0,0:0:0:0:
320,192,99516,1,0,0:0:0:0:
448,192,99516,1,0,0:0:0:0:
192,192,99619,1,0,0:0:0:0:
448,192,99723,1,0,0:0:0:0:
192,192,99826,1,0,0:0:0:0:
64,192,99930,1,0,0:0:0:0:
320,192,99930,1,0,0:0:0:0:
192,192,100033,1,0,0:0:0:0:
320,192,100137,1,0,0:0:0:0:
64,192,100240,1,0,0:0:0:0:
192,192,100343,1,0,0:0:0:0:
320,192,100343,1,0,0:0:0:0:
320,192,100447,1,0,0:0:0:0:
448,192,100550,1,0,0:0:0:0:
192,192,100654,1,0,0:0:0:0:
320,192,100757,1,0,0:0:0:0:
448,192,100757,1,0,0:0:0:0:
192,192,100861,1,0,0:0:0:0:
320,192,100964,1,0,0:0:0:0:
64,192,101068,1,0,0:0:0:0:
192,192,101171,1,0,0:0:0:0:
448,192,101171,1,0,0:0:0:0:
320,192,101274,1,0,0:0:0:0:
448,192,101378,1,0,0:0:0:0:
320,192,101481,1,0,0:0:0:0:
64,192,101585,1,0,0:0:0:0:
192,192,101585,1,0,0:0:0:0:
192,192,101688,1,0,0:0:0:0:
64,192,101792,1,0,0:0:0:0:
320,192,101895,1,0,0:0:0:0:
192,192,101999,1,0,0:0:0:0:
320,192,101999,1,0,0:0:0:0:
192,192,102102,1,0,0:0:0:0:
320,192,102206,1,0,0:0:0:0:
192,192,102309,1,0,0:0:0:0:
192,192,102412,1,0,0:0:0:0:
448,192,102412,1,0,0:0:0:0:
320,192,102516,1,0,0:0:0:0:
64,192,102619,1,0,0:0:0:0:
192,192,102723,1,0,0:0:0:0:
192,192,102826,1,0,0:0:0:0:
448,192,102826,1,0,0:0:0:0:
448,192,102930,1,0,0:0:0:0:
192,192,103033,1,0,0:0:0:0:
64,192,103137,1,0,0:0:0:0:
192,192,103240,1,0,0:0:0:0:
320,192,103240,1,0,0:0:0:0:
448,192,103343,1,0,0:0:0:0:
320,192,103447,1,0,0:0:0:0:
64,192,103550,1,0,0:0:0:0:
192,192,103654,1,0,0:0:0:0:
320,192,103654,1,0,0:0:0:0:
448,192,103757,1,0,0:0:0:0:
320,192,103861,1,0,0:0:0:0:
192,192,103964,1,0,0:0:0:0:
64,192,104068,1,0,0:0:0:0:
192,192,104068,1,0,0:0:0:0:
192,192,104171,1,0,0:0:0:0:
320,192,104274,1,0,0:0:0:0:
448,192,104378,1,0,0:0:0:0:
192,192,104481,1,0,0:0:0:0:
64,192,104481,1,0,0:0:0:0:
320,192,104585,1,0,0:0:0:0:
192,192,104688,1,0,0:0:0:0:
320,192,104792,1,0,0:0:0:0:
64,192,104895,1,0,0:0:0:0:
448,192,104895,1,0,0:0:0:0:
192,192,104999,1,0,0:0:0:0:
320,192,105102,1,0,0:0:0:0:
64,192,105206,1,0,0:0:0:0:
192,192,105309,1,0,0:0:0:0:
448,192,105309,1,0,0:0:0:0:
448,192,105412,1,0,0:0:0:0:
192,192,105516,1,0,0:0:0:0:
320,192,105619,1,0,0:0:0:0:
64,192,105723,1,0,0:0:0:0:
448,192,105826,1,0,0:0:0:0:
192,192,105930,1,0,0:0:0:0:
320,192,106033,1,0,0:0:0:0:
64,192,106137,1,0,0:0:0:0:
192,192,106137,1,0,0:0:0:0:
320,192,106240,1,0,0:0:0:0:
64,192,106343,1,0,0:0:0:0:
448,192,106447,1,0,0:0:0:0:
192,192,106550,1,0,0:0:0:0:
448,192,106550,1,0,0:0:0:0:
320,192,106654,1,0,0:0:0:0:
320,192,106757,1,0,0:0:0:0:
192,192,106861,1,0,0:0:0:0:
448,192,106964,1,0,0:0:0:0:
320,192,106964,1,0,0:0:0:0:
192,192,107068,1,0,0:0:0:0:
64,192,107171,1,0,0:0:0:0:
320,192,107274,1,0,0:0:0:0:
320,192,107378,1,0,0:0:0:0:
448,192,107378,1,0,0:0:0:0:
192,192,107481,1,0,0:0:0:0:
64,192,107585,1,0,0:0:0:0:
192,192,107688,1,0,0:0:0:0:
192,192,107792,1,0,0:0:0:0:
448,192,107792,1,0,0:0:0:0:
320,192,107895,1,0,0:0:0:0:
64,192,107999,1,0,0:0:0:0:
192,192,108102,1,0,0:0:0:0:
448,192,108206,1,0,0:0:0:0:
320,192,108206,1,0,0:0:0:0:
192,192,108309,1,0,0:0:0:0:
320,192,108412,1,0,0:0:0:0:
192,192,108516,1,0,0:0:0:0:
64,192,108619,1,0,0:0:0:0:
320,192,108619,1,0,0:0:0:0:
192,192,108723,1,0,0:0:0:0:
448,192,108826,1,0,0:0:0:0:
192,192,108930,1,0,0:0:0:0:
448,192,109033,1,0,0:0:0:0:
64,192,109033,1,0,0:0:0:0:
320,192,109137,1,0,0:0:0:0:
192,192,109240,1,0,0:0:0:0:
64,192,109343,1,0,0:0:0:0:
320,192,109447,1,0,0:0:0:0:
64,192,109447,1,0,0:0:0:0:
320,192,109550,1,0,0:0:0:0:
192,192,109654,1,0,0:0:0:0:
64,192,109654,1,0,0:0:0:0:
320,192,109757,1,0,0:0:0:0:
192,192,109861,1,0,0:0:0:0:
64,192,109861,1,0,0:0:0:0:
320,192,109964,1,0,0:0:0:0:
192,192,110068,1,0,0:0:0:0:
64,192,110068,1,0,0:0:0:0:
192,192,110171,1,0,0:0:0:0:
320,192,110274,1,0,0:0:0:0:
448,192,110274,1,0,0:0:0:0:
64,192,110378,1,0,0:0:0:0:
320,192,110481,1,0,0:0:0:0:
448,192,110481,1,0,0:0:0:0:
192,192,110585,1,0,0:0:0:0:
320,192,110688,1,0,0:0:0:0:
448,192,110688,1,0,0:0:0:0:
64,192,110792,1,0,0:0:0:0:
448,192,110895,1,0,0:0:0:0:
320,192,110895,1,0,0:0:0:0:
64,192,110999,1,0,0:0:0:0:
320,192,110999,1,0,0:0:0:0:
64,192,111102,1,0,0:0:0:0:
192,192,111153,1,0,0:0:0:0:
320,192,111205,1,0,0:0:0:0:
448,192,111257,1,0,0:0:0:0:
64,192,111309,1,0,0:0:0:0:
192,192,111360,1,0,0:0:0:0:
320,192,111412,1,0,0:0:0:0:
448,192,111464,1,0,0:0:0:0:
64,192,111515,1,0,0:0:0:0:
192,192,111567,1,0,0:0:0:0:
320,192,111619,1,0,0:0:0:0:
448,192,111671,1,0,0:0:0:0:
64,192,111722,1,0,0:0:0:0:
192,192,111774,1,0,0:0:0:0:
320,192,111826,1,0,0:0:0:0:
448,192,111878,1,0,0:0:0:0:
192,192,111929,1,0,0:0:0:0:
320,192,111981,1,0,0:0:0:0:
448,192,112033,1,0,0:0:0:0:
320,192,112084,1,0,0:0:0:0:
192,192,112136,1,0,0:0:0:0:
64,192,112188,1,0,0:0:0:0:
192,192,112240,1,0,0:0:0:0:
320,192,112291,1,0,0:0:0:0:
448,192,112343,1,0,0:0:0:0:
192,192,112395,1,0,0:0:0:0:
320,192,112446,1,0,0:0:0:0:
192,192,112498,1,0,0:0:0:0:
448,192,112550,1,0,0:0:0:0:
64,192,112602,1,0,0:0:0:0:
192,192,112653,1,0,0:0:0:0:
448,192,112705,1,0,0:0:0:0:
64,192,112757,128,0,114412:0:0:0:0:
320,192,112757,128,0,114412:0:0:0:0:
192,192,112757,1,0,0:0:0:0:
192,192,114412,128,0,116068:0:0:0:0:
448,192,114412,128,0,116068:0:0:0:0:
320,192,116067,1,0,0:0:0:0:
64,192,116068,1,0,0:0:0:0:
192,192,116171,1,0,0:0:0:0:
448,192,116171,1,0,0:0:0:0:
64,192,116274,1,0,0:0:0:0:
320,192,116274,1,0,0:0:0:0:
192,192,116378,1,0,0:0:0:0:
448,192,116378,1,0,0:0:0:0:
64,192,116481,1,0,0:0:0:0:
320,192,116481,1,0,0:0:0:0:
448,192,116584,1,0,0:0:0:0:
192,192,116584,1,0,0:0:0:0:
64,192,116688,1,0,0:0:0:0:
320,192,116688,1,0,0:0:0:0:
192,192,116791,1,0,0:0:0:0:
448,192,116791,1,0,0:0:0:0:
64,192,116895,1,0,0:0:0:0:
192,192,116946,1,0,0:0:0:0:
320,192,116998,1,0,0:0:0:0:
448,192,117050,1,0,0:0:0:0:
320,192,117102,1,0,0:0:0:0:
192,192,117153,1,0,0:0:0:0:
64,192,117205,1,0,0:0:0:0:
192,192,117257,1,0,0:0:0:0:
320,192,117309,1,0,0:0:0:0:
448,192,117360,1,0,0:0:0:0:
320,192,117412,1,0,0:0:0:0:
192,192,117464,1,0,0:0:0:0:
64,192,117515,1,0,0:0:0:0:
192,192,117567,1,0,0:0:0:0:
320,192,117619,1,0,0:0:0:0:
448,192,117671,1,0,0:0:0:0:
192,192,117722,128,0,118550:0:0:0:0:
320,192,117722,128,0,118550:0:0:0:0:
64,192,117722,128,0,118550:0:0:0:0:
