osu file format v14

[General]
AudioFilename: Super_Fantasy_-_SHK___HQ_Audio,_PIU_2015_PRIME.mp3
AudioLeadIn: 0
PreviewTime: -1
Countdown: 1
SampleSet: Soft
StackLeniency: 0.7
Mode: 3
LetterboxInBreaks: 1
SpecialStyle: 1
WidescreenStoryboard: 1

[Editor]
DistanceSpacing: 0.9
BeatDivisor: 4
GridSize: 8
TimelineZoom: 1.4

[Metadata]
Title:Super fantasy
TitleUnicode:Super fantasy
Artist:SHK
ArtistUnicode:SHK
Creator:kelvinkakashi
Version:beginner
Source:pump it up
Tags:
BeatmapID:695687
BeatmapSetID:306503

[Difficulty]
HPDrainRate:5
CircleSize:4
OverallDifficulty:5
ApproachRate:5
SliderMultiplier:1.4
SliderTickRate:1

[Events]
//Background and Video events
0,0,"SHK-Super-Fantasy-Pump-It-Up-Prime-Teaser-Preview.jpg",0,0
//Break Periods
//Storyboard Layer 0 (Background)
//Storyboard Layer 1 (Fail)
//Storyboard Layer 2 (Pass)
//Storyboard Layer 3 (Foreground)
//Storyboard Sound Samples

[TimingPoints]
206,413.793103448276,4,2,0,5,1,0
206,-200,4,2,0,5,0,0
6826,-133.333333333333,4,2,0,5,0,0
11792,-100,4,2,0,5,0,0
21309,-1000,4,2,0,5,0,0
21619,-100,4,2,0,5,0,0
22964,-1000,4,2,0,5,0,0
23274,-100,4,2,0,5,0,0
26688,-133.333333333333,4,2,0,5,0,0
29585,-66.6666666666667,4,2,0,5,0,0
29999,-133.333333333333,4,2,0,5,0,0
32895,-66.6666666666667,4,2,0,5,0,0
33309,-133.333333333333,4,2,0,5,0,0
36206,-66.6666666666667,4,2,0,5,0,0
36619,-133.333333333333,4,2,0,5,0,0
39516,-66.6666666666667,4,2,0,5,0,0
39930,-83.3333333333333,4,2,0,5,0,0
46137,-66.6666666666667,4,2,0,5,0,0
46550,-100,4,2,0,5,0,0
59792,-250,4,2,0,5,0,0
73033,-76.9230769230769,4,2,0,5,0,0
73861,-133.333333333333,4,2,0,5,0,0
74688,-76.9230769230769,4,2,0,5,0,0
75516,-133.333333333333,4,2,0,5,0,0
76343,-76.9230769230769,4,2,0,5,0,0
77171,-133.333333333333,4,2,0,5,0,0
77585,-76.9230769230769,4,2,0,5,0,0
80481,-133.333333333333,4,2,0,5,0,0
81309,-76.9230769230769,4,2,0,5,0,0
82137,-133.333333333333,4,2,0,5,0,0
82998,-76.9230769230769,4,2,0,5,0,0
83792,-133.333333333333,4,2,0,5,0,0
84206,-76.9230769230769,4,2,0,5,0,0
85861,-66.6666666666667,4,2,0,5,0,0
86274,-100,4,2,0,5,0,0
92895,-133.333333333333,4,2,0,5,0,0
94137,-1000,4,2,0,5,0,0
94447,-133.333333333333,4,2,0,5,0,0
95792,-1000,4,2,0,5,0,0
96102,-133.333333333333,4,2,0,5,0,0
99516,-100,4,2,0,5,0,0
117930,-133.333333333333,4,2,0,5,0,0

[HitObjects]
64,192,206,128,0,1861:0:0:0:0:
448,192,1861,128,0,3516:0:0:0:0:
192,192,3516,128,0,5171:0:0:0:0:
64,192,5171,128,0,6826:0:0:0:0:
448,192,6826,1,0,0:0:0:0:
448,192,7654,1,0,0:0:0:0:
64,192,8481,1,0,0:0:0:0:
64,192,9309,1,0,0:0:0:0:
320,192,10137,1,0,0:0:0:0:
192,192,10964,1,0,0:0:0:0:
192,192,11378,1,0,0:0:0:0:
64,192,11792,128,0,13447:0:0:0:0:
448,192,11792,128,0,13447:0:0:0:0:
448,192,13654,1,0,0:0:0:0:
192,192,13861,1,0,0:0:0:0:
320,192,14068,1,0,0:0:0:0:
192,192,14274,1,0,0:0:0:0:
192,192,14481,1,0,0:0:0:0:
64,192,14688,1,0,0:0:0:0:
448,192,14895,1,0,0:0:0:0:
192,192,15102,1,0,0:0:0:0:
64,192,15309,1,0,0:0:0:0:
448,192,15516,1,0,0:0:0:0:
64,192,15723,1,0,0:0:0:0:
192,192,15930,1,0,0:0:0:0:
320,192,16137,1,0,0:0:0:0:
192,192,16343,1,0,0:0:0:0:
320,192,16550,1,0,0:0:0:0:
448,192,16757,1,0,0:0:0:0:
192,192,16964,1,0,0:0:0:0:
320,192,17171,1,0,0:0:0:0:
64,192,17378,1,0,0:0:0:0:
448,192,17585,1,0,0:0:0:0:
192,192,17792,1,0,0:0:0:0:
320,192,17999,1,0,0:0:0:0:
64,192,18206,1,0,0:0:0:0:
448,192,18412,1,0,0:0:0:0:
192,192,18619,1,0,0:0:0:0:
448,192,18826,1,0,0:0:0:0:
64,192,19033,1,0,0:0:0:0:
320,192,19240,1,0,0:0:0:0:
64,192,19447,1,0,0:0:0:0:
448,192,19654,1,0,0:0:0:0:
320,192,19861,1,0,0:0:0:0:
64,192,20068,1,0,0:0:0:0:
192,192,20274,1,0,0:0:0:0:
320,192,20481,1,0,0:0:0:0:
448,192,20688,1,0,0:0:0:0:
192,192,20895,1,0,0:0:0:0:
320,192,21102,1,0,0:0:0:0:
192,192,21309,1,0,0:0:0:0:
64,192,21309,1,0,0:0:0:0:
64,192,21723,1,0,0:0:0:0:
192,192,21723,1,0,0:0:0:0:
320,192,21930,1,0,0:0:0:0:
448,192,22137,1,0,0:0:0:0:
64,192,22343,1,0,0:0:0:0:
448,192,22550,1,0,0:0:0:0:
192,192,22757,1,0,0:0:0:0:
192,192,22964,1,0,0:0:0:0:
320,192,22964,1,0,0:0:0:0:
192,192,23378,1,0,0:0:0:0:
320,192,23378,1,0,0:0:0:0:
448,192,23585,1,0,0:0:0:0:
448,192,23792,1,0,0:0:0:0:
320,192,23999,1,0,0:0:0:0:
192,192,24206,1,0,0:0:0:0:
320,192,24412,1,0,0:0:0:0:
192,192,24619,1,0,0:0:0:0:
64,192,24826,1,0,0:0:0:0:
64,192,25033,1,0,0:0:0:0:
192,192,25033,1,0,0:0:0:0:
320,192,25447,1,0,0:0:0:0:
448,192,25447,1,0,0:0:0:0:
64,192,25861,1,0,0:0:0:0:
192,192,25861,1,0,0:0:0:0:
320,192,26274,1,0,0:0:0:0:
448,192,26274,1,0,0:0:0:0:
448,192,26688,128,0,27102:0:0:0:0:
320,192,27102,128,0,27516:0:0:0:0:
64,192,27516,128,0,27930:0:0:0:0:
320,192,27930,128,0,28343:0:0:0:0:
192,192,28343,128,0,28757:0:0:0:0:
320,192,28757,128,0,29171:0:0:0:0:
64,192,29171,128,0,29585:0:0:0:0:
320,192,29585,128,0,29999:0:0:0:0:
448,192,29585,128,0,29999:0:0:0:0:
192,192,29999,128,0,30361:0:0:0:0:
64,192,30412,128,0,30826:0:0:0:0:
448,192,30826,128,0,31188:0:0:0:0:
320,192,31240,128,0,31654:0:0:0:0:
64,192,31654,128,0,32016:0:0:0:0:
192,192,32068,128,0,32481:0:0:0:0:
448,192,32481,128,0,32895:0:0:0:0:
192,192,32895,128,0,33309:0:0:0:0:
320,192,32895,128,0,33309:0:0:0:0:
448,192,33309,128,0,33671:0:0:0:0:
192,192,33723,128,0,34137:0:0:0:0:
64,192,34137,128,0,34550:0:0:0:0:
448,192,34550,128,0,34964:0:0:0:0:
192,192,34964,128,0,35378:0:0:0:0:
320,192,35378,128,0,35792:0:0:0:0:
192,192,35792,128,0,36206:0:0:0:0:
448,192,36206,128,0,36619:0:0:0:0:
64,192,36206,128,0,36619:0:0:0:0:
320,192,36619,128,0,36981:0:0:0:0:
448,192,37033,128,0,37447:0:0:0:0:
64,192,37447,128,0,37861:0:0:0:0:
448,192,37861,128,0,38274:0:0:0:0:
320,192,38274,128,0,38688:0:0:0:0:
192,192,38688,128,0,39102:0:0:0:0:
448,192,39102,128,0,39516:0:0:0:0:
64,192,39516,128,0,39930:0:0:0:0:
192,192,39516,128,0,39930:0:0:0:0:
448,192,40137,1,0,0:0:0:0:
64,192,40343,1,0,0:0:0:0:
448,192,40550,1,0,0:0:0:0:
64,192,40757,1,0,0:0:0:0:
448,192,40964,1,0,0:0:0:0:
64,192,41171,1,0,0:0:0:0:
448,192,41378,1,0,0:0:0:0:
64,192,41585,1,0,0:0:0:0:
448,192,41792,1,0,0:0:0:0:
64,192,41999,1,0,0:0:0:0:
448,192,42206,1,0,0:0:0:0:
64,192,42412,1,0,0:0:0:0:
448,192,42619,1,0,0:0:0:0:
64,192,42826,1,0,0:0:0:0:
448,192,43033,1,0,0:0:0:0:
192,192,43240,1,0,0:0:0:0:
320,192,43447,1,0,0:0:0:0:
192,192,43654,1,0,0:0:0:0:
320,192,43861,1,0,0:0:0:0:
192,192,44068,1,0,0:0:0:0:
320,192,44274,1,0,0:0:0:0:
192,192,44481,1,0,0:0:0:0:
320,192,44688,1,0,0:0:0:0:
192,192,44895,1,0,0:0:0:0:
320,192,45102,1,0,0:0:0:0:
192,192,45309,1,0,0:0:0:0:
320,192,45516,1,0,0:0:0:0:
192,192,45723,1,0,0:0:0:0:
320,192,45930,1,0,0:0:0:0:
64,192,46137,128,0,46550:0:0:0:0:
448,192,46137,128,0,46550:0:0:0:0:
320,192,46757,1,0,0:0:0:0:
64,192,46964,1,0,0:0:0:0:
320,192,47171,1,0,0:0:0:0:
64,192,47378,1,0,0:0:0:0:
448,192,47585,1,0,0:0:0:0:
64,192,47792,1,0,0:0:0:0:
320,192,47999,1,0,0:0:0:0:
192,192,48206,1,0,0:0:0:0:
448,192,48412,1,0,0:0:0:0:
192,192,48619,1,0,0:0:0:0:
448,192,48826,1,0,0:0:0:0:
64,192,49033,1,0,0:0:0:0:
448,192,49240,1,0,0:0:0:0:
192,192,49447,1,0,0:0:0:0:
448,192,49654,1,0,0:0:0:0:
448,192,49861,1,0,0:0:0:0:
320,192,50068,1,0,0:0:0:0:
192,192,50274,1,0,0:0:0:0:
64,192,50481,1,0,0:0:0:0:
64,192,50688,1,0,0:0:0:0:
320,192,50895,1,0,0:0:0:0:
192,192,51102,1,0,0:0:0:0:
448,192,51309,1,0,0:0:0:0:
320,192,51516,1,0,0:0:0:0:
64,192,51723,1,0,0:0:0:0:
448,192,51930,1,0,0:0:0:0:
192,192,52137,1,0,0:0:0:0:
320,192,52343,1,0,0:0:0:0:
64,192,52550,1,0,0:0:0:0:
448,192,52757,1,0,0:0:0:0:
192,192,52964,1,0,0:0:0:0:
448,192,53171,1,0,0:0:0:0:
192,192,53378,1,0,0:0:0:0:
64,192,53585,1,0,0:0:0:0:
320,192,53792,1,0,0:0:0:0:
192,192,53999,1,0,0:0:0:0:
448,192,54206,1,0,0:0:0:0:
192,192,54412,1,0,0:0:0:0:
448,192,54619,1,0,0:0:0:0:
64,192,54826,1,0,0:0:0:0:
192,192,55033,1,0,0:0:0:0:
448,192,55240,1,0,0:0:0:0:
320,192,55447,1,0,0:0:0:0:
64,192,55654,1,0,0:0:0:0:
448,192,55861,1,0,0:0:0:0:
320,192,56068,1,0,0:0:0:0:
448,192,56274,1,0,0:0:0:0:
64,192,56481,1,0,0:0:0:0:
320,192,56688,1,0,0:0:0:0:
192,192,56895,1,0,0:0:0:0:
64,192,57102,1,0,0:0:0:0:
192,192,57309,1,0,0:0:0:0:
448,192,57516,1,0,0:0:0:0:
320,192,57723,1,0,0:0:0:0:
192,192,57930,1,0,0:0:0:0:
64,192,58137,1,0,0:0:0:0:
448,192,58137,1,0,0:0:0:0:
192,192,58343,1,0,0:0:0:0:
64,192,58550,1,0,0:0:0:0:
448,192,58550,1,0,0:0:0:0:
320,192,58757,1,0,0:0:0:0:
64,192,58964,1,0,0:0:0:0:
448,192,58964,1,0,0:0:0:0:
192,192,59171,1,0,0:0:0:0:
64,192,59378,1,0,0:0:0:0:
448,192,59378,1,0,0:0:0:0:
320,192,59585,1,0,0:0:0:0:
64,192,59792,128,0,59999:0:0:0:0:
192,192,59792,128,0,59999:0:0:0:0:
320,192,60206,128,0,60412:0:0:0:0:
448,192,60206,128,0,60412:0:0:0:0:
64,192,60619,128,0,60826:0:0:0:0:
192,192,60619,128,0,60826:0:0:0:0:
320,192,61033,128,0,61240:0:0:0:0:
448,192,61033,128,0,61240:0:0:0:0:
64,192,61447,128,0,61654:0:0:0:0:
320,192,61447,128,0,61654:0:0:0:0:
192,192,61861,128,0,62068:0:0:0:0:
448,192,61861,128,0,62068:0:0:0:0:
64,192,62274,128,0,62481:0:0:0:0:
320,192,62274,128,0,62481:0:0:0:0:
192,192,62688,128,0,62895:0:0:0:0:
448,192,62688,128,0,62895:0:0:0:0:
64,192,63102,128,0,63309:0:0:0:0:
192,192,63102,128,0,63309:0:0:0:0:
64,192,63516,128,0,63723:0:0:0:0:
320,192,63516,128,0,63723:0:0:0:0:
64,192,63930,128,0,64137:0:0:0:0:
448,192,63930,128,0,64137:0:0:0:0:
64,192,64343,128,0,64550:0:0:0:0:
448,192,64343,128,0,64550:0:0:0:0:
448,192,64757,128,0,64964:0:0:0:0:
320,192,64757,128,0,64964:0:0:0:0:
448,192,65171,128,0,65378:0:0:0:0:
192,192,65171,128,0,65378:0:0:0:0:
448,192,65585,128,0,65792:0:0:0:0:
64,192,65585,128,0,65792:0:0:0:0:
64,192,65999,128,0,66206:0:0:0:0:
448,192,65999,128,0,66206:0:0:0:0:
64,192,66412,128,0,66619:0:0:0:0:
320,192,66412,128,0,66619:0:0:0:0:
64,192,66826,128,0,67033:0:0:0:0:
448,192,66826,128,0,67033:0:0:0:0:
448,192,67240,128,0,67447:0:0:0:0:
192,192,67240,128,0,67447:0:0:0:0:
448,192,67654,128,0,67861:0:0:0:0:
64,192,67654,128,0,67861:0:0:0:0:
192,192,68068,128,0,68274:0:0:0:0:
448,192,68068,128,0,68274:0:0:0:0:
192,192,68481,128,0,68688:0:0:0:0:
320,192,68481,128,0,68688:0:0:0:0:
320,192,68895,128,0,69102:0:0:0:0:
64,192,68895,128,0,69102:0:0:0:0:
192,192,69309,128,0,69516:0:0:0:0:
320,192,69309,128,0,69516:0:0:0:0:
448,192,69723,128,0,69930:0:0:0:0:
192,192,69723,128,0,69930:0:0:0:0:
64,192,70137,128,0,70343:0:0:0:0:
320,192,70137,128,0,70343:0:0:0:0:
64,192,70550,128,0,70757:0:0:0:0:
320,192,70550,128,0,70757:0:0:0:0:
192,192,70964,128,0,71171:0:0:0:0:
448,192,70964,128,0,71171:0:0:0:0:
192,192,71378,128,0,71585:0:0:0:0:
448,192,71378,128,0,71585:0:0:0:0:
320,192,71585,1,0,0:0:0:0:
64,192,71792,128,0,71999:0:0:0:0:
320,192,71792,128,0,71999:0:0:0:0:
192,192,71999,1,0,0:0:0:0:
64,192,72206,128,0,72412:0:0:0:0:
320,192,72206,128,0,72412:0:0:0:0:
192,192,72412,1,0,0:0:0:0:
192,192,72619,128,0,72826:0:0:0:0:
448,192,72619,128,0,72826:0:0:0:0:
320,192,72826,1,0,0:0:0:0:
64,192,73033,128,0,73861:0:0:0:0:
448,192,73033,128,0,73861:0:0:0:0:
320,192,73861,1,0,0:0:0:0:
64,192,73964,1,0,0:0:0:0:
320,192,74068,1,0,0:0:0:0:
192,192,74274,1,0,0:0:0:0:
448,192,74378,1,0,0:0:0:0:
192,192,74481,1,0,0:0:0:0:
192,192,74688,128,0,75516:0:0:0:0:
320,192,74688,128,0,75516:0:0:0:0:
448,192,75516,1,0,0:0:0:0:
64,192,75619,1,0,0:0:0:0:
448,192,75723,1,0,0:0:0:0:
64,192,75930,1,0,0:0:0:0:
448,192,76033,1,0,0:0:0:0:
64,192,76137,1,0,0:0:0:0:
64,192,76343,128,0,77171:0:0:0:0:
320,192,76343,128,0,77171:0:0:0:0:
192,192,77171,1,0,0:0:0:0:
448,192,77274,1,0,0:0:0:0:
192,192,77378,1,0,0:0:0:0:
64,192,77585,128,0,79654:0:0:0:0:
192,192,78206,128,0,78309:0:0:0:0:
320,192,78412,128,0,78516:0:0:0:0:
192,192,78619,128,0,78723:0:0:0:0:
448,192,78930,128,0,79240:0:0:0:0:
192,192,79240,128,0,79654:0:0:0:0:
320,192,79654,128,0,80481:0:0:0:0:
448,192,79654,128,0,80481:0:0:0:0:
192,192,80481,1,0,0:0:0:0:
64,192,80585,1,0,0:0:0:0:
192,192,80688,1,0,0:0:0:0:
320,192,80895,1,0,0:0:0:0:
448,192,80999,1,0,0:0:0:0:
320,192,81102,1,0,0:0:0:0:
192,192,81309,128,0,82137:0:0:0:0:
448,192,81309,128,0,82137:0:0:0:0:
320,192,82137,1,0,0:0:0:0:
448,192,82240,1,0,0:0:0:0:
320,192,82343,1,0,0:0:0:0:
192,192,82550,1,0,0:0:0:0:
64,192,82654,1,0,0:0:0:0:
192,192,82757,1,0,0:0:0:0:
64,192,82964,128,0,83792:0:0:0:0:
192,192,82964,128,0,83792:0:0:0:0:
320,192,83792,1,0,0:0:0:0:
448,192,83895,1,0,0:0:0:0:
320,192,83999,1,0,0:0:0:0:
192,192,84206,128,0,86274:0:0:0:0:
448,192,84619,128,0,85033:0:0:0:0:
320,192,85033,128,0,85447:0:0:0:0:
64,192,85447,128,0,85861:0:0:0:0:
320,192,85861,128,0,86274:0:0:0:0:
64,192,86274,1,0,0:0:0:0:
448,192,86274,1,0,0:0:0:0:
192,192,86481,1,0,0:0:0:0:
192,192,86688,1,0,0:0:0:0:
448,192,86688,1,0,0:0:0:0:
64,192,86895,1,0,0:0:0:0:
192,192,87102,1,0,0:0:0:0:
448,192,87309,1,0,0:0:0:0:
64,192,87516,1,0,0:0:0:0:
448,192,87516,1,0,0:0:0:0:
192,192,87723,1,0,0:0:0:0:
320,192,87930,1,0,0:0:0:0:
64,192,87930,1,0,0:0:0:0:
192,192,88137,1,0,0:0:0:0:
64,192,88343,1,0,0:0:0:0:
320,192,88343,1,0,0:0:0:0:
448,192,88550,1,0,0:0:0:0:
192,192,88757,1,0,0:0:0:0:
320,192,88757,1,0,0:0:0:0:
320,192,88964,1,0,0:0:0:0:
64,192,89171,1,0,0:0:0:0:
448,192,89171,1,0,0:0:0:0:
448,192,89378,1,0,0:0:0:0:
64,192,89585,1,0,0:0:0:0:
192,192,89585,1,0,0:0:0:0:
448,192,89792,1,0,0:0:0:0:
320,192,89999,1,0,0:0:0:0:
192,192,89999,1,0,0:0:0:0:
448,192,90206,1,0,0:0:0:0:
64,192,90412,1,0,0:0:0:0:
192,192,90412,1,0,0:0:0:0:
192,192,90619,1,0,0:0:0:0:
64,192,90826,1,0,0:0:0:0:
192,192,90826,1,0,0:0:0:0:
64,192,91033,1,0,0:0:0:0:
448,192,91240,1,0,0:0:0:0:
320,192,91240,1,0,0:0:0:0:
192,192,91447,1,0,0:0:0:0:
64,192,91654,1,0,0:0:0:0:
192,192,91654,1,0,0:0:0:0:
448,192,91861,1,0,0:0:0:0:
64,192,92068,1,0,0:0:0:0:
192,192,92068,1,0,0:0:0:0:
448,192,92274,1,0,0:0:0:0:
320,192,92481,1,0,0:0:0:0:
192,192,92481,1,0,0:0:0:0:
64,192,92688,1,0,0:0:0:0:
320,192,92895,1,0,0:0:0:0:
64,192,92895,1,0,0:0:0:0:
448,192,93102,1,0,0:0:0:0:
320,192,93206,1,0,0:0:0:0:
448,192,93309,1,0,0:0:0:0:
320,192,93516,1,0,0:0:0:0:
64,192,93723,1,0,0:0:0:0:
448,192,93930,1,0,0:0:0:0:
64,192,94137,1,0,0:0:0:0:
192,192,94137,1,0,0:0:0:0:
64,192,94550,1,0,0:0:0:0:
192,192,94550,1,0,0:0:0:0:
64,192,94757,1,0,0:0:0:0:
192,192,94757,1,0,0:0:0:0:
448,192,94964,1,0,0:0:0:0:
192,192,95171,1,0,0:0:0:0:
448,192,95378,1,0,0:0:0:0:
64,192,95585,1,0,0:0:0:0:
448,192,95792,1,0,0:0:0:0:
192,192,95792,1,0,0:0:0:0:
192,192,96206,1,0,0:0:0:0:
448,192,96206,1,0,0:0:0:0:
320,192,96412,1,0,0:0:0:0:
64,192,96619,1,0,0:0:0:0:
192,192,96619,1,0,0:0:0:0:
448,192,96826,1,0,0:0:0:0:
64,192,97033,1,0,0:0:0:0:
192,192,97033,1,0,0:0:0:0:
192,192,97240,1,0,0:0:0:0:
320,192,97447,1,0,0:0:0:0:
192,192,97447,1,0,0:0:0:0:
448,192,97654,1,0,0:0:0:0:
64,192,97861,1,0,0:0:0:0:
448,192,97861,1,0,0:0:0:0:
448,192,98068,1,0,0:0:0:0:
448,192,98274,1,0,0:0:0:0:
64,192,98274,1,0,0:0:0:0:
64,192,98481,1,0,0:0:0:0:
64,192,98688,1,0,0:0:0:0:
448,192,98688,1,0,0:0:0:0:
448,192,98895,1,0,0:0:0:0:
448,192,99102,1,0,0:0:0:0:
64,192,99102,1,0,0:0:0:0:
64,192,99309,1,0,0:0:0:0:
448,192,99516,1,0,0:0:0:0:
64,192,99516,1,0,0:0:0:0:
192,192,99723,1,0,0:0:0:0:
64,192,99930,1,0,0:0:0:0:
448,192,99930,1,0,0:0:0:0:
320,192,100137,1,0,0:0:0:0:
64,192,100343,1,0,0:0:0:0:
448,192,100343,1,0,0:0:0:0:
192,192,100550,1,0,0:0:0:0:
64,192,100757,1,0,0:0:0:0:
448,192,100757,1,0,0:0:0:0:
320,192,100964,1,0,0:0:0:0:
64,192,101171,1,0,0:0:0:0:
192,192,101171,1,0,0:0:0:0:
448,192,101378,1,0,0:0:0:0:
448,192,101585,1,0,0:0:0:0:
320,192,101585,1,0,0:0:0:0:
64,192,101792,1,0,0:0:0:0:
64,192,101999,1,0,0:0:0:0:
192,192,101999,1,0,0:0:0:0:
448,192,102206,1,0,0:0:0:0:
448,192,102412,1,0,0:0:0:0:
320,192,102412,1,0,0:0:0:0:
64,192,102619,1,0,0:0:0:0:
64,192,102826,1,0,0:0:0:0:
192,192,102826,1,0,0:0:0:0:
320,192,103033,1,0,0:0:0:0:
64,192,103240,1,0,0:0:0:0:
320,192,103240,1,0,0:0:0:0:
192,192,103447,1,0,0:0:0:0:
192,192,103654,1,0,0:0:0:0:
448,192,103654,1,0,0:0:0:0:
320,192,103861,1,0,0:0:0:0:
64,192,104068,1,0,0:0:0:0:
320,192,104068,1,0,0:0:0:0:
192,192,104274,1,0,0:0:0:0:
192,192,104481,1,0,0:0:0:0:
448,192,104481,1,0,0:0:0:0:
320,192,104688,1,0,0:0:0:0:
192,192,104895,1,0,0:0:0:0:
448,192,104895,1,0,0:0:0:0:
320,192,105102,1,0,0:0:0:0:
64,192,105309,1,0,0:0:0:0:
192,192,105309,1,0,0:0:0:0:
448,192,105516,1,0,0:0:0:0:
192,192,105723,1,0,0:0:0:0:
320,192,105723,1,0,0:0:0:0:
64,192,105930,1,0,0:0:0:0:
320,192,106137,1,0,0:0:0:0:
448,192,106137,1,0,0:0:0:0:
192,192,106343,1,0,0:0:0:0:
64,192,106550,1,0,0:0:0:0:
320,192,106550,1,0,0:0:0:0:
192,192,106757,1,0,0:0:0:0:
320,192,106964,1,0,0:0:0:0:
448,192,106964,1,0,0:0:0:0:
192,192,107171,1,0,0:0:0:0:
64,192,107378,1,0,0:0:0:0:
448,192,107378,1,0,0:0:0:0:
320,192,107585,1,0,0:0:0:0:
64,192,107792,1,0,0:0:0:0:
192,192,107792,1,0,0:0:0:0:
320,192,107999,1,0,0:0:0:0:
448,192,108206,1,0,0:0:0:0:
192,192,108206,1,0,0:0:0:0:
320,192,108412,1,0,0:0:0:0:
64,192,108619,1,0,0:0:0:0:
448,192,108619,1,0,0:0:0:0:
192,192,108826,1,0,0:0:0:0:
320,192,109033,1,0,0:0:0:0:
448,192,109033,1,0,0:0:0:0:
192,192,109240,1,0,0:0:0:0:
320,192,109447,1,0,0:0:0:0:
64,192,109447,1,0,0:0:0:0:
192,192,109654,1,0,0:0:0:0:
320,192,109757,1,0,0:0:0:0:
64,192,109861,1,0,0:0:0:0:
192,192,109861,1,0,0:0:0:0:
320,192,110068,1,0,0:0:0:0:
448,192,110171,1,0,0:0:0:0:
192,192,110274,1,0,0:0:0:0:
64,192,110274,1,0,0:0:0:0:
320,192,110481,1,0,0:0:0:0:
448,192,110585,1,0,0:0:0:0:
192,192,110688,1,0,0:0:0:0:
64,192,110688,1,0,0:0:0:0:
320,192,110895,1,0,0:0:0:0:
448,192,110999,1,0,0:0:0:0:
192,192,111102,1,0,0:0:0:0:
64,192,111102,1,0,0:0:0:0:
320,192,111206,1,0,0:0:0:0:
192,192,111309,1,0,0:0:0:0:
64,192,111412,1,0,0:0:0:0:
448,192,111516,1,0,0:0:0:0:
320,192,111516,1,0,0:0:0:0:
192,192,111619,1,0,0:0:0:0:
320,192,111723,1,0,0:0:0:0:
448,192,111826,1,0,0:0:0:0:
192,192,111930,1,0,0:0:0:0:
64,192,111930,1,0,0:0:0:0:
320,192,112033,1,0,0:0:0:0:
448,192,112137,1,0,0:0:0:0:
320,192,112240,1,0,0:0:0:0:
192,192,112343,1,0,0:0:0:0:
64,192,112343,1,0,0:0:0:0:
320,192,112447,1,0,0:0:0:0:
448,192,112550,1,0,0:0:0:0:
320,192,112654,1,0,0:0:0:0:
192,192,112757,1,0,0:0:0:0:
448,192,112757,1,0,0:0:0:0:
64,192,112757,128,0,114412:0:0:0:0:
192,192,113378,128,0,114412:0:0:0:0:
320,192,114412,128,0,117930:0:0:0:0:
448,192,115654,1,0,0:0:0:0:
64,192,115861,1,0,0:0:0:0:
448,192,116068,1,0,0:0:0:0:
64,192,116274,1,0,0:0:0:0:
448,192,116481,1,0,0:0:0:0:
64,192,116688,1,0,0:0:0:0:
448,192,116895,1,0,0:0:0:0:
64,192,117102,1,0,0:0:0:0:
448,192,117309,1,0,0:0:0:0:
64,192,117516,1,0,0:0:0:0:
448,192,117723,1,0,0:0:0:0:
192,192,117930,128,0,118550:0:0:0:0:
448,192,117930,128,0,118550:0:0:0:0:
