osu file format v14

[General]
AudioFilename: Super_Fantasy_-_SHK___HQ_Audio,_PIU_2015_PRIME.mp3
AudioLeadIn: 0
PreviewTime: -1
Countdown: 1
SampleSet: Soft
StackLeniency: 0.7
Mode: 3
LetterboxInBreaks: 1
SpecialStyle: 1
WidescreenStoryboard: 1

[Editor]
DistanceSpacing: 0.9
BeatDivisor: 4
GridSize: 8
TimelineZoom: 1.7

[Metadata]
Title:Super fantasy
TitleUnicode:Super fantasy
Artist:SHK
ArtistUnicode:SHK
Creator:kelvinkakashi
Version:another
Source:pump it up
Tags:
BeatmapID:695686
BeatmapSetID:306503

[Difficulty]
HPDrainRate:5
CircleSize:7
OverallDifficulty:5
ApproachRate:5
SliderMultiplier:1.4
SliderTickRate:1

[Events]
//Background and Video events
0,0,"SHK-Super-Fantasy-Pump-It-Up-Prime-Teaser-Preview.jpg",0,0
//Break Periods
//Storyboard Layer 0 (Background)
//Storyboard Layer 1 (Fail)
//Storyboard Layer 2 (Pass)
//Storyboard Layer 3 (Foreground)
//Storyboard Sound Samples

[TimingPoints]
206,413.793103448276,4,2,0,5,1,0
6309,-100,4,2,0,5,0,0
11792,-20,4,2,0,5,0,0
12619,-50,4,2,0,5,0,0
12826,-100,4,2,0,5,0,0
13033,-200,4,2,0,5,0,0
13137,-1000,4,2,0,5,0,0
13188,-66.6666666666667,4,2,0,5,0,0
13240,-1000,4,2,0,5,0,0
13292,-66.6666666666667,4,2,0,5,0,0
13343,-1000,4,2,0,5,0,0
13395,-100,4,2,0,5,0,0
21309,20.6896551724138,4,2,0,5,1,0
21309,-10,4,2,0,5,0,0
21316,4000,4,2,0,5,1,0
21316,-1000,4,2,0,5,0,0
21723,413.793103448276,4,2,0,5,1,0
21723,-100,4,2,0,5,0,0
22964,20.6896551724138,4,2,0,5,1,0
22964,-10,4,2,0,5,0,0
22971,4000,4,2,0,5,1,0
22971,-1000,4,2,0,5,0,0
23378,413.793103448276,4,2,0,5,1,0
23378,-100,4,2,0,5,0,0
29584,-1000,4,2,0,5,0,0
29610,-50,4,2,0,5,0,0
29636,-1000,4,2,0,5,0,0
29662,-50,4,2,0,5,0,0
29688,-1000,4,2,0,5,0,0
29714,-50,4,2,0,5,0,0
29740,-1000,4,2,0,5,0,0
29765,-50,4,2,0,5,0,0
29791,-1000,4,2,0,5,0,0
29817,-50,4,2,0,5,0,0
29843,-1000,4,2,0,5,0,0
29869,-50,4,2,0,5,0,0
29895,-1000,4,2,0,5,0,0
29921,-50,4,2,0,5,0,0
29946,-1000,4,2,0,5,0,0
29972,-50,4,2,0,5,0,0
29998,-100,4,2,0,5,0,0
32895,-1000,4,2,0,5,0,0
32921,-50,4,2,0,5,0,0
32946,-1000,4,2,0,5,0,0
32972,-50,4,2,0,5,0,0
32998,-1000,4,2,0,5,0,0
33024,-50,4,2,0,5,0,0
33050,-1000,4,2,0,5,0,0
33076,-50,4,2,0,5,0,0
33102,-1000,4,2,0,5,0,0
33128,-50,4,2,0,5,0,0
33153,-1000,4,2,0,5,0,0
33179,-50,4,2,0,5,0,0
33205,-1000,4,2,0,5,0,0
33231,-50,4,2,0,5,0,0
33257,-1000,4,2,0,5,0,0
33283,-50,4,2,0,5,0,0
33309,-100,4,2,0,5,0,0
36205,-1000,4,2,0,5,0,0
36231,-50,4,2,0,5,0,0
36257,-1000,4,2,0,5,0,0
36283,-50,4,2,0,5,0,0
36309,-1000,4,2,0,5,0,0
36334,-50,4,2,0,5,0,0
36360,-1000,4,2,0,5,0,0
36386,-50,4,2,0,5,0,0
36412,-1000,4,2,0,5,0,0
36438,-50,4,2,0,5,0,0
36464,-1000,4,2,0,5,0,0
36490,-50,4,2,0,5,0,0
36515,-1000,4,2,0,5,0,0
36541,-50,4,2,0,5,0,0
36567,-1000,4,2,0,5,0,0
36593,-50,4,2,0,5,0,0
36619,-100,4,2,0,5,0,0
39515,-1000,4,2,0,5,0,0
39541,-50,4,2,0,5,0,0
39567,-1000,4,2,0,5,0,0
39593,-50,4,2,0,5,0,0
39619,-1000,4,2,0,5,0,0
39645,-50,4,2,0,5,0,0
39671,-1000,4,2,0,5,0,0
39696,-50,4,2,0,5,0,0
39722,-1000,4,2,0,5,0,0
39748,-50,4,2,0,5,0,0
39774,-1000,4,2,0,5,0,0
39800,-50,4,2,0,5,0,0
39826,-1000,4,2,0,5,0,0
39852,-50,4,2,0,5,0,0
39878,-1000,4,2,0,5,0,0
39903,-50,4,2,0,5,0,0
39929,-133.333333333333,4,2,0,5,0,0
46136,-1000,4,2,0,5,0,0
46162,-50,4,2,0,5,0,0
46188,-1000,4,2,0,5,0,0
46214,-50,4,2,0,5,0,0
46240,-1000,4,2,0,5,0,0
46265,-50,4,2,0,5,0,0
46291,-1000,4,2,0,5,0,0
46317,-50,4,2,0,5,0,0
46343,-1000,4,2,0,5,0,0
46369,-50,4,2,0,5,0,0
46395,-1000,4,2,0,5,0,0
46421,-50,4,2,0,5,0,0
46446,-1000,4,2,0,5,0,0
46472,-50,4,2,0,5,0,0
46498,-1000,4,2,0,5,0,0
46524,-50,4,2,0,5,0,0
46550,-100,4,2,0,5,0,0
59791,-80,4,2,0,5,0,0
73033,-33.3333333333333,4,2,0,5,0,0
73446,-200,4,2,0,5,0,0
73860,-1000,4,2,0,5,0,0
73912,-50,4,2,0,5,0,0
73964,-1000,4,2,0,5,0,0
74015,-50,4,2,0,5,0,0
74067,-1000,4,2,0,5,0,0
74119,-50,4,2,0,5,0,0
74171,-100,4,2,0,5,0,0
74274,-1000,4,2,0,5,0,0
74326,-50,4,2,0,5,0,0
74378,-1000,4,2,0,5,0,0
74429,-50,4,2,0,5,0,0
74481,-1000,4,2,0,5,0,0
74533,-50,4,2,0,5,0,0
74584,-66.6666666666667,4,2,0,5,0,0
74688,-33.3333333333333,4,2,0,5,0,0
75102,-200,4,2,0,5,0,0
75515,-1000,4,2,0,5,0,0
75567,-50,4,2,0,5,0,0
75619,-1000,4,2,0,5,0,0
75671,-50,4,2,0,5,0,0
75722,-1000,4,2,0,5,0,0
75774,-50,4,2,0,5,0,0
75826,-100,4,2,0,5,0,0
75929,-1000,4,2,0,5,0,0
75981,-50,4,2,0,5,0,0
76033,-1000,4,2,0,5,0,0
76084,-50,4,2,0,5,0,0
76136,-1000,4,2,0,5,0,0
76188,-50,4,2,0,5,0,0
76240,-66.6666666666667,4,2,0,5,0,0
76343,-33.3333333333333,4,2,0,5,0,0
76757,-200,4,2,0,5,0,0
77171,-1000,4,2,0,5,0,0
77222,-50,4,2,0,5,0,0
77274,-1000,4,2,0,5,0,0
77326,-50,4,2,0,5,0,0
77378,-1000,4,2,0,5,0,0
77429,-50,4,2,0,5,0,0
77481,-1000,4,2,0,5,0,0
77533,-50,4,2,0,5,0,0
77584,-100,4,2,0,5,0,0
77998,-40,4,2,0,5,0,0
78102,-1000,4,2,0,5,0,0
78205,-133.333333333333,4,2,0,5,0,0
78412,-40,4,2,0,5,0,0
78464,-1000,4,2,0,5,0,0
78515,-133.333333333333,4,2,0,5,0,0
78619,-40,4,2,0,5,0,0
78671,-1000,4,2,0,5,0,0
78722,-133.333333333333,4,2,0,5,0,0
78826,-1000,4,2,0,5,0,0
78852,-50,4,2,0,5,0,0
78878,-1000,4,2,0,5,0,0
78903,-50,4,2,0,5,0,0
78929,-1000,4,2,0,5,0,0
78955,-50,4,2,0,5,0,0
78981,-1000,4,2,0,5,0,0
79007,-50,4,2,0,5,0,0
79033,-1000,4,2,0,5,0,0
79059,-50,4,2,0,5,0,0
79084,-1000,4,2,0,5,0,0
79110,-50,4,2,0,5,0,0
79136,-1000,4,2,0,5,0,0
79162,-50,4,2,0,5,0,0
79188,-1000,4,2,0,5,0,0
79214,-50,4,2,0,5,0,0
79240,-1000,4,2,0,5,0,0
79265,-50,4,2,0,5,0,0
79291,-1000,4,2,0,5,0,0
79317,-50,4,2,0,5,0,0
79343,-1000,4,2,0,5,0,0
79369,-50,4,2,0,5,0,0
79395,-1000,4,2,0,5,0,0
79421,-50,4,2,0,5,0,0
79446,-1000,4,2,0,5,0,0
79472,-50,4,2,0,5,0,0
79498,-1000,4,2,0,5,0,0
79524,-50,4,2,0,5,0,0
79550,-1000,4,2,0,5,0,0
79576,-50,4,2,0,5,0,0
79602,-1000,4,2,0,5,0,0
79628,-50,4,2,0,5,0,0
79653,-33.3333333333333,4,2,0,5,0,0
80067,-200,4,2,0,5,0,0
80481,-1000,4,2,0,5,0,0
80533,-50,4,2,0,5,0,0
80584,-1000,4,2,0,5,0,0
80636,-50,4,2,0,5,0,0
80688,-1000,4,2,0,5,0,0
80740,-50,4,2,0,5,0,0
80791,-100,4,2,0,5,0,0
80895,-1000,4,2,0,5,0,0
80946,-50,4,2,0,5,0,0
80998,-1000,4,2,0,5,0,0
81050,-50,4,2,0,5,0,0
81102,-1000,4,2,0,5,0,0
81153,-50,4,2,0,5,0,0
81205,-66.6666666666667,4,2,0,5,0,0
81309,-33.3333333333333,4,2,0,5,0,0
81722,-200,4,2,0,5,0,0
82136,-1000,4,2,0,5,0,0
82188,-50,4,2,0,5,0,0
82240,-1000,4,2,0,5,0,0
82291,-50,4,2,0,5,0,0
82343,-1000,4,2,0,5,0,0
82395,-50,4,2,0,5,0,0
82446,-100,4,2,0,5,0,0
82550,-1000,4,2,0,5,0,0
82602,-50,4,2,0,5,0,0
82653,-1000,4,2,0,5,0,0
82705,-50,4,2,0,5,0,0
82757,-1000,4,2,0,5,0,0
82809,-50,4,2,0,5,0,0
82860,-66.6666666666667,4,2,0,5,0,0
82964,-33.3333333333333,4,2,0,5,0,0
83378,-200,4,2,0,5,0,0
83791,-1000,4,2,0,5,0,0
83843,-50,4,2,0,5,0,0
83895,-1000,4,2,0,5,0,0
83946,-50,4,2,0,5,0,0
83998,-1000,4,2,0,5,0,0
84050,-50,4,2,0,5,0,0
84205,-1000,4,2,0,5,0,0
84257,-50,4,2,0,5,0,0
84309,-100,4,2,0,5,0,0
84619,-40,4,2,0,5,0,0
84830,-200,4,2,0,5,0,0
85033,-40,4,2,0,5,0,0
85240,-200,4,2,0,5,0,0
85446,-40,4,2,0,5,0,0
85653,-200,4,2,0,5,0,0
85912,-1000,4,2,0,5,0,0
85938,-50,4,2,0,5,0,0
85964,-1000,4,2,0,5,0,0
85990,-50,4,2,0,5,0,0
86015,-1000,4,2,0,5,0,0
86041,-50,4,2,0,5,0,0
86067,-1000,4,2,0,5,0,0
86093,-50,4,2,0,5,0,0
86119,-1000,4,2,0,5,0,0
86145,-50,4,2,0,5,0,0
86171,-1000,4,2,0,5,0,0
86196,-50,4,2,0,5,0,0
86222,-1000,4,2,0,5,0,0
86248,-50,4,2,0,5,0,0
86274,-100,4,2,0,5,0,0
92895,-133.333333333333,4,2,0,5,0,0
94136,20.6896551724138,4,2,0,5,1,0
94136,-10,4,2,0,5,0,0
94164,4000,4,2,0,5,1,0
94164,-1000,4,2,0,5,0,0
94550,413.793103448276,4,2,0,5,1,0
94550,-133.333333333333,4,2,0,5,0,0
95791,20.6896551724138,4,2,0,5,1,0
95791,-10,4,2,0,5,0,0
95819,4000,4,2,0,5,1,0
95819,-1000,4,2,0,5,0,0
96205,413.793103448276,4,2,0,5,1,0
96205,-100,4,2,0,5,0,0
112756,4000,4,2,0,5,1,0
112756,-1000,4,2,0,5,0,0
114411,413.793103448276,4,2,0,5,1,0
114411,-100,4,2,0,5,0,0
117721,4000,4,2,0,5,1,0
117721,-1000,4,2,0,5,0,0
118445,20.6896551724138,4,2,0,5,1,0
118445,-10,4,2,0,5,0,0
118548,413.793103448276,4,2,0,5,1,0

[HitObjects]
256,192,206,128,0,1861:0:0:0:0:
402,192,206,128,0,1861:0:0:0:0:
36,192,206,128,0,1861:0:0:0:0:
109,192,206,1,0,0:0:0:0:
182,192,309,1,0,0:0:0:0:
109,192,412,1,0,0:0:0:0:
182,192,516,1,0,0:0:0:0:
109,192,619,1,0,0:0:0:0:
182,192,723,1,0,0:0:0:0:
109,192,826,1,0,0:0:0:0:
182,192,930,1,0,0:0:0:0:
109,192,1033,1,0,0:0:0:0:
182,192,1137,1,0,0:0:0:0:
109,192,1240,1,0,0:0:0:0:
182,192,1343,1,0,0:0:0:0:
109,192,1447,1,0,0:0:0:0:
182,192,1550,1,0,0:0:0:0:
109,192,1654,1,0,0:0:0:0:
182,192,1757,1,0,0:0:0:0:
109,192,1861,128,0,3516:0:0:0:0:
329,192,1861,128,0,3516:0:0:0:0:
475,192,1861,128,0,3516:0:0:0:0:
182,192,1861,1,0,0:0:0:0:
402,192,1964,1,0,0:0:0:0:
182,192,2068,1,0,0:0:0:0:
402,192,2171,1,0,0:0:0:0:
182,192,2274,1,0,0:0:0:0:
402,192,2378,1,0,0:0:0:0:
182,192,2481,1,0,0:0:0:0:
402,192,2585,1,0,0:0:0:0:
182,192,2688,1,0,0:0:0:0:
402,192,2792,1,0,0:0:0:0:
182,192,2895,1,0,0:0:0:0:
402,192,2999,1,0,0:0:0:0:
182,192,3102,1,0,0:0:0:0:
402,192,3206,1,0,0:0:0:0:
182,192,3309,1,0,0:0:0:0:
402,192,3412,1,0,0:0:0:0:
182,192,3516,128,0,5171:0:0:0:0:
36,192,3516,128,0,5171:0:0:0:0:
402,192,3516,128,0,5171:0:0:0:0:
256,192,3516,1,0,0:0:0:0:
475,192,3619,1,0,0:0:0:0:
256,192,3723,1,0,0:0:0:0:
475,192,3826,1,0,0:0:0:0:
256,192,3930,1,0,0:0:0:0:
475,192,4033,1,0,0:0:0:0:
256,192,4137,1,0,0:0:0:0:
475,192,4240,1,0,0:0:0:0:
256,192,4343,1,0,0:0:0:0:
475,192,4447,1,0,0:0:0:0:
256,192,4550,1,0,0:0:0:0:
475,192,4654,1,0,0:0:0:0:
256,192,4757,1,0,0:0:0:0:
475,192,4861,1,0,0:0:0:0:
256,192,4964,1,0,0:0:0:0:
475,192,5068,1,0,0:0:0:0:
256,192,5171,128,0,6826:0:0:0:0:
109,192,5171,128,0,6826:0:0:0:0:
475,192,5171,128,0,6826:0:0:0:0:
329,192,5171,1,0,0:0:0:0:
402,192,5274,1,0,0:0:0:0:
329,192,5378,1,0,0:0:0:0:
402,192,5481,1,0,0:0:0:0:
329,192,5585,1,0,0:0:0:0:
402,192,5688,1,0,0:0:0:0:
329,192,5792,1,0,0:0:0:0:
402,192,5895,1,0,0:0:0:0:
329,192,5999,1,0,0:0:0:0:
402,192,6102,1,0,0:0:0:0:
329,192,6206,1,0,0:0:0:0:
402,192,6309,1,0,0:0:0:0:
329,192,6412,1,0,0:0:0:0:
402,192,6516,1,0,0:0:0:0:
329,192,6619,1,0,0:0:0:0:
402,192,6723,1,0,0:0:0:0:
36,192,6826,128,0,10137:0:0:0:0:
329,192,6826,128,0,10137:0:0:0:0:
182,192,6826,1,0,0:0:0:0:
402,192,6826,1,0,0:0:0:0:
402,192,7240,1,0,0:0:0:0:
182,192,7240,1,0,0:0:0:0:
182,192,7654,1,0,0:0:0:0:
402,192,7654,1,0,0:0:0:0:
402,192,8068,1,0,0:0:0:0:
182,192,8068,1,0,0:0:0:0:
182,192,8481,1,0,0:0:0:0:
402,192,8481,1,0,0:0:0:0:
182,192,8688,1,0,0:0:0:0:
402,192,8688,1,0,0:0:0:0:
182,192,8895,1,0,0:0:0:0:
402,192,8895,1,0,0:0:0:0:
182,192,9309,1,0,0:0:0:0:
402,192,9309,1,0,0:0:0:0:
402,192,9723,1,0,0:0:0:0:
182,192,9723,1,0,0:0:0:0:
182,192,10137,128,0,11792:0:0:0:0:
475,192,10137,128,0,11792:0:0:0:0:
109,192,10137,1,0,0:0:0:0:
402,192,10137,1,0,0:0:0:0:
402,192,10550,1,0,0:0:0:0:
109,192,10550,1,0,0:0:0:0:
109,192,10964,1,0,0:0:0:0:
402,192,10964,1,0,0:0:0:0:
402,192,11171,1,0,0:0:0:0:
109,192,11171,1,0,0:0:0:0:
109,192,11378,1,0,0:0:0:0:
402,192,11378,1,0,0:0:0:0:
36,192,11792,128,0,13447:0:0:0:0:
256,192,11792,128,0,13447:0:0:0:0:
109,192,11792,1,0,0:0:0:0:
402,192,11792,1,0,0:0:0:0:
329,192,13033,1,0,0:0:0:0:
402,192,13033,1,0,0:0:0:0:
475,192,13033,1,0,0:0:0:0:
475,192,13137,1,0,0:0:0:0:
402,192,13137,1,0,0:0:0:0:
329,192,13137,1,0,0:0:0:0:
329,192,13240,1,0,0:0:0:0:
402,192,13240,1,0,0:0:0:0:
475,192,13240,1,0,0:0:0:0:
182,192,13447,1,0,0:0:0:0:
109,192,13447,1,0,0:0:0:0:
256,192,13550,1,0,0:0:0:0:
182,192,13654,1,0,0:0:0:0:
109,192,13757,1,0,0:0:0:0:
36,192,13861,1,0,0:0:0:0:
109,192,13964,1,0,0:0:0:0:
182,192,14068,1,0,0:0:0:0:
182,192,14171,1,0,0:0:0:0:
36,192,14274,1,0,0:0:0:0:
109,192,14378,1,0,0:0:0:0:
182,192,14481,1,0,0:0:0:0:
256,192,14585,1,0,0:0:0:0:
475,192,14688,1,0,0:0:0:0:
329,192,14792,1,0,0:0:0:0:
256,192,14895,1,0,0:0:0:0:
182,192,14999,1,0,0:0:0:0:
402,192,15102,1,0,0:0:0:0:
475,192,15102,1,0,0:0:0:0:
329,192,15206,1,0,0:0:0:0:
182,192,15309,1,0,0:0:0:0:
109,192,15412,1,0,0:0:0:0:
36,192,15516,1,0,0:0:0:0:
109,192,15619,1,0,0:0:0:0:
182,192,15723,1,0,0:0:0:0:
475,192,15826,1,0,0:0:0:0:
402,192,15930,1,0,0:0:0:0:
329,192,16033,1,0,0:0:0:0:
402,192,16137,1,0,0:0:0:0:
475,192,16240,1,0,0:0:0:0:
36,192,16343,1,0,0:0:0:0:
182,192,16447,1,0,0:0:0:0:
329,192,16550,1,0,0:0:0:0:
475,192,16654,1,0,0:0:0:0:
36,192,16757,1,0,0:0:0:0:
182,192,16757,1,0,0:0:0:0:
256,192,16861,1,0,0:0:0:0:
329,192,16964,1,0,0:0:0:0:
402,192,17068,1,0,0:0:0:0:
475,192,17171,1,0,0:0:0:0:
329,192,17274,1,0,0:0:0:0:
109,192,17378,1,0,0:0:0:0:
256,192,17481,1,0,0:0:0:0:
402,192,17585,1,0,0:0:0:0:
475,192,17688,1,0,0:0:0:0:
402,192,17792,1,0,0:0:0:0:
475,192,17895,1,0,0:0:0:0:
182,192,17999,1,0,0:0:0:0:
256,192,18102,1,0,0:0:0:0:
182,192,18206,1,0,0:0:0:0:
256,192,18309,1,0,0:0:0:0:
36,192,18412,1,0,0:0:0:0:
109,192,18516,1,0,0:0:0:0:
36,192,18619,1,0,0:0:0:0:
109,192,18723,1,0,0:0:0:0:
182,192,18826,1,0,0:0:0:0:
256,192,18930,1,0,0:0:0:0:
182,192,19033,1,0,0:0:0:0:
256,192,19137,1,0,0:0:0:0:
329,192,19240,1,0,0:0:0:0:
182,192,19343,1,0,0:0:0:0:
109,192,19447,1,0,0:0:0:0:
182,192,19550,1,0,0:0:0:0:
109,192,19654,1,0,0:0:0:0:
329,192,19757,1,0,0:0:0:0:
402,192,19861,1,0,0:0:0:0:
182,192,19964,1,0,0:0:0:0:
256,192,20068,1,0,0:0:0:0:
109,192,20068,1,0,0:0:0:0:
329,192,20171,1,0,0:0:0:0:
402,192,20274,1,0,0:0:0:0:
475,192,20378,1,0,0:0:0:0:
109,192,20481,1,0,0:0:0:0:
256,192,20585,1,0,0:0:0:0:
109,192,20688,1,0,0:0:0:0:
329,192,20792,1,0,0:0:0:0:
256,192,20895,1,0,0:0:0:0:
36,192,20999,1,0,0:0:0:0:
329,192,21102,1,0,0:0:0:0:
402,192,21206,1,0,0:0:0:0:
329,192,21309,128,0,21723:0:0:0:0:
182,192,21309,128,0,21723:0:0:0:0:
475,192,21309,128,0,21723:0:0:0:0:
109,192,21723,1,0,0:0:0:0:
256,192,21723,1,0,0:0:0:0:
402,192,21723,1,0,0:0:0:0:
36,192,21826,1,0,0:0:0:0:
182,192,21929,1,0,0:0:0:0:
109,192,22033,1,0,0:0:0:0:
329,192,22136,1,0,0:0:0:0:
256,192,22240,1,0,0:0:0:0:
402,192,22343,1,0,0:0:0:0:
256,192,22447,1,0,0:0:0:0:
256,192,22550,1,0,0:0:0:0:
329,192,22654,1,0,0:0:0:0:
475,192,22757,1,0,0:0:0:0:
402,192,22860,1,0,0:0:0:0:
329,192,22964,128,0,23378:0:0:0:0:
182,192,22964,128,0,23378:0:0:0:0:
475,192,22964,128,0,23378:0:0:0:0:
36,192,23378,1,0,0:0:0:0:
109,192,23378,1,0,0:0:0:0:
256,192,23378,1,0,0:0:0:0:
402,192,23481,1,0,0:0:0:0:
256,192,23584,1,0,0:0:0:0:
329,192,23688,1,0,0:0:0:0:
475,192,23791,1,0,0:0:0:0:
256,192,23895,1,0,0:0:0:0:
402,192,23998,1,0,0:0:0:0:
109,192,24102,1,0,0:0:0:0:
182,192,24205,1,0,0:0:0:0:
402,192,24309,1,0,0:0:0:0:
402,192,24412,1,0,0:0:0:0:
329,192,24515,1,0,0:0:0:0:
182,192,24619,1,0,0:0:0:0:
329,192,24722,1,0,0:0:0:0:
109,192,24826,1,0,0:0:0:0:
36,192,24929,1,0,0:0:0:0:
475,192,25033,128,0,25240:0:0:0:0:
329,192,25033,1,0,0:0:0:0:
182,192,25136,1,0,0:0:0:0:
329,192,25240,1,0,0:0:0:0:
182,192,25343,1,0,0:0:0:0:
475,192,25446,128,0,25653:0:0:0:0:
256,192,25446,1,0,0:0:0:0:
36,192,25550,1,0,0:0:0:0:
256,192,25653,1,0,0:0:0:0:
36,192,25757,1,0,0:0:0:0:
475,192,25860,128,0,26067:0:0:0:0:
182,192,25860,1,0,0:0:0:0:
402,192,25964,1,0,0:0:0:0:
182,192,26067,1,0,0:0:0:0:
402,192,26171,1,0,0:0:0:0:
475,192,26274,128,0,26481:0:0:0:0:
329,192,26274,1,0,0:0:0:0:
109,192,26378,1,0,0:0:0:0:
329,192,26481,1,0,0:0:0:0:
109,192,26584,1,0,0:0:0:0:
36,192,26688,128,0,27102:0:0:0:0:
256,192,26688,1,0,0:0:0:0:
402,192,26791,1,0,0:0:0:0:
329,192,26895,1,0,0:0:0:0:
475,192,26998,1,0,0:0:0:0:
109,192,27102,128,0,27515:0:0:0:0:
329,192,27102,1,0,0:0:0:0:
182,192,27205,1,0,0:0:0:0:
36,192,27309,1,0,0:0:0:0:
256,192,27412,1,0,0:0:0:0:
36,192,27515,128,0,27929:0:0:0:0:
402,192,27515,1,0,0:0:0:0:
475,192,27619,1,0,0:0:0:0:
109,192,27722,1,0,0:0:0:0:
256,192,27826,1,0,0:0:0:0:
182,192,27929,128,0,28343:0:0:0:0:
109,192,27929,1,0,0:0:0:0:
256,192,28033,1,0,0:0:0:0:
329,192,28136,1,0,0:0:0:0:
402,192,28240,1,0,0:0:0:0:
475,192,28343,128,0,28757:0:0:0:0:
329,192,28343,1,0,0:0:0:0:
109,192,28446,1,0,0:0:0:0:
256,192,28550,1,0,0:0:0:0:
329,192,28653,1,0,0:0:0:0:
182,192,28757,128,0,29171:0:0:0:0:
109,192,28757,1,0,0:0:0:0:
256,192,28860,1,0,0:0:0:0:
329,192,28964,1,0,0:0:0:0:
402,192,29067,1,0,0:0:0:0:
109,192,29171,128,0,29584:0:0:0:0:
329,192,29171,1,0,0:0:0:0:
475,192,29274,1,0,0:0:0:0:
402,192,29378,1,0,0:0:0:0:
36,192,29481,1,0,0:0:0:0:
475,192,29584,1,0,0:0:0:0:
402,192,29636,1,0,0:0:0:0:
329,192,29688,1,0,0:0:0:0:
256,192,29740,1,0,0:0:0:0:
36,192,29791,1,0,0:0:0:0:
109,192,29843,1,0,0:0:0:0:
182,192,29895,1,0,0:0:0:0:
256,192,29946,1,0,0:0:0:0:
475,192,29998,128,0,30412:0:0:0:0:
402,192,29998,1,0,0:0:0:0:
329,192,30102,1,0,0:0:0:0:
182,192,30205,1,0,0:0:0:0:
256,192,30309,1,0,0:0:0:0:
402,192,30412,128,0,30826:0:0:0:0:
109,192,30412,1,0,0:0:0:0:
182,192,30515,1,0,0:0:0:0:
36,192,30619,1,0,0:0:0:0:
256,192,30722,1,0,0:0:0:0:
475,192,30826,128,0,31240:0:0:0:0:
109,192,30826,1,0,0:0:0:0:
256,192,30929,1,0,0:0:0:0:
402,192,31033,1,0,0:0:0:0:
329,192,31136,1,0,0:0:0:0:
329,192,31240,128,0,31653:0:0:0:0:
109,192,31240,1,0,0:0:0:0:
182,192,31343,1,0,0:0:0:0:
402,192,31446,1,0,0:0:0:0:
475,192,31550,1,0,0:0:0:0:
109,192,31653,128,0,32067:0:0:0:0:
36,192,31653,1,0,0:0:0:0:
182,192,31757,1,0,0:0:0:0:
402,192,31860,1,0,0:0:0:0:
182,192,31964,1,0,0:0:0:0:
402,192,32067,128,0,32481:0:0:0:0:
329,192,32067,1,0,0:0:0:0:
475,192,32171,1,0,0:0:0:0:
329,192,32274,1,0,0:0:0:0:
182,192,32378,1,0,0:0:0:0:
182,192,32481,128,0,32895:0:0:0:0:
36,192,32481,1,0,0:0:0:0:
256,192,32584,1,0,0:0:0:0:
402,192,32688,1,0,0:0:0:0:
329,192,32791,1,0,0:0:0:0:
36,192,32895,1,0,0:0:0:0:
109,192,32946,1,0,0:0:0:0:
182,192,32998,1,0,0:0:0:0:
256,192,33050,1,0,0:0:0:0:
475,192,33102,1,0,0:0:0:0:
402,192,33153,1,0,0:0:0:0:
329,192,33205,1,0,0:0:0:0:
256,192,33257,1,0,0:0:0:0:
36,192,33309,128,0,33722:0:0:0:0:
402,192,33309,1,0,0:0:0:0:
329,192,33412,1,0,0:0:0:0:
475,192,33515,1,0,0:0:0:0:
182,192,33619,1,0,0:0:0:0:
329,192,33722,128,0,34136:0:0:0:0:
109,192,33722,1,0,0:0:0:0:
256,192,33826,1,0,0:0:0:0:
109,192,33929,1,0,0:0:0:0:
402,192,34033,1,0,0:0:0:0:
182,192,34136,128,0,34550:0:0:0:0:
475,192,34136,1,0,0:0:0:0:
402,192,34240,1,0,0:0:0:0:
475,192,34343,1,0,0:0:0:0:
109,192,34446,1,0,0:0:0:0:
475,192,34550,128,0,34964:0:0:0:0:
36,192,34550,1,0,0:0:0:0:
109,192,34653,1,0,0:0:0:0:
36,192,34757,1,0,0:0:0:0:
329,192,34860,1,0,0:0:0:0:
109,192,34964,128,0,35378:0:0:0:0:
256,192,34964,1,0,0:0:0:0:
182,192,35067,1,0,0:0:0:0:
475,192,35171,1,0,0:0:0:0:
402,192,35274,1,0,0:0:0:0:
36,192,35378,128,0,35791:0:0:0:0:
329,192,35378,1,0,0:0:0:0:
182,192,35481,1,0,0:0:0:0:
256,192,35584,1,0,0:0:0:0:
402,192,35688,1,0,0:0:0:0:
475,192,35791,128,0,36205:0:0:0:0:
109,192,35791,1,0,0:0:0:0:
182,192,35895,1,0,0:0:0:0:
109,192,35998,1,0,0:0:0:0:
36,192,36102,1,0,0:0:0:0:
402,192,36205,1,0,0:0:0:0:
329,192,36257,1,0,0:0:0:0:
256,192,36309,1,0,0:0:0:0:
182,192,36360,1,0,0:0:0:0:
402,192,36412,1,0,0:0:0:0:
329,192,36464,1,0,0:0:0:0:
256,192,36515,1,0,0:0:0:0:
182,192,36567,1,0,0:0:0:0:
475,192,36619,128,0,37033:0:0:0:0:
402,192,36619,1,0,0:0:0:0:
329,192,36722,1,0,0:0:0:0:
256,192,36826,1,0,0:0:0:0:
329,192,36929,1,0,0:0:0:0:
36,192,37033,128,0,37446:0:0:0:0:
402,192,37033,1,0,0:0:0:0:
109,192,37033,1,0,0:0:0:0:
182,192,37136,1,0,0:0:0:0:
256,192,37240,1,0,0:0:0:0:
182,192,37343,1,0,0:0:0:0:
256,192,37446,128,0,37860:0:0:0:0:
109,192,37446,1,0,0:0:0:0:
402,192,37446,1,0,0:0:0:0:
475,192,37550,1,0,0:0:0:0:
402,192,37653,1,0,0:0:0:0:
182,192,37757,1,0,0:0:0:0:
402,192,37860,128,0,38274:0:0:0:0:
109,192,37860,1,0,0:0:0:0:
182,192,37964,1,0,0:0:0:0:
329,192,38067,1,0,0:0:0:0:
256,192,38171,1,0,0:0:0:0:
109,192,38274,128,0,38688:0:0:0:0:
329,192,38274,1,0,0:0:0:0:
256,192,38378,1,0,0:0:0:0:
182,192,38481,1,0,0:0:0:0:
329,192,38584,1,0,0:0:0:0:
475,192,38688,128,0,39102:0:0:0:0:
256,192,38688,1,0,0:0:0:0:
182,192,38791,1,0,0:0:0:0:
329,192,38895,1,0,0:0:0:0:
256,192,38998,1,0,0:0:0:0:
36,192,39102,128,0,39515:0:0:0:0:
402,192,39102,1,0,0:0:0:0:
256,192,39205,1,0,0:0:0:0:
475,192,39309,1,0,0:0:0:0:
256,192,39412,1,0,0:0:0:0:
182,192,39515,1,0,0:0:0:0:
256,192,39567,1,0,0:0:0:0:
329,192,39619,1,0,0:0:0:0:
402,192,39671,1,0,0:0:0:0:
182,192,39722,1,0,0:0:0:0:
256,192,39774,1,0,0:0:0:0:
329,192,39826,1,0,0:0:0:0:
402,192,39878,1,0,0:0:0:0:
36,192,39929,128,0,40136:0:0:0:0:
109,192,39929,1,0,0:0:0:0:
182,192,40033,1,0,0:0:0:0:
109,192,40136,1,0,0:0:0:0:
182,192,40240,1,0,0:0:0:0:
256,192,40343,128,0,40550:0:0:0:0:
109,192,40343,1,0,0:0:0:0:
182,192,40446,1,0,0:0:0:0:
109,192,40550,1,0,0:0:0:0:
182,192,40653,1,0,0:0:0:0:
475,192,40757,128,0,40964:0:0:0:0:
329,192,40757,1,0,0:0:0:0:
402,192,40860,1,0,0:0:0:0:
329,192,40964,1,0,0:0:0:0:
402,192,41067,1,0,0:0:0:0:
256,192,41171,128,0,41378:0:0:0:0:
329,192,41171,1,0,0:0:0:0:
402,192,41274,1,0,0:0:0:0:
329,192,41378,1,0,0:0:0:0:
402,192,41481,1,0,0:0:0:0:
36,192,41584,128,0,41791:0:0:0:0:
182,192,41584,1,0,0:0:0:0:
109,192,41688,1,0,0:0:0:0:
402,192,41791,1,0,0:0:0:0:
329,192,41895,1,0,0:0:0:0:
256,192,41998,128,0,42205:0:0:0:0:
182,192,41998,1,0,0:0:0:0:
109,192,42102,1,0,0:0:0:0:
402,192,42205,1,0,0:0:0:0:
329,192,42309,1,0,0:0:0:0:
475,192,42412,128,0,42619:0:0:0:0:
36,192,42412,1,0,0:0:0:0:
182,192,42515,1,0,0:0:0:0:
36,192,42619,1,0,0:0:0:0:
182,192,42722,1,0,0:0:0:0:
256,192,42826,128,0,43033:0:0:0:0:
329,192,42826,1,0,0:0:0:0:
475,192,42929,1,0,0:0:0:0:
329,192,43033,1,0,0:0:0:0:
475,192,43136,1,0,0:0:0:0:
109,192,43240,128,0,43446:0:0:0:0:
182,192,43240,1,0,0:0:0:0:
256,192,43343,1,0,0:0:0:0:
182,192,43446,1,0,0:0:0:0:
109,192,43550,1,0,0:0:0:0:
256,192,43653,128,0,43860:0:0:0:0:
329,192,43653,1,0,0:0:0:0:
402,192,43757,1,0,0:0:0:0:
329,192,43860,1,0,0:0:0:0:
256,192,43964,1,0,0:0:0:0:
402,192,44067,128,0,44274:0:0:0:0:
475,192,44067,1,0,0:0:0:0:
329,192,44171,1,0,0:0:0:0:
256,192,44274,1,0,0:0:0:0:
329,192,44378,1,0,0:0:0:0:
256,192,44481,128,0,44688:0:0:0:0:
182,192,44481,1,0,0:0:0:0:
329,192,44584,1,0,0:0:0:0:
182,192,44688,1,0,0:0:0:0:
109,192,44791,1,0,0:0:0:0:
182,192,44895,128,0,45102:0:0:0:0:
256,192,44895,1,0,0:0:0:0:
329,192,44998,1,0,0:0:0:0:
402,192,45102,1,0,0:0:0:0:
475,192,45205,1,0,0:0:0:0:
256,192,45309,128,0,45515:0:0:0:0:
182,192,45309,1,0,0:0:0:0:
109,192,45412,1,0,0:0:0:0:
36,192,45515,1,0,0:0:0:0:
402,192,45619,1,0,0:0:0:0:
329,192,45722,128,0,45929:0:0:0:0:
256,192,45722,1,0,0:0:0:0:
109,192,45826,1,0,0:0:0:0:
256,192,45929,1,0,0:0:0:0:
402,192,46033,1,0,0:0:0:0:
109,192,46136,1,0,0:0:0:0:
36,192,46188,1,0,0:0:0:0:
109,192,46240,1,0,0:0:0:0:
182,192,46291,1,0,0:0:0:0:
256,192,46343,1,0,0:0:0:0:
329,192,46395,1,0,0:0:0:0:
402,192,46446,1,0,0:0:0:0:
475,192,46498,1,0,0:0:0:0:
256,192,46550,1,0,0:0:0:0:
329,192,46550,1,0,0:0:0:0:
182,192,46653,1,0,0:0:0:0:
329,192,46757,1,0,0:0:0:0:
109,192,46860,1,0,0:0:0:0:
402,192,46964,1,0,0:0:0:0:
329,192,46964,1,0,0:0:0:0:
36,192,47067,1,0,0:0:0:0:
475,192,47171,1,0,0:0:0:0:
109,192,47274,1,0,0:0:0:0:
402,192,47378,1,0,0:0:0:0:
329,192,47378,1,0,0:0:0:0:
182,192,47481,1,0,0:0:0:0:
329,192,47584,1,0,0:0:0:0:
256,192,47688,1,0,0:0:0:0:
329,192,47791,1,0,0:0:0:0:
256,192,47791,1,0,0:0:0:0:
402,192,47895,1,0,0:0:0:0:
475,192,47998,1,0,0:0:0:0:
402,192,48102,1,0,0:0:0:0:
36,192,48205,1,0,0:0:0:0:
475,192,48205,1,0,0:0:0:0:
109,192,48309,1,0,0:0:0:0:
36,192,48412,1,0,0:0:0:0:
182,192,48515,1,0,0:0:0:0:
109,192,48619,1,0,0:0:0:0:
475,192,48619,1,0,0:0:0:0:
256,192,48722,1,0,0:0:0:0:
182,192,48826,1,0,0:0:0:0:
329,192,48929,1,0,0:0:0:0:
256,192,49033,1,0,0:0:0:0:
475,192,49033,1,0,0:0:0:0:
402,192,49136,1,0,0:0:0:0:
329,192,49240,1,0,0:0:0:0:
475,192,49343,1,0,0:0:0:0:
402,192,49446,1,0,0:0:0:0:
475,192,49446,1,0,0:0:0:0:
329,192,49550,1,0,0:0:0:0:
402,192,49653,1,0,0:0:0:0:
256,192,49757,1,0,0:0:0:0:
36,192,49860,1,0,0:0:0:0:
256,192,49860,1,0,0:0:0:0:
109,192,49964,1,0,0:0:0:0:
182,192,50067,1,0,0:0:0:0:
329,192,50171,1,0,0:0:0:0:
402,192,50274,1,0,0:0:0:0:
256,192,50274,1,0,0:0:0:0:
475,192,50378,1,0,0:0:0:0:
36,192,50481,1,0,0:0:0:0:
182,192,50584,1,0,0:0:0:0:
402,192,50688,1,0,0:0:0:0:
256,192,50688,1,0,0:0:0:0:
475,192,50791,1,0,0:0:0:0:
402,192,50895,1,0,0:0:0:0:
475,192,50998,1,0,0:0:0:0:
36,192,51102,1,0,0:0:0:0:
256,192,51102,1,0,0:0:0:0:
109,192,51205,1,0,0:0:0:0:
36,192,51309,1,0,0:0:0:0:
109,192,51412,1,0,0:0:0:0:
329,192,51515,1,0,0:0:0:0:
256,192,51515,1,0,0:0:0:0:
475,192,51619,1,0,0:0:0:0:
36,192,51722,1,0,0:0:0:0:
182,192,51826,1,0,0:0:0:0:
475,192,51929,1,0,0:0:0:0:
256,192,51929,1,0,0:0:0:0:
329,192,52033,1,0,0:0:0:0:
36,192,52136,1,0,0:0:0:0:
182,192,52240,1,0,0:0:0:0:
475,192,52343,1,0,0:0:0:0:
256,192,52343,1,0,0:0:0:0:
329,192,52446,1,0,0:0:0:0:
182,192,52550,1,0,0:0:0:0:
36,192,52653,1,0,0:0:0:0:
36,192,52757,1,0,0:0:0:0:
256,192,52757,1,0,0:0:0:0:
182,192,52860,1,0,0:0:0:0:
475,192,52964,1,0,0:0:0:0:
329,192,53067,1,0,0:0:0:0:
109,192,53171,1,0,0:0:0:0:
36,192,53171,1,0,0:0:0:0:
182,192,53274,1,0,0:0:0:0:
109,192,53378,1,0,0:0:0:0:
36,192,53481,1,0,0:0:0:0:
402,192,53584,1,0,0:0:0:0:
475,192,53584,1,0,0:0:0:0:
329,192,53688,1,0,0:0:0:0:
402,192,53791,1,0,0:0:0:0:
475,192,53895,1,0,0:0:0:0:
182,192,53998,1,0,0:0:0:0:
109,192,53998,1,0,0:0:0:0:
329,192,54102,1,0,0:0:0:0:
182,192,54205,1,0,0:0:0:0:
329,192,54309,1,0,0:0:0:0:
109,192,54412,1,0,0:0:0:0:
182,192,54412,1,0,0:0:0:0:
402,192,54515,1,0,0:0:0:0:
109,192,54619,1,0,0:0:0:0:
402,192,54722,1,0,0:0:0:0:
36,192,54826,1,0,0:0:0:0:
182,192,54826,1,0,0:0:0:0:
182,192,54929,1,0,0:0:0:0:
329,192,55033,1,0,0:0:0:0:
475,192,55136,1,0,0:0:0:0:
256,192,55240,1,0,0:0:0:0:
402,192,55240,1,0,0:0:0:0:
182,192,55343,1,0,0:0:0:0:
109,192,55446,1,0,0:0:0:0:
182,192,55550,1,0,0:0:0:0:
329,192,55653,1,0,0:0:0:0:
109,192,55653,1,0,0:0:0:0:
475,192,55757,1,0,0:0:0:0:
329,192,55860,1,0,0:0:0:0:
109,192,55964,1,0,0:0:0:0:
36,192,56067,1,0,0:0:0:0:
329,192,56067,1,0,0:0:0:0:
182,192,56171,1,0,0:0:0:0:
329,192,56274,1,0,0:0:0:0:
475,192,56378,1,0,0:0:0:0:
475,192,56481,1,0,0:0:0:0:
182,192,56481,1,0,0:0:0:0:
402,192,56584,1,0,0:0:0:0:
475,192,56688,1,0,0:0:0:0:
402,192,56791,1,0,0:0:0:0:
475,192,56895,1,0,0:0:0:0:
36,192,56895,1,0,0:0:0:0:
402,192,56998,1,0,0:0:0:0:
475,192,57102,1,0,0:0:0:0:
402,192,57205,1,0,0:0:0:0:
475,192,57309,1,0,0:0:0:0:
182,192,57309,1,0,0:0:0:0:
402,192,57412,1,0,0:0:0:0:
329,192,57515,1,0,0:0:0:0:
256,192,57619,1,0,0:0:0:0:
182,192,57722,1,0,0:0:0:0:
475,192,57722,1,0,0:0:0:0:
109,192,57826,1,0,0:0:0:0:
36,192,57929,1,0,0:0:0:0:
182,192,58033,1,0,0:0:0:0:
329,192,58136,1,0,0:0:0:0:
402,192,58136,1,0,0:0:0:0:
475,192,58136,1,0,0:0:0:0:
256,192,58240,1,0,0:0:0:0:
329,192,58343,1,0,0:0:0:0:
256,192,58446,1,0,0:0:0:0:
36,192,58550,1,0,0:0:0:0:
109,192,58550,1,0,0:0:0:0:
182,192,58550,1,0,0:0:0:0:
256,192,58653,1,0,0:0:0:0:
329,192,58757,1,0,0:0:0:0:
256,192,58860,1,0,0:0:0:0:
329,192,58964,1,0,0:0:0:0:
402,192,58964,1,0,0:0:0:0:
475,192,58964,1,0,0:0:0:0:
256,192,59067,1,0,0:0:0:0:
182,192,59171,1,0,0:0:0:0:
256,192,59274,1,0,0:0:0:0:
182,192,59378,1,0,0:0:0:0:
109,192,59378,1,0,0:0:0:0:
36,192,59378,1,0,0:0:0:0:
256,192,59481,1,0,0:0:0:0:
329,192,59584,1,0,0:0:0:0:
256,192,59688,1,0,0:0:0:0:
36,192,59791,128,0,60205:0:0:0:0:
329,192,59791,1,0,0:0:0:0:
475,192,59895,1,0,0:0:0:0:
329,192,59998,1,0,0:0:0:0:
475,192,60102,1,0,0:0:0:0:
109,192,60205,128,0,60619:0:0:0:0:
402,192,60205,1,0,0:0:0:0:
329,192,60309,1,0,0:0:0:0:
256,192,60412,1,0,0:0:0:0:
329,192,60515,1,0,0:0:0:0:
475,192,60619,128,0,61033:0:0:0:0:
256,192,60619,1,0,0:0:0:0:
329,192,60722,1,0,0:0:0:0:
36,192,60826,1,0,0:0:0:0:
182,192,60929,1,0,0:0:0:0:
402,192,61033,128,0,61446:0:0:0:0:
109,192,61033,1,0,0:0:0:0:
256,192,61136,1,0,0:0:0:0:
182,192,61240,1,0,0:0:0:0:
329,192,61343,1,0,0:0:0:0:
36,192,61446,128,0,61860:0:0:0:0:
256,192,61446,1,0,0:0:0:0:
402,192,61550,1,0,0:0:0:0:
329,192,61653,1,0,0:0:0:0:
475,192,61757,1,0,0:0:0:0:
475,192,61860,128,0,62274:0:0:0:0:
256,192,61860,1,0,0:0:0:0:
402,192,61964,1,0,0:0:0:0:
182,192,62067,1,0,0:0:0:0:
329,192,62171,1,0,0:0:0:0:
109,192,62274,128,0,62688:0:0:0:0:
36,192,62274,1,0,0:0:0:0:
182,192,62378,1,0,0:0:0:0:
329,192,62481,1,0,0:0:0:0:
256,192,62584,1,0,0:0:0:0:
402,192,62688,128,0,63102:0:0:0:0:
475,192,62688,1,0,0:0:0:0:
329,192,62791,1,0,0:0:0:0:
182,192,62895,1,0,0:0:0:0:
329,192,62998,1,0,0:0:0:0:
36,192,63102,128,0,63515:0:0:0:0:
109,192,63102,1,0,0:0:0:0:
329,192,63102,1,0,0:0:0:0:
182,192,63205,1,0,0:0:0:0:
329,192,63309,1,0,0:0:0:0:
256,192,63412,1,0,0:0:0:0:
109,192,63515,128,0,63929:0:0:0:0:
475,192,63515,1,0,0:0:0:0:
329,192,63619,1,0,0:0:0:0:
182,192,63722,1,0,0:0:0:0:
36,192,63826,1,0,0:0:0:0:
329,192,63929,128,0,64343:0:0:0:0:
182,192,63929,1,0,0:0:0:0:
256,192,64033,1,0,0:0:0:0:
475,192,64136,1,0,0:0:0:0:
256,192,64240,1,0,0:0:0:0:
402,192,64343,128,0,64757:0:0:0:0:
182,192,64343,1,0,0:0:0:0:
256,192,64446,1,0,0:0:0:0:
475,192,64550,1,0,0:0:0:0:
182,192,64653,1,0,0:0:0:0:
109,192,64757,128,0,65171:0:0:0:0:
36,192,64757,1,0,0:0:0:0:
256,192,64860,1,0,0:0:0:0:
402,192,64964,1,0,0:0:0:0:
329,192,65067,1,0,0:0:0:0:
36,192,65171,128,0,65584:0:0:0:0:
475,192,65171,1,0,0:0:0:0:
256,192,65274,1,0,0:0:0:0:
402,192,65378,1,0,0:0:0:0:
182,192,65481,1,0,0:0:0:0:
475,192,65584,128,0,65998:0:0:0:0:
402,192,65584,1,0,0:0:0:0:
182,192,65688,1,0,0:0:0:0:
36,192,65791,1,0,0:0:0:0:
109,192,65895,1,0,0:0:0:0:
402,192,65998,128,0,66412:0:0:0:0:
182,192,65998,1,0,0:0:0:0:
109,192,66102,1,0,0:0:0:0:
329,192,66205,1,0,0:0:0:0:
182,192,66309,1,0,0:0:0:0:
256,192,66412,128,0,66826:0:0:0:0:
109,192,66412,1,0,0:0:0:0:
182,192,66515,1,0,0:0:0:0:
475,192,66619,1,0,0:0:0:0:
329,192,66722,1,0,0:0:0:0:
36,192,66826,128,0,67240:0:0:0:0:
402,192,66826,1,0,0:0:0:0:
182,192,66929,1,0,0:0:0:0:
402,192,67033,1,0,0:0:0:0:
182,192,67136,1,0,0:0:0:0:
256,192,67240,128,0,67653:0:0:0:0:
109,192,67240,1,0,0:0:0:0:
36,192,67343,1,0,0:0:0:0:
329,192,67446,1,0,0:0:0:0:
402,192,67550,1,0,0:0:0:0:
109,192,67653,128,0,68067:0:0:0:0:
475,192,67653,1,0,0:0:0:0:
329,192,67757,1,0,0:0:0:0:
402,192,67860,1,0,0:0:0:0:
182,192,67964,1,0,0:0:0:0:
256,192,68067,128,0,68481:0:0:0:0:
109,192,68171,1,0,0:0:0:0:
36,192,68274,1,0,0:0:0:0:
329,192,68378,1,0,0:0:0:0:
402,192,68481,128,0,68895:0:0:0:0:
475,192,68481,1,0,0:0:0:0:
329,192,68584,1,0,0:0:0:0:
109,192,68688,1,0,0:0:0:0:
182,192,68791,1,0,0:0:0:0:
256,192,68895,128,0,69309:0:0:0:0:
329,192,68895,1,0,0:0:0:0:
475,192,68998,1,0,0:0:0:0:
36,192,69102,1,0,0:0:0:0:
182,192,69205,1,0,0:0:0:0:
475,192,69309,128,0,69722:0:0:0:0:
36,192,69309,1,0,0:0:0:0:
402,192,69412,1,0,0:0:0:0:
329,192,69515,1,0,0:0:0:0:
402,192,69619,1,0,0:0:0:0:
36,192,69722,128,0,70136:0:0:0:0:
329,192,69722,1,0,0:0:0:0:
109,192,69826,1,0,0:0:0:0:
329,192,69929,1,0,0:0:0:0:
402,192,70033,1,0,0:0:0:0:
109,192,70136,128,0,70550:0:0:0:0:
475,192,70136,1,0,0:0:0:0:
182,192,70240,1,0,0:0:0:0:
256,192,70343,1,0,0:0:0:0:
182,192,70446,1,0,0:0:0:0:
182,192,70550,128,0,70964:0:0:0:0:
36,192,70550,1,0,0:0:0:0:
256,192,70653,1,0,0:0:0:0:
109,192,70757,1,0,0:0:0:0:
256,192,70860,1,0,0:0:0:0:
256,192,70964,128,0,71378:0:0:0:0:
329,192,70964,1,0,0:0:0:0:
402,192,71067,1,0,0:0:0:0:
475,192,71171,1,0,0:0:0:0:
402,192,71274,1,0,0:0:0:0:
475,192,71378,128,0,71791:0:0:0:0:
109,192,71378,1,0,0:0:0:0:
36,192,71481,1,0,0:0:0:0:
109,192,71584,1,0,0:0:0:0:
182,192,71688,1,0,0:0:0:0:
402,192,71791,128,0,72205:0:0:0:0:
256,192,71791,1,0,0:0:0:0:
475,192,71895,1,0,0:0:0:0:
329,192,71998,1,0,0:0:0:0:
182,192,72102,1,0,0:0:0:0:
329,192,72205,128,0,72619:0:0:0:0:
36,192,72205,1,0,0:0:0:0:
182,192,72309,1,0,0:0:0:0:
475,192,72412,1,0,0:0:0:0:
182,192,72515,1,0,0:0:0:0:
256,192,72619,128,0,73033:0:0:0:0:
36,192,72619,1,0,0:0:0:0:
182,192,72722,1,0,0:0:0:0:
402,192,72826,1,0,0:0:0:0:
475,192,72929,1,0,0:0:0:0:
36,192,73033,128,0,74688:0:0:0:0:
329,192,73033,128,0,74688:0:0:0:0:
475,192,73033,128,0,74688:0:0:0:0:
256,192,73860,1,0,0:0:0:0:
402,192,73860,1,0,0:0:0:0:
402,192,73964,1,0,0:0:0:0:
256,192,73964,1,0,0:0:0:0:
256,192,74067,1,0,0:0:0:0:
402,192,74067,1,0,0:0:0:0:
256,192,74274,1,0,0:0:0:0:
109,192,74274,1,0,0:0:0:0:
109,192,74378,1,0,0:0:0:0:
256,192,74378,1,0,0:0:0:0:
256,192,74481,1,0,0:0:0:0:
109,192,74481,1,0,0:0:0:0:
109,192,74688,128,0,76343:0:0:0:0:
402,192,74688,128,0,76343:0:0:0:0:
256,192,74688,128,0,76343:0:0:0:0:
182,192,75515,1,0,0:0:0:0:
329,192,75515,1,0,0:0:0:0:
329,192,75619,1,0,0:0:0:0:
182,192,75619,1,0,0:0:0:0:
182,192,75722,1,0,0:0:0:0:
329,192,75722,1,0,0:0:0:0:
475,192,75929,1,0,0:0:0:0:
36,192,75929,1,0,0:0:0:0:
36,192,76033,1,0,0:0:0:0:
475,192,76033,1,0,0:0:0:0:
475,192,76136,1,0,0:0:0:0:
36,192,76136,1,0,0:0:0:0:
182,192,76343,128,0,78826:0:0:0:0:
329,192,76343,128,0,78826:0:0:0:0:
475,192,76343,128,0,78826:0:0:0:0:
109,192,77171,1,0,0:0:0:0:
402,192,77171,1,0,0:0:0:0:
402,192,77274,1,0,0:0:0:0:
109,192,77274,1,0,0:0:0:0:
109,192,77378,1,0,0:0:0:0:
402,192,77378,1,0,0:0:0:0:
109,192,77481,1,0,0:0:0:0:
402,192,77481,1,0,0:0:0:0:
256,192,77998,128,0,78205:0:0:0:0:
402,192,77998,128,0,78205:0:0:0:0:
36,192,78412,128,0,78515:0:0:0:0:
256,192,78412,128,0,78515:0:0:0:0:
109,192,78619,128,0,78722:0:0:0:0:
402,192,78619,128,0,78722:0:0:0:0:
36,192,78826,1,0,0:0:0:0:
109,192,78878,1,0,0:0:0:0:
182,192,78929,1,0,0:0:0:0:
256,192,78981,1,0,0:0:0:0:
329,192,79033,1,0,0:0:0:0:
402,192,79084,1,0,0:0:0:0:
475,192,79136,1,0,0:0:0:0:
402,192,79188,1,0,0:0:0:0:
329,192,79240,1,0,0:0:0:0:
256,192,79265,1,0,0:0:0:0:
182,192,79291,1,0,0:0:0:0:
109,192,79317,1,0,0:0:0:0:
36,192,79343,1,0,0:0:0:0:
109,192,79369,1,0,0:0:0:0:
182,192,79395,1,0,0:0:0:0:
256,192,79421,1,0,0:0:0:0:
329,192,79446,1,0,0:0:0:0:
402,192,79472,1,0,0:0:0:0:
475,192,79498,1,0,0:0:0:0:
402,192,79524,1,0,0:0:0:0:
329,192,79550,1,0,0:0:0:0:
256,192,79576,1,0,0:0:0:0:
182,192,79602,1,0,0:0:0:0:
109,192,79628,1,0,0:0:0:0:
475,192,79653,128,0,81309:0:0:0:0:
329,192,79653,128,0,81309:0:0:0:0:
36,192,79653,128,0,81309:0:0:0:0:
182,192,80481,1,0,0:0:0:0:
256,192,80481,1,0,0:0:0:0:
256,192,80584,1,0,0:0:0:0:
182,192,80584,1,0,0:0:0:0:
182,192,80688,1,0,0:0:0:0:
256,192,80688,1,0,0:0:0:0:
402,192,80895,1,0,0:0:0:0:
109,192,80895,1,0,0:0:0:0:
109,192,80998,1,0,0:0:0:0:
402,192,80998,1,0,0:0:0:0:
402,192,81102,1,0,0:0:0:0:
109,192,81102,1,0,0:0:0:0:
109,192,81309,128,0,82964:0:0:0:0:
402,192,81309,128,0,82964:0:0:0:0:
256,192,81309,128,0,82964:0:0:0:0:
329,192,82136,1,0,0:0:0:0:
475,192,82136,1,0,0:0:0:0:
475,192,82240,1,0,0:0:0:0:
329,192,82240,1,0,0:0:0:0:
329,192,82343,1,0,0:0:0:0:
475,192,82343,1,0,0:0:0:0:
182,192,82550,1,0,0:0:0:0:
36,192,82550,1,0,0:0:0:0:
36,192,82653,1,0,0:0:0:0:
182,192,82653,1,0,0:0:0:0:
182,192,82757,1,0,0:0:0:0:
36,192,82757,1,0,0:0:0:0:
329,192,82964,128,0,85860:0:0:0:0:
475,192,82964,128,0,85860:0:0:0:0:
36,192,82964,128,0,85860:0:0:0:0:
256,192,83791,1,0,0:0:0:0:
402,192,83791,1,0,0:0:0:0:
402,192,83895,1,0,0:0:0:0:
256,192,83895,1,0,0:0:0:0:
256,192,83998,1,0,0:0:0:0:
402,192,83998,1,0,0:0:0:0:
256,192,84205,1,0,0:0:0:0:
109,192,84205,1,0,0:0:0:0:
109,192,84619,128,0,85860:0:0:0:0:
182,192,85033,128,0,85860:0:0:0:0:
256,192,85446,128,0,85860:0:0:0:0:
402,192,85860,1,0,0:0:0:0:
475,192,85912,1,0,0:0:0:0:
402,192,85964,1,0,0:0:0:0:
329,192,86015,1,0,0:0:0:0:
256,192,86067,1,0,0:0:0:0:
182,192,86119,1,0,0:0:0:0:
109,192,86171,1,0,0:0:0:0:
36,192,86222,1,0,0:0:0:0:
329,192,86274,1,0,0:0:0:0:
182,192,86274,1,0,0:0:0:0:
402,192,86378,1,0,0:0:0:0:
475,192,86481,1,0,0:0:0:0:
182,192,86584,1,0,0:0:0:0:
256,192,86688,1,0,0:0:0:0:
475,192,86688,1,0,0:0:0:0:
329,192,86791,1,0,0:0:0:0:
36,192,86895,1,0,0:0:0:0:
109,192,86998,1,0,0:0:0:0:
182,192,87102,1,0,0:0:0:0:
256,192,87102,1,0,0:0:0:0:
329,192,87205,1,0,0:0:0:0:
402,192,87309,1,0,0:0:0:0:
475,192,87412,1,0,0:0:0:0:
256,192,87515,1,0,0:0:0:0:
182,192,87515,1,0,0:0:0:0:
329,192,87619,1,0,0:0:0:0:
402,192,87722,1,0,0:0:0:0:
329,192,87826,1,0,0:0:0:0:
109,192,87929,1,0,0:0:0:0:
182,192,87929,1,0,0:0:0:0:
36,192,88033,1,0,0:0:0:0:
109,192,88136,1,0,0:0:0:0:
36,192,88240,1,0,0:0:0:0:
182,192,88343,1,0,0:0:0:0:
402,192,88343,1,0,0:0:0:0:
329,192,88446,1,0,0:0:0:0:
256,192,88550,1,0,0:0:0:0:
329,192,88653,1,0,0:0:0:0:
402,192,88757,1,0,0:0:0:0:
182,192,88757,1,0,0:0:0:0:
475,192,88860,1,0,0:0:0:0:
402,192,88964,1,0,0:0:0:0:
329,192,89067,1,0,0:0:0:0:
182,192,89171,1,0,0:0:0:0:
36,192,89171,1,0,0:0:0:0:
329,192,89274,1,0,0:0:0:0:
256,192,89378,1,0,0:0:0:0:
182,192,89481,1,0,0:0:0:0:
475,192,89584,1,0,0:0:0:0:
256,192,89584,1,0,0:0:0:0:
329,192,89688,1,0,0:0:0:0:
182,192,89791,1,0,0:0:0:0:
109,192,89895,1,0,0:0:0:0:
329,192,89998,1,0,0:0:0:0:
402,192,89998,1,0,0:0:0:0:
182,192,90102,1,0,0:0:0:0:
402,192,90205,1,0,0:0:0:0:
36,192,90309,1,0,0:0:0:0:
475,192,90412,1,0,0:0:0:0:
402,192,90412,1,0,0:0:0:0:
182,192,90515,1,0,0:0:0:0:
475,192,90619,1,0,0:0:0:0:
182,192,90722,1,0,0:0:0:0:
402,192,90826,1,0,0:0:0:0:
256,192,90826,1,0,0:0:0:0:
36,192,90929,1,0,0:0:0:0:
329,192,91033,1,0,0:0:0:0:
109,192,91136,1,0,0:0:0:0:
182,192,91240,1,0,0:0:0:0:
329,192,91240,1,0,0:0:0:0:
475,192,91343,1,0,0:0:0:0:
182,192,91446,1,0,0:0:0:0:
36,192,91550,1,0,0:0:0:0:
475,192,91653,1,0,0:0:0:0:
402,192,91653,1,0,0:0:0:0:
109,192,91757,1,0,0:0:0:0:
475,192,91860,1,0,0:0:0:0:
402,192,91964,1,0,0:0:0:0:
109,192,92067,1,0,0:0:0:0:
36,192,92067,1,0,0:0:0:0:
329,192,92171,1,0,0:0:0:0:
182,192,92274,1,0,0:0:0:0:
475,192,92378,1,0,0:0:0:0:
109,192,92378,1,0,0:0:0:0:
182,192,92481,1,0,0:0:0:0:
329,192,92481,1,0,0:0:0:0:
36,192,92584,1,0,0:0:0:0:
402,192,92688,1,0,0:0:0:0:
475,192,92791,1,0,0:0:0:0:
182,192,92895,1,0,0:0:0:0:
109,192,92895,1,0,0:0:0:0:
36,192,92895,1,0,0:0:0:0:
475,192,93102,1,0,0:0:0:0:
329,192,93102,1,0,0:0:0:0:
402,192,93205,1,0,0:0:0:0:
256,192,93205,1,0,0:0:0:0:
329,192,93309,1,0,0:0:0:0:
475,192,93309,1,0,0:0:0:0:
402,192,93515,1,0,0:0:0:0:
256,192,93515,1,0,0:0:0:0:
182,192,93722,1,0,0:0:0:0:
36,192,93722,1,0,0:0:0:0:
256,192,93929,1,0,0:0:0:0:
402,192,93929,1,0,0:0:0:0:
36,192,94136,128,0,94550:0:0:0:0:
182,192,94136,128,0,94550:0:0:0:0:
329,192,94136,128,0,94550:0:0:0:0:
475,192,94136,128,0,94550:0:0:0:0:
109,192,94550,1,0,0:0:0:0:
256,192,94550,1,0,0:0:0:0:
402,192,94550,1,0,0:0:0:0:
109,192,94756,1,0,0:0:0:0:
256,192,94756,1,0,0:0:0:0:
402,192,94756,1,0,0:0:0:0:
329,192,94963,1,0,0:0:0:0:
256,192,94963,1,0,0:0:0:0:
182,192,94963,1,0,0:0:0:0:
36,192,95170,1,0,0:0:0:0:
109,192,95170,1,0,0:0:0:0:
329,192,95170,1,0,0:0:0:0:
182,192,95377,1,0,0:0:0:0:
329,192,95377,1,0,0:0:0:0:
475,192,95377,1,0,0:0:0:0:
475,192,95584,1,0,0:0:0:0:
256,192,95584,1,0,0:0:0:0:
182,192,95584,1,0,0:0:0:0:
36,192,95791,128,0,96205:0:0:0:0:
109,192,95791,128,0,96205:0:0:0:0:
475,192,95791,128,0,96205:0:0:0:0:
402,192,95791,128,0,96205:0:0:0:0:
182,192,96205,1,0,0:0:0:0:
329,192,96205,1,0,0:0:0:0:
256,192,96308,1,0,0:0:0:0:
329,192,96411,1,0,0:0:0:0:
402,192,96515,1,0,0:0:0:0:
475,192,96618,1,0,0:0:0:0:
256,192,96722,1,0,0:0:0:0:
402,192,96825,1,0,0:0:0:0:
329,192,96929,1,0,0:0:0:0:
182,192,97032,1,0,0:0:0:0:
36,192,97136,1,0,0:0:0:0:
329,192,97239,1,0,0:0:0:0:
475,192,97342,1,0,0:0:0:0:
329,192,97446,1,0,0:0:0:0:
182,192,97549,1,0,0:0:0:0:
109,192,97653,1,0,0:0:0:0:
402,192,97756,1,0,0:0:0:0:
36,192,97860,1,0,0:0:0:0:
475,192,97911,1,0,0:0:0:0:
109,192,97963,1,0,0:0:0:0:
402,192,98015,1,0,0:0:0:0:
36,192,98067,1,0,0:0:0:0:
475,192,98118,1,0,0:0:0:0:
109,192,98170,1,0,0:0:0:0:
402,192,98222,1,0,0:0:0:0:
36,192,98273,1,0,0:0:0:0:
475,192,98325,1,0,0:0:0:0:
182,192,98377,1,0,0:0:0:0:
329,192,98429,1,0,0:0:0:0:
109,192,98480,1,0,0:0:0:0:
402,192,98532,1,0,0:0:0:0:
182,192,98584,1,0,0:0:0:0:
329,192,98636,1,0,0:0:0:0:
109,192,98687,1,0,0:0:0:0:
402,192,98739,1,0,0:0:0:0:
329,192,98791,1,0,0:0:0:0:
256,192,98842,1,0,0:0:0:0:
182,192,98894,1,0,0:0:0:0:
109,192,98946,1,0,0:0:0:0:
36,192,98998,1,0,0:0:0:0:
109,192,99049,1,0,0:0:0:0:
182,192,99101,1,0,0:0:0:0:
256,192,99153,1,0,0:0:0:0:
329,192,99205,1,0,0:0:0:0:
402,192,99256,1,0,0:0:0:0:
475,192,99308,1,0,0:0:0:0:
402,192,99360,1,0,0:0:0:0:
329,192,99411,1,0,0:0:0:0:
256,192,99463,1,0,0:0:0:0:
36,192,99515,1,0,0:0:0:0:
109,192,99515,1,0,0:0:0:0:
182,192,99618,1,0,0:0:0:0:
329,192,99722,1,0,0:0:0:0:
182,192,99825,1,0,0:0:0:0:
36,192,99929,1,0,0:0:0:0:
109,192,99929,1,0,0:0:0:0:
329,192,100032,1,0,0:0:0:0:
256,192,100136,1,0,0:0:0:0:
475,192,100239,1,0,0:0:0:0:
402,192,100342,1,0,0:0:0:0:
256,192,100342,1,0,0:0:0:0:
182,192,100446,1,0,0:0:0:0:
329,192,100549,1,0,0:0:0:0:
109,192,100653,1,0,0:0:0:0:
182,192,100756,1,0,0:0:0:0:
329,192,100756,1,0,0:0:0:0:
402,192,100860,1,0,0:0:0:0:
256,192,100963,1,0,0:0:0:0:
109,192,101067,1,0,0:0:0:0:
256,192,101170,1,0,0:0:0:0:
36,192,101170,1,0,0:0:0:0:
402,192,101273,1,0,0:0:0:0:
475,192,101377,1,0,0:0:0:0:
256,192,101480,1,0,0:0:0:0:
36,192,101584,1,0,0:0:0:0:
402,192,101584,1,0,0:0:0:0:
256,192,101687,1,0,0:0:0:0:
475,192,101791,1,0,0:0:0:0:
402,192,101894,1,0,0:0:0:0:
329,192,101998,1,0,0:0:0:0:
182,192,101998,1,0,0:0:0:0:
402,192,102101,1,0,0:0:0:0:
475,192,102205,1,0,0:0:0:0:
36,192,102308,1,0,0:0:0:0:
109,192,102411,1,0,0:0:0:0:
256,192,102411,1,0,0:0:0:0:
182,192,102515,1,0,0:0:0:0:
109,192,102618,1,0,0:0:0:0:
36,192,102722,1,0,0:0:0:0:
109,192,102825,1,0,0:0:0:0:
475,192,102825,1,0,0:0:0:0:
182,192,102929,1,0,0:0:0:0:
109,192,103032,1,0,0:0:0:0:
402,192,103136,1,0,0:0:0:0:
329,192,103239,1,0,0:0:0:0:
36,192,103239,1,0,0:0:0:0:
402,192,103342,1,0,0:0:0:0:
182,192,103446,1,0,0:0:0:0:
329,192,103549,1,0,0:0:0:0:
182,192,103653,1,0,0:0:0:0:
109,192,103653,1,0,0:0:0:0:
329,192,103756,1,0,0:0:0:0:
475,192,103860,1,0,0:0:0:0:
329,192,103963,1,0,0:0:0:0:
182,192,104067,1,0,0:0:0:0:
256,192,104067,1,0,0:0:0:0:
36,192,104170,1,0,0:0:0:0:
109,192,104273,1,0,0:0:0:0:
402,192,104377,1,0,0:0:0:0:
109,192,104480,1,0,0:0:0:0:
36,192,104480,1,0,0:0:0:0:
182,192,104584,1,0,0:0:0:0:
256,192,104687,1,0,0:0:0:0:
329,192,104791,1,0,0:0:0:0:
402,192,104894,1,0,0:0:0:0:
475,192,104894,1,0,0:0:0:0:
182,192,104998,1,0,0:0:0:0:
109,192,105101,1,0,0:0:0:0:
402,192,105205,1,0,0:0:0:0:
329,192,105308,1,0,0:0:0:0:
256,192,105308,1,0,0:0:0:0:
36,192,105411,1,0,0:0:0:0:
109,192,105515,1,0,0:0:0:0:
402,192,105618,1,0,0:0:0:0:
475,192,105722,1,0,0:0:0:0:
402,192,105722,1,0,0:0:0:0:
329,192,105825,1,0,0:0:0:0:
402,192,105929,1,0,0:0:0:0:
329,192,106032,1,0,0:0:0:0:
182,192,106136,1,0,0:0:0:0:
402,192,106136,1,0,0:0:0:0:
109,192,106239,1,0,0:0:0:0:
329,192,106342,1,0,0:0:0:0:
256,192,106446,1,0,0:0:0:0:
109,192,106549,1,0,0:0:0:0:
182,192,106549,1,0,0:0:0:0:
36,192,106653,1,0,0:0:0:0:
402,192,106756,1,0,0:0:0:0:
329,192,106860,1,0,0:0:0:0:
475,192,106963,1,0,0:0:0:0:
256,192,106963,1,0,0:0:0:0:
182,192,107067,1,0,0:0:0:0:
109,192,107170,1,0,0:0:0:0:
256,192,107273,1,0,0:0:0:0:
402,192,107377,1,0,0:0:0:0:
256,192,107377,1,0,0:0:0:0:
182,192,107480,1,0,0:0:0:0:
36,192,107584,1,0,0:0:0:0:
256,192,107687,1,0,0:0:0:0:
329,192,107791,1,0,0:0:0:0:
475,192,107791,1,0,0:0:0:0:
256,192,107894,1,0,0:0:0:0:
475,192,107998,1,0,0:0:0:0:
182,192,108101,1,0,0:0:0:0:
109,192,108205,1,0,0:0:0:0:
36,192,108205,1,0,0:0:0:0:
329,192,108308,1,0,0:0:0:0:
256,192,108411,1,0,0:0:0:0:
402,192,108515,1,0,0:0:0:0:
256,192,108618,1,0,0:0:0:0:
329,192,108618,1,0,0:0:0:0:
182,192,108722,1,0,0:0:0:0:
36,192,108825,1,0,0:0:0:0:
109,192,108929,1,0,0:0:0:0:
329,192,109032,1,0,0:0:0:0:
256,192,109032,1,0,0:0:0:0:
402,192,109136,1,0,0:0:0:0:
329,192,109239,1,0,0:0:0:0:
109,192,109342,1,0,0:0:0:0:
475,192,109446,1,0,0:0:0:0:
402,192,109549,1,0,0:0:0:0:
329,192,109653,1,0,0:0:0:0:
256,192,109756,1,0,0:0:0:0:
36,192,109860,1,0,0:0:0:0:
109,192,109963,1,0,0:0:0:0:
182,192,110067,1,0,0:0:0:0:
256,192,110170,1,0,0:0:0:0:
475,192,110273,1,0,0:0:0:0:
402,192,110377,1,0,0:0:0:0:
329,192,110480,1,0,0:0:0:0:
256,192,110584,1,0,0:0:0:0:
36,192,110687,1,0,0:0:0:0:
109,192,110791,1,0,0:0:0:0:
182,192,110894,1,0,0:0:0:0:
256,192,110998,1,0,0:0:0:0:
475,192,111101,1,0,0:0:0:0:
402,192,111153,1,0,0:0:0:0:
329,192,111205,1,0,0:0:0:0:
256,192,111256,1,0,0:0:0:0:
36,192,111308,1,0,0:0:0:0:
109,192,111360,1,0,0:0:0:0:
182,192,111411,1,0,0:0:0:0:
256,192,111463,1,0,0:0:0:0:
475,192,111515,1,0,0:0:0:0:
402,192,111567,1,0,0:0:0:0:
329,192,111618,1,0,0:0:0:0:
256,192,111670,1,0,0:0:0:0:
36,192,111722,1,0,0:0:0:0:
109,192,111773,1,0,0:0:0:0:
182,192,111825,1,0,0:0:0:0:
256,192,111877,1,0,0:0:0:0:
402,192,111929,1,0,0:0:0:0:
109,192,111955,1,0,0:0:0:0:
329,192,111980,1,0,0:0:0:0:
182,192,112006,1,0,0:0:0:0:
402,192,112032,1,0,0:0:0:0:
109,192,112058,1,0,0:0:0:0:
329,192,112084,1,0,0:0:0:0:
182,192,112110,1,0,0:0:0:0:
402,192,112136,1,0,0:0:0:0:
109,192,112161,1,0,0:0:0:0:
329,192,112187,1,0,0:0:0:0:
182,192,112213,1,0,0:0:0:0:
402,192,112239,1,0,0:0:0:0:
109,192,112265,1,0,0:0:0:0:
329,192,112291,1,0,0:0:0:0:
182,192,112317,1,0,0:0:0:0:
402,192,112342,1,0,0:0:0:0:
109,192,112368,1,0,0:0:0:0:
329,192,112394,1,0,0:0:0:0:
182,192,112420,1,0,0:0:0:0:
402,192,112446,1,0,0:0:0:0:
109,192,112472,1,0,0:0:0:0:
329,192,112498,1,0,0:0:0:0:
182,192,112523,1,0,0:0:0:0:
402,192,112549,1,0,0:0:0:0:
109,192,112575,1,0,0:0:0:0:
329,192,112601,1,0,0:0:0:0:
182,192,112627,1,0,0:0:0:0:
402,192,112653,1,0,0:0:0:0:
109,192,112679,1,0,0:0:0:0:
329,192,112705,1,0,0:0:0:0:
182,192,112730,1,0,0:0:0:0:
36,192,112756,128,0,114411:0:0:0:0:
256,192,112756,128,0,114411:0:0:0:0:
475,192,112756,128,0,114411:0:0:0:0:
329,192,114411,128,0,117721:0:0:0:0:
182,192,114411,128,0,117721:0:0:0:0:
109,192,115859,1,0,0:0:0:0:
402,192,115962,1,0,0:0:0:0:
109,192,116066,1,0,0:0:0:0:
402,192,116169,1,0,0:0:0:0:
109,192,116273,1,0,0:0:0:0:
402,192,116376,1,0,0:0:0:0:
109,192,116479,1,0,0:0:0:0:
402,192,116583,1,0,0:0:0:0:
109,192,116686,1,0,0:0:0:0:
402,192,116790,1,0,0:0:0:0:
109,192,116893,1,0,0:0:0:0:
402,192,116997,1,0,0:0:0:0:
109,192,117100,1,0,0:0:0:0:
402,192,117204,1,0,0:0:0:0:
109,192,117307,1,0,0:0:0:0:
402,192,117411,1,0,0:0:0:0:
109,192,117514,1,0,0:0:0:0:
402,192,117617,1,0,0:0:0:0:
256,192,117721,128,0,118548:0:0:0:0:
109,192,117721,1,0,0:0:0:0:
402,192,117721,1,0,0:0:0:0:
