osu file format v14

[General]
AudioFilename: Identity part III.mp3
AudioLeadIn: 0
PreviewTime: 54533
Countdown: 0
SampleSet: Normal
StackLeniency: 0.7
Mode: 3
LetterboxInBreaks: 0
SpecialStyle: 0
WidescreenStoryboard: 0
SamplesMatchPlaybackRate: 1

[Editor]
DistanceSpacing: 0.8
BeatDivisor: 4
GridSize: 8
TimelineZoom: 2.4

[Metadata]
Title:Identity Part III
TitleUnicode:Identity Part III
Artist:SHK
ArtistUnicode:SHK
Creator:paperlens
Version:HD
Source:O2Jam
Tags:Sound​Holic​K trancecore shiki Shin Hyun Keun
BeatmapID:683857
BeatmapSetID:304831

[Difficulty]
HPDrainRate:7.5
CircleSize:4
OverallDifficulty:7.5
ApproachRate:5
SliderMultiplier:1.4
SliderTickRate:1

[Events]
//Background and Video events
0,0,"BG.png",0,0
//Break Periods
//Storyboard Layer 0 (Background)
//Storyboard Layer 1 (Fail)
//Storyboard Layer 2 (Pass)
//Storyboard Layer 3 (Foreground)
//Storyboard Sound Samples

[TimingPoints]
1733,400,4,1,1,50,1,0
35333,-100,4,1,1,50,0,1
48133,-100,4,1,1,50,0,0
54533,-100,4,1,1,50,0,1
80133,-100,4,1,1,50,0,0
105733,-100,4,1,1,50,0,1
118533,-100,4,1,1,50,0,0

[HitObjects]
448,192,4533,128,0,4933:0:0:0:40:normal-hitnormal6.wav
320,192,6933,128,0,7133:0:0:0:40:normal-hitnormal609.wav
64,192,7133,128,0,7333:0:0:0:40:normal-hitnormal610.wav
192,192,7333,1,0,0:0:0:40:normal-hitnormal611.wav
192,192,7533,1,0,0:0:0:40:normal-hitnormal611.wav
448,192,7733,128,0,7933:0:0:0:0:
192,192,7933,128,0,8133:0:0:0:0:
320,192,8133,128,0,8933:0:0:0:0:
64,192,8933,128,0,9333:0:0:0:40:normal-hitnormal13.wav
192,192,8933,1,0,0:0:0:40:normal-hitnormal6.wav
320,192,9333,1,0,0:0:0:40:normal-hitnormal612.wav
448,192,9733,1,0,0:0:0:40:normal-hitnormal4.wav
64,192,9733,1,0,0:0:0:40:normal-hitnormal7.wav
192,192,9733,1,0,0:0:0:40:normal-hitnormal572.wav
320,192,9933,1,0,0:0:0:40:normal-hitnormal573.wav
64,192,10133,1,0,0:0:0:0:
64,192,10533,1,0,0:0:0:0:
64,192,10933,1,0,0:0:0:0:
192,192,11133,1,0,0:0:0:40:normal-hitnormal574.wav
64,192,11333,1,0,0:0:0:40:normal-hitnormal575.wav
448,192,11333,1,0,0:0:0:0:
320,192,11533,1,0,0:0:0:40:normal-hitnormal576.wav
448,192,11733,1,0,0:0:0:0:
448,192,12133,1,0,0:0:0:0:
448,192,12533,1,0,0:0:0:0:
320,192,12733,1,0,0:0:0:40:normal-hitnormal577.wav
448,192,12933,1,0,0:0:0:40:normal-hitnormal578.wav
192,192,12933,1,0,0:0:0:0:
64,192,13133,1,0,0:0:0:40:normal-hitnormal579.wav
192,192,13333,1,0,0:0:0:0:
192,192,13733,1,0,0:0:0:0:
192,192,14133,1,0,0:0:0:0:
64,192,14333,1,0,0:0:0:40:normal-hitnormal580.wav
192,192,14533,1,0,0:0:0:40:normal-hitnormal581.wav
320,192,14533,1,0,0:0:0:0:
448,192,14733,1,0,0:0:0:40:normal-hitnormal582.wav
320,192,14933,1,0,0:0:0:0:
320,192,15333,1,0,0:0:0:0:
320,192,15733,1,0,0:0:0:0:
192,192,15933,1,0,0:0:0:40:normal-hitnormal583.wav
320,192,16133,1,0,0:0:0:40:normal-hitnormal584.wav
448,192,16133,1,0,0:0:0:40:normal-hitnormal7.wav
64,192,16333,1,0,0:0:0:40:normal-hitnormal585.wav
448,192,16533,1,0,0:0:0:40:normal-hitnormal7.wav
320,192,16533,1,0,0:0:0:0:
192,192,16733,1,0,0:0:0:0:
448,192,16933,1,0,0:0:0:40:normal-hitnormal7.wav
320,192,16933,1,0,0:0:0:0:
64,192,17133,1,0,0:0:0:0:
320,192,17333,1,0,0:0:0:40:normal-hitnormal7.wav
448,192,17333,1,0,0:0:0:0:
192,192,17533,1,0,0:0:0:40:normal-hitnormal586.wav
320,192,17733,1,0,0:0:0:40:normal-hitnormal587.wav
64,192,17733,1,0,0:0:0:40:normal-hitnormal7.wav
448,192,17933,1,0,0:0:0:40:normal-hitnormal588.wav
64,192,18133,1,0,0:0:0:40:normal-hitnormal7.wav
320,192,18133,1,0,0:0:0:0:
192,192,18333,1,0,0:0:0:0:
64,192,18533,1,0,0:0:0:40:normal-hitnormal7.wav
320,192,18533,1,0,0:0:0:0:
448,192,18733,1,0,0:0:0:0:
64,192,18933,1,0,0:0:0:40:normal-hitnormal7.wav
320,192,18933,1,0,0:0:0:0:
192,192,19133,1,0,0:0:0:40:normal-hitnormal589.wav
64,192,19333,1,0,0:0:0:40:normal-hitnormal590.wav
448,192,19333,1,0,0:0:0:40:normal-hitnormal7.wav
320,192,19533,1,0,0:0:0:40:normal-hitnormal591.wav
64,192,19733,1,0,0:0:0:40:normal-hitnormal7.wav
448,192,19733,1,0,0:0:0:0:
192,192,19933,1,0,0:0:0:0:
64,192,20133,1,0,0:0:0:40:normal-hitnormal7.wav
448,192,20133,1,0,0:0:0:0:
320,192,20333,1,0,0:0:0:0:
64,192,20533,1,0,0:0:0:40:normal-hitnormal7.wav
448,192,20533,1,0,0:0:0:0:
192,192,20733,1,0,0:0:0:40:normal-hitnormal592.wav
64,192,20933,128,0,22133:0:0:0:0:
448,192,20933,1,0,0:0:0:40:normal-hitnormal593.wav
320,192,21133,1,0,0:0:0:40:normal-hitnormal594.wav
192,192,21333,1,8,0:0:0:0:
448,192,21533,1,0,0:0:0:0:
192,192,21733,1,8,0:0:0:0:
448,192,21933,1,0,0:0:0:0:
320,192,22133,1,0,0:0:0:40:normal-hitnormal2.wav
320,192,22533,1,0,0:0:0:40:normal-hitnormal7.wav
448,192,22533,1,0,0:0:0:40:normal-hitnormal4.wav
192,192,22533,1,0,0:0:0:0:
64,192,22733,1,0,0:0:0:40:normal-hitnormal21.wav
448,192,22933,1,0,0:0:0:40:normal-hitnormal11.wav
192,192,22933,1,0,0:0:0:40:normal-hitnormal7.wav
320,192,23133,1,0,0:0:0:40:normal-hitnormal21.wav
192,192,23333,1,0,0:0:0:40:normal-hitnormal8.wav
64,192,23333,1,0,0:0:0:40:normal-hitnormal7.wav
448,192,23533,1,0,0:0:0:40:normal-hitnormal21.wav
64,192,23733,1,0,0:0:0:40:normal-hitnormal7.wav
320,192,23733,1,0,0:0:0:40:normal-hitnormal11.wav
448,192,23933,1,0,0:0:0:40:normal-hitnormal21.wav
64,192,24133,1,0,0:0:0:40:normal-hitnormal7.wav
192,192,24133,1,0,0:0:0:40:normal-hitnormal8.wav
320,192,24333,1,0,0:0:0:40:normal-hitnormal21.wav
64,192,24533,1,0,0:0:0:40:normal-hitnormal7.wav
448,192,24533,1,0,0:0:0:40:normal-hitnormal11.wav
192,192,24733,1,0,0:0:0:40:normal-hitnormal21.wav
320,192,24933,1,0,0:0:0:40:normal-hitnormal7.wav
448,192,24933,1,0,0:0:0:40:normal-hitnormal8.wav
64,192,25133,1,0,0:0:0:40:normal-hitnormal21.wav
192,192,25333,1,0,0:0:0:40:normal-hitnormal7.wav
448,192,25333,1,0,0:0:0:40:normal-hitnormal11.wav
64,192,25533,1,0,0:0:0:40:normal-hitnormal21.wav
448,192,25733,1,0,0:0:0:40:normal-hitnormal8.wav
320,192,25733,1,0,0:0:0:40:normal-hitnormal7.wav
192,192,25933,1,0,0:0:0:40:normal-hitnormal21.wav
448,192,26133,1,0,0:0:0:40:normal-hitnormal11.wav
64,192,26133,1,0,0:0:0:40:normal-hitnormal7.wav
320,192,26333,1,0,0:0:0:40:normal-hitnormal21.wav
192,192,26533,1,0,0:0:0:40:normal-hitnormal8.wav
64,192,26533,1,0,0:0:0:40:normal-hitnormal7.wav
448,192,26733,1,0,0:0:0:40:normal-hitnormal21.wav
64,192,26933,1,0,0:0:0:40:normal-hitnormal7.wav
320,192,26933,1,0,0:0:0:40:normal-hitnormal11.wav
448,192,27133,1,0,0:0:0:40:normal-hitnormal21.wav
64,192,27333,1,0,0:0:0:40:normal-hitnormal7.wav
192,192,27333,1,0,0:0:0:40:normal-hitnormal8.wav
320,192,27533,1,0,0:0:0:40:normal-hitnormal21.wav
448,192,27733,1,0,0:0:0:40:normal-hitnormal11.wav
64,192,27733,1,0,0:0:0:40:normal-hitnormal7.wav
192,192,27933,1,0,0:0:0:40:normal-hitnormal21.wav
320,192,28133,1,0,0:0:0:40:normal-hitnormal7.wav
448,192,28133,1,0,0:0:0:40:normal-hitnormal8.wav
64,192,28333,1,0,0:0:0:40:normal-hitnormal21.wav
192,192,28533,1,0,0:0:0:40:normal-hitnormal7.wav
448,192,28533,1,0,0:0:0:40:normal-hitnormal11.wav
64,192,28733,1,0,0:0:0:40:normal-hitnormal21.wav
192,192,28933,1,0,0:0:0:40:normal-hitnormal7.wav
320,192,28933,1,0,0:0:0:40:normal-hitnormal8.wav
448,192,29133,1,0,0:0:0:40:normal-hitnormal21.wav
64,192,29333,1,0,0:0:0:40:normal-hitnormal7.wav
320,192,29333,1,0,0:0:0:40:normal-hitnormal11.wav
448,192,29533,1,0,0:0:0:40:normal-hitnormal21.wav
64,192,29733,1,0,0:0:0:40:normal-hitnormal7.wav
192,192,29733,1,0,0:0:0:40:normal-hitnormal8.wav
448,192,29933,1,0,0:0:0:40:normal-hitnormal21.wav
64,192,30133,1,0,0:0:0:40:normal-hitnormal7.wav
320,192,30133,1,0,0:0:0:40:normal-hitnormal11.wav
448,192,30333,1,0,0:0:0:40:normal-hitnormal21.wav
320,192,30533,1,0,0:0:0:40:normal-hitnormal8.wav
192,192,30533,1,0,0:0:0:40:normal-hitnormal7.wav
64,192,30733,1,0,0:0:0:40:normal-hitnormal21.wav
192,192,30933,1,0,0:0:0:40:normal-hitnormal7.wav
448,192,30933,1,0,0:0:0:40:normal-hitnormal11.wav
64,192,31133,1,0,0:0:0:40:normal-hitnormal21.wav
320,192,31333,1,0,0:0:0:40:normal-hitnormal7.wav
448,192,31333,1,0,0:0:0:40:normal-hitnormal8.wav
64,192,31533,1,0,0:0:0:40:normal-hitnormal21.wav
192,192,31733,1,0,0:0:0:40:normal-hitnormal7.wav
448,192,31733,1,0,0:0:0:40:normal-hitnormal11.wav
64,192,31933,1,0,0:0:0:40:normal-hitnormal21.wav
192,192,32133,1,0,0:0:0:40:normal-hitnormal7.wav
320,192,32133,1,0,0:0:0:40:normal-hitnormal8.wav
448,192,32333,1,0,0:0:0:40:normal-hitnormal21.wav
64,192,32533,1,0,0:0:0:40:normal-hitnormal7.wav
320,192,32533,1,0,0:0:0:40:normal-hitnormal11.wav
448,192,32733,1,0,0:0:0:40:normal-hitnormal21.wav
64,192,32933,1,0,0:0:0:40:normal-hitnormal7.wav
192,192,32933,1,0,0:0:0:40:normal-hitnormal8.wav
448,192,33133,1,0,0:0:0:40:normal-hitnormal21.wav
64,192,33333,1,0,0:0:0:40:normal-hitnormal7.wav
320,192,33333,1,0,0:0:0:40:normal-hitnormal11.wav
448,192,33533,1,0,0:0:0:40:normal-hitnormal21.wav
320,192,33733,1,0,0:0:0:40:normal-hitnormal7.wav
192,192,33733,1,0,0:0:0:40:normal-hitnormal8.wav
448,192,33833,1,0,0:0:0:40:normal-hitnormal14.wav
64,192,33933,1,0,0:0:0:40:normal-hitnormal14.wav
192,192,34133,1,0,0:0:0:40:normal-hitnormal7.wav
448,192,34133,1,0,0:0:0:40:normal-hitnormal11.wav
64,192,34333,1,0,0:0:0:40:normal-hitnormal79.wav
192,192,34433,1,0,0:0:0:40:normal-hitnormal80.wav
320,192,34533,1,0,0:0:0:40:normal-hitnormal7.wav
448,192,34533,1,0,0:0:0:40:normal-hitnormal8.wav
64,192,34733,1,0,0:0:0:40:normal-hitnormal81.wav
192,192,34833,1,0,0:0:0:40:normal-hitnormal82.wav
448,192,34933,1,0,0:0:0:40:normal-hitnormal11.wav
320,192,34933,1,0,0:0:0:40:normal-hitnormal7.wav
64,192,35033,1,0,0:0:0:40:normal-hitnormal83.wav
192,192,35133,1,0,0:0:0:40:normal-hitnormal84.wav
320,192,35333,128,0,35533:0:0:0:40:normal-hitnormal87.wav
448,192,35333,1,0,0:0:0:40:normal-hitnormal7.wav
64,192,35533,128,0,35733:0:0:0:40:normal-hitnormal88.wav
448,192,35733,128,0,35933:0:0:0:40:normal-hitnormal89.wav
64,192,35933,128,0,36133:0:0:0:40:normal-hitnormal90.wav
320,192,36133,128,0,36333:0:0:0:40:normal-hitnormal91.wav
64,192,36333,128,0,36533:0:0:0:40:normal-hitnormal92.wav
320,192,36533,1,0,0:0:0:40:normal-hitnormal93.wav
192,192,36633,1,0,0:0:0:40:normal-hitnormal94.wav
448,192,36733,128,0,36933:0:0:0:40:normal-hitnormal96.wav
192,192,36933,128,0,37133:0:0:0:40:normal-hitnormal97.wav
64,192,37133,128,0,37333:0:0:0:40:normal-hitnormal98.wav
320,192,37333,128,0,37533:0:0:0:40:normal-hitnormal99.wav
64,192,37533,128,0,37733:0:0:0:40:normal-hitnormal100.wav
192,192,37733,128,0,37933:0:0:0:40:normal-hitnormal101.wav
64,192,37933,128,0,38133:0:0:0:40:normal-hitnormal102.wav
320,192,38133,1,0,0:0:0:40:normal-hitnormal103.wav
192,192,38233,1,0,0:0:0:40:normal-hitnormal104.wav
448,192,38333,128,0,38533:0:0:0:40:normal-hitnormal105.wav
320,192,38533,128,0,38733:0:0:0:40:normal-hitnormal106.wav
64,192,38733,128,0,38933:0:0:0:40:normal-hitnormal107.wav
448,192,38933,128,0,39133:0:0:0:40:normal-hitnormal108.wav
64,192,39133,128,0,39333:0:0:0:40:normal-hitnormal109.wav
320,192,39333,128,0,39533:0:0:0:40:normal-hitnormal110.wav
64,192,39533,128,0,39733:0:0:0:40:normal-hitnormal111.wav
320,192,39733,1,0,0:0:0:40:normal-hitnormal112.wav
192,192,39833,1,0,0:0:0:40:normal-hitnormal113.wav
448,192,39933,128,0,40133:0:0:0:40:normal-hitnormal114.wav
192,192,40133,128,0,40333:0:0:0:40:normal-hitnormal115.wav
64,192,40333,128,0,40533:0:0:0:40:normal-hitnormal116.wav
320,192,40533,128,0,40733:0:0:0:40:normal-hitnormal117.wav
64,192,40733,128,0,40933:0:0:0:40:normal-hitnormal118.wav
448,192,40933,128,0,41133:0:0:0:40:normal-hitnormal119.wav
192,192,41133,128,0,41333:0:0:0:40:normal-hitnormal120.wav
448,192,41333,1,0,0:0:0:40:normal-hitnormal121.wav
64,192,41433,1,0,0:0:0:40:normal-hitnormal122.wav
320,192,41533,128,0,41733:0:0:0:40:normal-hitnormal123.wav
64,192,41733,1,0,0:0:0:40:normal-hitnormal125.wav
192,192,41733,1,0,0:0:0:40:normal-hitnormal7.wav
448,192,41933,1,0,0:0:0:40:normal-hitnormal126.wav
64,192,42133,1,0,0:0:0:40:normal-hitnormal127.wav
320,192,42133,1,0,0:0:0:40:normal-hitnormal7.wav
448,192,42333,1,0,0:0:0:40:normal-hitnormal128.wav
192,192,42533,1,0,0:0:0:40:normal-hitnormal7.wav
320,192,42533,1,0,0:0:0:40:normal-hitnormal129.wav
64,192,42633,1,0,0:0:0:40:normal-hitnormal130.wav
448,192,42733,1,0,0:0:0:40:normal-hitnormal131.wav
192,192,42933,1,0,0:0:0:40:normal-hitnormal7.wav
320,192,42933,1,0,0:0:0:40:normal-hitnormal132.wav
448,192,43033,1,0,0:0:0:40:normal-hitnormal133.wav
64,192,43133,1,0,0:0:0:40:normal-hitnormal134.wav
320,192,43333,1,0,0:0:0:40:normal-hitnormal7.wav
448,192,43333,1,0,0:0:0:40:normal-hitnormal135.wav
64,192,43533,1,0,0:0:0:40:normal-hitnormal136.wav
192,192,43733,1,0,0:0:0:40:normal-hitnormal7.wav
448,192,43733,1,0,0:0:0:40:normal-hitnormal137.wav
64,192,43933,1,0,0:0:0:40:normal-hitnormal138.wav
192,192,44133,1,0,0:0:0:40:normal-hitnormal139.wav
320,192,44133,1,0,0:0:0:40:normal-hitnormal7.wav
448,192,44233,1,0,0:0:0:40:normal-hitnormal140.wav
64,192,44333,1,0,0:0:0:40:normal-hitnormal141.wav
192,192,44533,1,0,0:0:0:40:normal-hitnormal142.wav
320,192,44533,1,0,0:0:0:40:normal-hitnormal7.wav
64,192,44633,1,0,0:0:0:40:normal-hitnormal143.wav
448,192,44733,1,0,0:0:0:40:normal-hitnormal144.wav
192,192,44933,1,0,0:0:0:40:normal-hitnormal7.wav
64,192,44933,1,0,0:0:0:40:normal-hitnormal145.wav
448,192,45133,1,0,0:0:0:40:normal-hitnormal146.wav
64,192,45333,1,0,0:0:0:40:normal-hitnormal147.wav
320,192,45333,1,0,0:0:0:40:normal-hitnormal7.wav
448,192,45533,1,0,0:0:0:40:normal-hitnormal148.wav
192,192,45733,1,0,0:0:0:40:normal-hitnormal7.wav
320,192,45733,1,0,0:0:0:40:normal-hitnormal149.wav
64,192,45833,1,0,0:0:0:40:normal-hitnormal150.wav
448,192,45933,1,0,0:0:0:40:normal-hitnormal151.wav
192,192,46133,1,0,0:0:0:40:normal-hitnormal7.wav
320,192,46133,1,0,0:0:0:40:normal-hitnormal152.wav
448,192,46233,1,0,0:0:0:40:normal-hitnormal153.wav
64,192,46333,1,0,0:0:0:40:normal-hitnormal154.wav
320,192,46533,1,0,0:0:0:40:normal-hitnormal7.wav
448,192,46533,1,0,0:0:0:40:normal-hitnormal155.wav
64,192,46733,1,0,0:0:0:40:normal-hitnormal156.wav
192,192,46933,1,0,0:0:0:40:normal-hitnormal157.wav
448,192,46933,1,0,0:0:0:40:normal-hitnormal7.wav
320,192,47133,1,0,0:0:0:40:normal-hitnormal158.wav
64,192,47333,1,0,0:0:0:40:normal-hitnormal159.wav
448,192,47333,1,0,0:0:0:40:normal-hitnormal7.wav
192,192,47433,1,0,0:0:0:40:normal-hitnormal160.wav
320,192,47533,1,0,0:0:0:40:normal-hitnormal161.wav
64,192,47733,1,0,0:0:0:40:normal-hitnormal7.wav
448,192,47733,1,0,0:0:0:40:normal-hitnormal162.wav
320,192,47833,1,0,0:0:0:40:normal-hitnormal163.wav
192,192,47933,1,0,0:0:0:40:normal-hitnormal164.wav
320,192,48133,128,0,49733:0:0:0:40:normal-hitnormal7.wav
64,192,48133,128,0,49733:0:0:0:40:normal-hitnormal15.wav
448,192,49733,1,0,0:0:0:40:normal-hitnormal4.wav
192,192,49733,128,0,51333:0:0:0:40:normal-hitnormal7.wav
448,192,50133,128,0,51333:0:0:0:0:
320,192,51333,1,0,0:0:0:40:normal-hitnormal7.wav
64,192,51333,1,0,0:0:0:40:normal-hitnormal4.wav
192,192,51533,1,0,0:0:0:40:normal-hitnormal232.wav
448,192,51633,1,0,0:0:0:40:normal-hitnormal233.wav
192,192,51733,1,0,0:0:0:40:normal-hitnormal234.wav
320,192,51933,1,0,0:0:0:40:normal-hitnormal235.wav
64,192,52033,1,0,0:0:0:40:normal-hitnormal236.wav
320,192,52133,1,0,0:0:0:40:normal-hitnormal237.wav
192,192,52333,1,0,0:0:0:40:normal-hitnormal238.wav
448,192,52533,1,0,0:0:0:40:normal-hitnormal239.wav
64,192,52633,1,0,0:0:0:40:normal-hitnormal240.wav
448,192,52733,1,0,0:0:0:40:normal-hitnormal241.wav
64,192,52833,1,0,0:0:0:40:normal-hitnormal242.wav
192,192,52933,128,0,53333:0:0:0:40:normal-hitnormal8.wav
64,192,53333,128,0,54133:0:0:0:0:
448,192,53733,1,0,0:0:0:0:
320,192,53883,128,0,54133:0:0:0:0:
192,192,54133,128,0,54533:0:0:0:0:
448,192,54133,128,0,54533:0:0:0:40:normal-hitnormal7.wav
64,192,54533,1,0,0:0:0:40:normal-hitnormal7.wav
320,192,54533,1,0,0:0:0:40:normal-hitnormal4.wav
192,192,54733,1,0,0:0:0:40:normal-hitnormal21.wav
64,192,54933,1,0,0:0:0:40:normal-hitnormal7.wav
448,192,54933,1,0,0:0:0:40:normal-hitnormal11.wav
320,192,55133,1,0,0:0:0:40:normal-hitnormal21.wav
64,192,55333,1,0,0:0:0:40:normal-hitnormal7.wav
192,192,55333,1,0,0:0:0:40:normal-hitnormal8.wav
448,192,55533,1,0,0:0:0:40:normal-hitnormal21.wav
64,192,55733,1,0,0:0:0:40:normal-hitnormal7.wav
320,192,55733,1,0,0:0:0:40:normal-hitnormal11.wav
448,192,55933,1,0,0:0:0:40:normal-hitnormal21.wav
64,192,56133,1,0,0:0:0:40:normal-hitnormal7.wav
192,192,56133,1,0,0:0:0:40:normal-hitnormal8.wav
320,192,56333,1,0,0:0:0:40:normal-hitnormal21.wav
64,192,56533,1,0,0:0:0:40:normal-hitnormal11.wav
448,192,56533,1,0,0:0:0:40:normal-hitnormal7.wav
192,192,56733,1,0,0:0:0:40:normal-hitnormal21.wav
448,192,56933,1,0,0:0:0:40:normal-hitnormal7.wav
320,192,56933,1,0,0:0:0:40:normal-hitnormal8.wav
64,192,57133,1,0,0:0:0:40:normal-hitnormal21.wav
448,192,57333,1,0,0:0:0:40:normal-hitnormal7.wav
192,192,57333,1,0,0:0:0:40:normal-hitnormal11.wav
64,192,57533,1,0,0:0:0:40:normal-hitnormal21.wav
320,192,57733,1,0,0:0:0:40:normal-hitnormal8.wav
448,192,57733,1,0,0:0:0:40:normal-hitnormal7.wav
192,192,57933,1,0,0:0:0:40:normal-hitnormal21.wav
64,192,58133,1,0,0:0:0:40:normal-hitnormal7.wav
320,192,58133,1,0,0:0:0:40:normal-hitnormal11.wav
448,192,58333,1,0,0:0:0:40:normal-hitnormal21.wav
64,192,58533,1,0,0:0:0:40:normal-hitnormal7.wav
192,192,58533,1,0,0:0:0:40:normal-hitnormal8.wav
320,192,58733,1,0,0:0:0:40:normal-hitnormal21.wav
448,192,58933,1,0,0:0:0:40:normal-hitnormal7.wav
192,192,58933,1,0,0:0:0:40:normal-hitnormal11.wav
320,192,59133,1,0,0:0:0:40:normal-hitnormal21.wav
64,192,59333,1,0,0:0:0:40:normal-hitnormal7.wav
192,192,59333,1,0,0:0:0:40:normal-hitnormal8.wav
448,192,59533,1,0,0:0:0:40:normal-hitnormal21.wav
64,192,59733,1,0,0:0:0:40:normal-hitnormal7.wav
320,192,59733,1,0,0:0:0:40:normal-hitnormal11.wav
192,192,59933,1,0,0:0:0:40:normal-hitnormal21.wav
448,192,60133,1,0,0:0:0:40:normal-hitnormal7.wav
320,192,60133,1,0,0:0:0:40:normal-hitnormal8.wav
64,192,60333,1,0,0:0:0:40:normal-hitnormal21.wav
192,192,60533,1,0,0:0:0:40:normal-hitnormal11.wav
448,192,60533,1,0,0:0:0:40:normal-hitnormal7.wav
64,192,60733,1,0,0:0:0:40:normal-hitnormal21.wav
320,192,60933,1,0,0:0:0:40:normal-hitnormal8.wav
448,192,60933,1,0,0:0:0:40:normal-hitnormal7.wav
64,192,61133,1,0,0:0:0:40:normal-hitnormal21.wav
192,192,61333,1,0,0:0:0:40:normal-hitnormal11.wav
448,192,61333,1,0,0:0:0:40:normal-hitnormal7.wav
320,192,61533,1,0,0:0:0:40:normal-hitnormal21.wav
64,192,61733,1,0,0:0:0:40:normal-hitnormal7.wav
192,192,61733,1,0,0:0:0:40:normal-hitnormal8.wav
448,192,61933,1,0,0:0:0:40:normal-hitnormal21.wav
64,192,62133,1,0,0:0:0:40:normal-hitnormal7.wav
320,192,62133,1,0,0:0:0:40:normal-hitnormal11.wav
448,192,62333,1,0,0:0:0:40:normal-hitnormal21.wav
64,192,62533,1,0,0:0:0:40:normal-hitnormal7.wav
192,192,62533,1,0,0:0:0:40:normal-hitnormal8.wav
320,192,62733,1,0,0:0:0:40:normal-hitnormal21.wav
64,192,62933,1,0,0:0:0:40:normal-hitnormal7.wav
448,192,62933,1,0,0:0:0:40:normal-hitnormal11.wav
192,192,63133,1,0,0:0:0:40:normal-hitnormal21.wav
320,192,63333,1,0,0:0:0:40:normal-hitnormal8.wav
448,192,63333,1,0,0:0:0:40:normal-hitnormal7.wav
64,192,63533,1,0,0:0:0:40:normal-hitnormal21.wav
192,192,63733,1,0,0:0:0:40:normal-hitnormal11.wav
448,192,63733,1,0,0:0:0:40:normal-hitnormal7.wav
64,192,63933,1,0,0:0:0:40:normal-hitnormal21.wav
320,192,64133,1,0,0:0:0:40:normal-hitnormal8.wav
448,192,64133,1,0,0:0:0:40:normal-hitnormal7.wav
192,192,64333,1,0,0:0:0:40:normal-hitnormal21.wav
64,192,64533,1,0,0:0:0:40:normal-hitnormal11.wav
448,192,64533,1,0,0:0:0:40:normal-hitnormal7.wav
320,192,64733,1,0,0:0:0:40:normal-hitnormal21.wav
192,192,64933,1,0,0:0:0:40:normal-hitnormal8.wav
64,192,64933,1,0,0:0:0:40:normal-hitnormal7.wav
448,192,65133,1,0,0:0:0:40:normal-hitnormal21.wav
320,192,65333,1,0,0:0:0:40:normal-hitnormal11.wav
64,192,65333,1,0,0:0:0:40:normal-hitnormal7.wav
448,192,65533,1,0,0:0:0:40:normal-hitnormal21.wav
64,192,65733,1,0,0:0:0:40:normal-hitnormal7.wav
192,192,65733,1,0,0:0:0:40:normal-hitnormal8.wav
320,192,65933,1,0,0:0:0:40:normal-hitnormal21.wav
192,192,66133,1,0,0:0:0:40:normal-hitnormal7.wav
448,192,66133,1,0,0:0:0:40:normal-hitnormal11.wav
64,192,66333,1,0,0:0:0:40:normal-hitnormal21.wav
192,192,66433,1,0,0:0:0:40:normal-hitnormal15.wav
448,192,66533,1,0,0:0:0:40:normal-hitnormal7.wav
320,192,66533,1,0,0:0:0:40:normal-hitnormal8.wav
64,192,66733,1,0,0:0:0:40:normal-hitnormal21.wav
320,192,66833,1,0,0:0:0:40:normal-hitnormal15.wav
448,192,66933,1,0,0:0:0:40:normal-hitnormal11.wav
192,192,66933,1,0,0:0:0:40:normal-hitnormal7.wav
64,192,67033,1,0,0:0:0:40:normal-hitnormal15.wav
320,192,67133,1,0,0:0:0:40:normal-hitnormal21.wav
192,192,67233,1,0,0:0:0:40:normal-hitnormal15.wav
64,192,67333,1,0,0:0:0:40:normal-hitnormal304.wav
448,192,67333,1,0,0:0:0:40:normal-hitnormal4.wav
192,192,67433,1,0,0:0:0:40:normal-hitnormal305.wav
320,192,67533,1,0,0:0:0:40:normal-hitnormal306.wav
448,192,67633,1,0,0:0:0:40:normal-hitnormal307.wav
64,192,67733,1,0,0:0:0:40:normal-hitnormal308.wav
64,192,68033,1,0,0:0:0:40:normal-hitnormal309.wav
64,192,68333,1,0,0:0:0:40:normal-hitnormal310.wav
448,192,68533,1,0,0:0:0:40:normal-hitnormal311.wav
192,192,68733,1,0,0:0:0:40:normal-hitnormal312.wav
448,192,68933,1,0,0:0:0:40:normal-hitnormal313.wav
320,192,69033,1,0,0:0:0:40:normal-hitnormal314.wav
192,192,69133,1,0,0:0:0:40:normal-hitnormal315.wav
64,192,69233,1,0,0:0:0:40:normal-hitnormal316.wav
320,192,69333,1,0,0:0:0:40:normal-hitnormal317.wav
448,192,69433,1,0,0:0:0:40:normal-hitnormal318.wav
320,192,69533,1,0,0:0:0:40:normal-hitnormal319.wav
192,192,69633,1,0,0:0:0:40:normal-hitnormal320.wav
64,192,69733,1,0,0:0:0:40:normal-hitnormal321.wav
192,192,69833,1,0,0:0:0:40:normal-hitnormal322.wav
320,192,69933,1,0,0:0:0:40:normal-hitnormal323.wav
448,192,70033,1,0,0:0:0:40:normal-hitnormal324.wav
64,192,70133,1,0,0:0:0:40:normal-hitnormal325.wav
192,192,70233,1,0,0:0:0:40:normal-hitnormal326.wav
320,192,70333,1,0,0:0:0:40:normal-hitnormal327.wav
448,192,70433,1,0,0:0:0:40:normal-hitnormal328.wav
192,192,70733,1,0,0:0:0:40:normal-hitnormal329.wav
64,192,71033,1,0,0:0:0:40:normal-hitnormal330.wav
192,192,71333,1,0,0:0:0:40:normal-hitnormal331.wav
320,192,71633,1,0,0:0:0:40:normal-hitnormal332.wav
448,192,71933,1,0,0:0:0:40:normal-hitnormal333.wav
192,192,72133,1,0,0:0:0:40:normal-hitnormal334.wav
64,192,72333,1,0,0:0:0:40:normal-hitnormal335.wav
320,192,72533,1,0,0:0:0:40:normal-hitnormal336.wav
192,192,72733,1,0,0:0:0:40:normal-hitnormal337.wav
448,192,72933,1,0,0:0:0:40:normal-hitnormal338.wav
320,192,73133,1,0,0:0:0:40:normal-hitnormal339.wav
192,192,73333,1,0,0:0:0:40:normal-hitnormal340.wav
448,192,73433,1,0,0:0:0:40:normal-hitnormal341.wav
64,192,73533,1,0,0:0:0:40:normal-hitnormal342.wav
320,192,73633,1,0,0:0:0:40:normal-hitnormal343.wav
448,192,73933,1,0,0:0:0:40:normal-hitnormal346.wav
192,192,74033,1,0,0:0:0:40:normal-hitnormal347.wav
64,192,74333,1,0,0:0:0:40:normal-hitnormal348.wav
320,192,74433,1,0,0:0:0:40:normal-hitnormal349.wav
448,192,74733,1,0,0:0:0:40:normal-hitnormal350.wav
192,192,74933,1,0,0:0:0:40:normal-hitnormal351.wav
320,192,75133,1,0,0:0:0:40:normal-hitnormal352.wav
448,192,75333,1,0,0:0:0:40:normal-hitnormal353.wav
320,192,75433,1,0,0:0:0:40:normal-hitnormal354.wav
192,192,75533,1,0,0:0:0:40:normal-hitnormal355.wav
64,192,75633,1,0,0:0:0:40:normal-hitnormal356.wav
320,192,75733,1,0,0:0:0:40:normal-hitnormal357.wav
448,192,75833,1,0,0:0:0:40:normal-hitnormal358.wav
320,192,75933,1,0,0:0:0:40:normal-hitnormal359.wav
192,192,76033,1,0,0:0:0:40:normal-hitnormal360.wav
64,192,76133,1,0,0:0:0:40:normal-hitnormal361.wav
192,192,76233,1,0,0:0:0:40:normal-hitnormal362.wav
320,192,76333,1,0,0:0:0:40:normal-hitnormal363.wav
448,192,76433,1,0,0:0:0:40:normal-hitnormal364.wav
64,192,76533,1,0,0:0:0:40:normal-hitnormal365.wav
192,192,76633,1,0,0:0:0:40:normal-hitnormal366.wav
320,192,76733,1,0,0:0:0:40:normal-hitnormal367.wav
448,192,76833,1,0,0:0:0:40:normal-hitnormal368.wav
192,192,77133,1,0,0:0:0:40:normal-hitnormal369.wav
448,192,77433,1,0,0:0:0:40:normal-hitnormal370.wav
320,192,77733,1,0,0:0:0:40:normal-hitnormal371.wav
192,192,78033,1,0,0:0:0:40:normal-hitnormal372.wav
64,192,78333,1,0,0:0:0:40:normal-hitnormal373.wav
320,192,78533,1,0,0:0:0:40:normal-hitnormal374.wav
448,192,78733,1,0,0:0:0:40:normal-hitnormal375.wav
192,192,78933,1,0,0:0:0:40:normal-hitnormal376.wav
320,192,79133,1,0,0:0:0:40:normal-hitnormal377.wav
64,192,79333,1,0,0:0:0:40:normal-hitnormal378.wav
192,192,79533,1,0,0:0:0:40:normal-hitnormal379.wav
320,192,79733,1,0,0:0:0:40:normal-hitnormal380.wav
64,192,79833,1,0,0:0:0:40:normal-hitnormal381.wav
192,192,79933,1,0,0:0:0:40:normal-hitnormal382.wav
448,192,80033,1,0,0:0:0:40:normal-hitnormal383.wav
64,192,80133,1,0,0:0:0:40:normal-hitnormal7.wav
320,192,80133,1,0,0:0:0:40:normal-hitnormal385.wav
448,192,80433,1,0,0:0:0:40:normal-hitnormal7.wav
192,192,80433,1,0,0:0:0:40:normal-hitnormal386.wav
320,192,80733,1,0,0:0:0:40:normal-hitnormal387.wav
64,192,80733,1,0,0:0:0:40:normal-hitnormal7.wav
448,192,81033,1,0,0:0:0:40:normal-hitnormal388.wav
64,192,81033,1,0,0:0:0:40:normal-hitnormal7.wav
192,192,81333,1,0,0:0:0:40:normal-hitnormal7.wav
320,192,81333,1,0,0:0:0:40:normal-hitnormal389.wav
320,192,81533,1,0,0:0:0:40:normal-hitnormal7.wav
448,192,81533,1,0,0:0:0:40:normal-hitnormal390.wav
192,192,81733,1,0,0:0:0:40:normal-hitnormal4.wav
64,192,81733,1,0,0:0:0:40:normal-hitnormal7.wav
448,192,81933,1,0,0:0:0:40:normal-hitnormal391.wav
64,192,82233,1,0,0:0:0:40:normal-hitnormal392.wav
192,192,82533,1,0,0:0:0:40:normal-hitnormal393.wav
320,192,82833,1,0,0:0:0:40:normal-hitnormal394.wav
448,192,83133,1,0,0:0:0:40:normal-hitnormal395.wav
320,192,83333,1,0,0:0:0:40:normal-hitnormal396.wav
192,192,83333,1,0,0:0:0:40:normal-hitnormal7.wav
448,192,83633,1,0,0:0:0:40:normal-hitnormal397.wav
64,192,83633,1,0,0:0:0:40:normal-hitnormal7.wav
192,192,83933,1,0,0:0:0:40:normal-hitnormal7.wav
320,192,83933,1,0,0:0:0:40:normal-hitnormal398.wav
64,192,84233,1,0,0:0:0:40:normal-hitnormal7.wav
448,192,84233,1,0,0:0:0:40:normal-hitnormal399.wav
192,192,84533,1,0,0:0:0:40:normal-hitnormal7.wav
448,192,84533,1,0,0:0:0:40:normal-hitnormal400.wav
448,192,84733,1,0,0:0:0:40:normal-hitnormal401.wav
320,192,84733,1,0,0:0:0:40:normal-hitnormal7.wav
64,192,84933,1,0,0:0:0:40:normal-hitnormal7.wav
192,192,84933,1,0,0:0:0:40:normal-hitnormal4.wav
448,192,85133,1,0,0:0:0:40:normal-hitnormal402.wav
64,192,85433,1,0,0:0:0:40:normal-hitnormal403.wav
448,192,85733,1,0,0:0:0:40:normal-hitnormal404.wav
64,192,86033,1,0,0:0:0:40:normal-hitnormal405.wav
448,192,86333,1,0,0:0:0:40:normal-hitnormal406.wav
320,192,86533,1,0,0:0:0:40:normal-hitnormal407.wav
64,192,86533,1,0,0:0:0:40:normal-hitnormal7.wav
192,192,86833,1,0,0:0:0:40:normal-hitnormal408.wav
448,192,86833,1,0,0:0:0:40:normal-hitnormal7.wav
64,192,87133,1,0,0:0:0:40:normal-hitnormal7.wav
320,192,87133,1,0,0:0:0:40:normal-hitnormal409.wav
64,192,87433,1,0,0:0:0:40:normal-hitnormal7.wav
448,192,87433,1,0,0:0:0:40:normal-hitnormal410.wav
192,192,87733,1,0,0:0:0:40:normal-hitnormal7.wav
320,192,87733,1,0,0:0:0:40:normal-hitnormal411.wav
448,192,87933,1,0,0:0:0:40:normal-hitnormal412.wav
320,192,87933,1,0,0:0:0:40:normal-hitnormal7.wav
64,192,88133,1,0,0:0:0:40:normal-hitnormal7.wav
192,192,88133,1,0,0:0:0:40:normal-hitnormal4.wav
448,192,88333,1,0,0:0:0:40:normal-hitnormal413.wav
64,192,88633,1,0,0:0:0:40:normal-hitnormal414.wav
192,192,88933,1,0,0:0:0:40:normal-hitnormal415.wav
320,192,89233,1,0,0:0:0:40:normal-hitnormal416.wav
448,192,89533,1,0,0:0:0:40:normal-hitnormal417.wav
320,192,89733,1,0,0:0:0:40:normal-hitnormal418.wav
192,192,89733,1,0,0:0:0:40:normal-hitnormal7.wav
448,192,90033,1,0,0:0:0:40:normal-hitnormal419.wav
64,192,90033,1,0,0:0:0:40:normal-hitnormal7.wav
192,192,90333,1,0,0:0:0:40:normal-hitnormal7.wav
320,192,90333,1,0,0:0:0:40:normal-hitnormal420.wav
448,192,90633,1,0,0:0:0:40:normal-hitnormal421.wav
64,192,90633,1,0,0:0:0:40:normal-hitnormal7.wav
320,192,90933,1,0,0:0:0:40:normal-hitnormal422.wav
192,192,90933,1,0,0:0:0:40:normal-hitnormal7.wav
448,192,91133,1,0,0:0:0:40:normal-hitnormal423.wav
192,192,91133,1,0,0:0:0:40:normal-hitnormal7.wav
64,192,91333,1,0,0:0:0:40:normal-hitnormal7.wav
320,192,91333,1,0,0:0:0:40:normal-hitnormal425.wav
448,192,91533,1,0,0:0:0:40:normal-hitnormal426.wav
192,192,91733,1,0,0:0:0:40:normal-hitnormal7.wav
320,192,91833,1,0,0:0:0:40:normal-hitnormal426.wav
448,192,92033,1,0,0:0:0:40:normal-hitnormal428.wav
320,192,92133,1,0,0:0:0:40:normal-hitnormal430.wav
192,192,92333,1,0,0:0:0:40:normal-hitnormal430.wav
64,192,92533,1,0,0:0:0:40:normal-hitnormal7.wav
320,192,92633,1,0,0:0:0:40:normal-hitnormal431.wav
448,192,92833,1,0,0:0:0:40:normal-hitnormal432.wav
64,192,92933,1,0,0:0:0:40:normal-hitnormal7.wav
192,192,92933,1,0,0:0:0:40:normal-hitnormal434.wav
320,192,93133,1,0,0:0:0:40:normal-hitnormal21.wav
448,192,93133,1,0,0:0:0:40:normal-hitnormal435.wav
64,192,93333,1,0,0:0:0:40:normal-hitnormal7.wav
192,192,93333,1,0,0:0:0:40:normal-hitnormal11.wav
448,192,93533,1,0,0:0:0:40:normal-hitnormal21.wav
192,192,93733,1,0,0:0:0:40:normal-hitnormal7.wav
320,192,93733,1,0,0:0:0:40:normal-hitnormal8.wav
448,192,93933,1,0,0:0:0:40:normal-hitnormal21.wav
64,192,94133,1,0,0:0:0:40:normal-hitnormal7.wav
320,192,94133,1,0,0:0:0:40:normal-hitnormal11.wav
448,192,94333,1,0,0:0:0:40:normal-hitnormal21.wav
320,192,94533,1,0,0:0:0:40:normal-hitnormal441.wav
192,192,94533,1,0,0:0:0:40:normal-hitnormal7.wav
64,192,94733,1,0,0:0:0:40:normal-hitnormal442.wav
448,192,94733,1,0,0:0:0:40:normal-hitnormal21.wav
192,192,94933,1,0,0:0:0:40:normal-hitnormal7.wav
320,192,94933,1,0,0:0:0:40:normal-hitnormal11.wav
64,192,95133,1,0,0:0:0:40:normal-hitnormal21.wav
320,192,95333,1,0,0:0:0:40:normal-hitnormal7.wav
448,192,95333,1,0,0:0:0:40:normal-hitnormal8.wav
64,192,95533,1,0,0:0:0:40:normal-hitnormal21.wav
192,192,95733,1,0,0:0:0:40:normal-hitnormal7.wav
448,192,95733,1,0,0:0:0:40:normal-hitnormal11.wav
64,192,95933,1,0,0:0:0:40:normal-hitnormal21.wav
448,192,96133,1,0,0:0:0:40:normal-hitnormal7.wav
192,192,96133,1,0,0:0:0:40:normal-hitnormal448.wav
320,192,96333,1,0,0:0:0:40:normal-hitnormal449.wav
64,192,96333,1,0,0:0:0:40:normal-hitnormal21.wav
192,192,96533,1,0,0:0:0:40:normal-hitnormal11.wav
448,192,96533,1,0,0:0:0:40:normal-hitnormal7.wav
64,192,96733,1,0,0:0:0:40:normal-hitnormal21.wav
320,192,96933,1,0,0:0:0:40:normal-hitnormal8.wav
192,192,96933,1,0,0:0:0:40:normal-hitnormal7.wav
64,192,97133,1,0,0:0:0:40:normal-hitnormal21.wav
192,192,97333,1,0,0:0:0:40:normal-hitnormal11.wav
448,192,97333,1,0,0:0:0:40:normal-hitnormal7.wav
64,192,97533,1,0,0:0:0:40:normal-hitnormal21.wav
192,192,97733,1,0,0:0:0:40:normal-hitnormal7.wav
320,192,97733,1,0,0:0:0:40:normal-hitnormal455.wav
448,192,97933,1,0,0:0:0:40:normal-hitnormal456.wav
64,192,98733,128,0,98933:0:1:0:40:normal-hitnormal457.wav
192,192,98933,1,0,0:0:0:40:normal-hitnormal14.wav
320,192,99033,1,0,0:0:0:40:normal-hitnormal15.wav
448,192,99133,1,0,0:0:0:40:normal-hitnormal14.wav
320,192,99233,1,0,0:0:0:40:normal-hitnormal15.wav
64,192,99333,1,0,0:0:0:40:normal-hitnormal460.wav
192,192,99333,1,0,0:0:0:40:normal-hitnormal7.wav
320,192,99533,1,0,0:0:0:40:normal-hitnormal21.wav
448,192,99533,1,0,0:0:0:40:normal-hitnormal461.wav
192,192,99733,1,0,0:0:0:40:normal-hitnormal7.wav
64,192,99733,1,0,0:0:0:40:normal-hitnormal11.wav
448,192,99933,1,0,0:0:0:40:normal-hitnormal21.wav
192,192,100133,1,0,0:0:0:40:normal-hitnormal7.wav
320,192,100133,1,0,0:0:0:40:normal-hitnormal8.wav
448,192,100333,1,0,0:0:0:40:normal-hitnormal21.wav
64,192,100533,1,0,0:0:0:40:normal-hitnormal11.wav
320,192,100533,1,0,0:0:0:40:normal-hitnormal7.wav
448,192,100733,1,0,0:0:0:40:normal-hitnormal21.wav
320,192,100933,1,0,0:0:0:40:normal-hitnormal7.wav
192,192,100933,1,0,0:0:0:40:normal-hitnormal467.wav
448,192,101133,1,0,0:0:0:40:normal-hitnormal21.wav
64,192,101133,1,0,0:0:0:40:normal-hitnormal468.wav
192,192,101333,1,0,0:0:0:40:normal-hitnormal11.wav
320,192,101333,1,0,0:0:0:40:normal-hitnormal7.wav
64,192,101533,1,0,0:0:0:40:normal-hitnormal21.wav
320,192,101733,1,0,0:0:0:40:normal-hitnormal7.wav
448,192,101733,1,0,0:0:0:40:normal-hitnormal8.wav
64,192,101933,1,0,0:0:0:40:normal-hitnormal21.wav
192,192,102133,1,0,0:0:0:40:normal-hitnormal11.wav
448,192,102133,1,0,0:0:0:40:normal-hitnormal7.wav
64,192,102333,1,0,0:0:0:40:normal-hitnormal21.wav
320,192,102533,1,0,0:0:0:40:normal-hitnormal7.wav
448,192,102533,1,0,0:0:0:40:normal-hitnormal474.wav
64,192,102733,1,0,0:0:0:40:normal-hitnormal21.wav
192,192,102733,1,0,0:0:0:40:normal-hitnormal475.wav
320,192,102933,1,0,0:0:0:40:normal-hitnormal7.wav
448,192,102933,1,0,0:0:0:40:normal-hitnormal11.wav
64,192,103133,1,0,0:0:0:40:normal-hitnormal21.wav
192,192,103333,1,0,0:0:0:40:normal-hitnormal8.wav
320,192,103333,1,0,0:0:0:40:normal-hitnormal7.wav
64,192,103533,1,0,0:0:0:40:normal-hitnormal21.wav
192,192,103733,1,0,0:0:0:40:normal-hitnormal7.wav
448,192,103733,1,0,0:0:0:40:normal-hitnormal11.wav
64,192,103933,1,0,0:0:0:40:normal-hitnormal21.wav
448,192,104133,1,0,0:0:0:40:normal-hitnormal481.wav
192,192,104133,1,0,0:0:0:40:normal-hitnormal7.wav
320,192,104333,1,0,0:0:0:40:normal-hitnormal482.wav
64,192,104333,1,0,0:0:0:40:normal-hitnormal21.wav
192,192,104533,1,0,0:0:0:40:normal-hitnormal7.wav
448,192,104533,1,0,0:0:0:40:normal-hitnormal11.wav
64,192,104733,1,0,0:0:0:40:normal-hitnormal483.wav
192,192,104833,1,0,0:0:0:40:normal-hitnormal484.wav
448,192,104933,1,0,0:0:0:40:normal-hitnormal7.wav
320,192,104933,1,0,0:0:0:40:normal-hitnormal485.wav
192,192,105133,1,0,0:0:0:40:normal-hitnormal486.wav
320,192,105233,1,0,0:0:0:40:normal-hitnormal487.wav
64,192,105333,1,0,0:0:0:40:normal-hitnormal11.wav
448,192,105333,1,0,0:0:0:40:normal-hitnormal488.wav
320,192,105433,1,0,0:0:0:40:normal-hitnormal489.wav
192,192,105533,1,0,0:0:0:40:normal-hitnormal490.wav
320,192,105733,128,0,105933:0:0:0:40:normal-hitnormal492.wav
192,192,105733,1,0,0:0:0:40:normal-hitnormal7.wav
64,192,105933,128,0,106133:0:0:0:40:normal-hitnormal493.wav
448,192,106133,128,0,106333:0:0:0:40:normal-hitnormal494.wav
64,192,106333,128,0,106533:0:0:0:40:normal-hitnormal495.wav
320,192,106533,128,0,106733:0:0:0:40:normal-hitnormal496.wav
64,192,106733,128,0,106933:0:0:0:40:normal-hitnormal497.wav
320,192,106933,1,0,0:0:0:40:normal-hitnormal498.wav
192,192,107033,1,0,0:0:0:40:normal-hitnormal499.wav
448,192,107133,128,0,107333:0:0:0:40:normal-hitnormal500.wav
192,192,107333,128,0,107533:0:0:0:40:normal-hitnormal501.wav
64,192,107533,128,0,107733:0:0:0:40:normal-hitnormal502.wav
448,192,107733,128,0,107933:0:0:0:40:normal-hitnormal503.wav
64,192,107933,128,0,108133:0:0:0:40:normal-hitnormal504.wav
192,192,108133,128,0,108333:0:0:0:40:normal-hitnormal505.wav
64,192,108333,128,0,108533:0:0:0:40:normal-hitnormal506.wav
320,192,108533,1,0,0:0:0:40:normal-hitnormal507.wav
192,192,108633,1,0,0:0:0:40:normal-hitnormal508.wav
448,192,108733,128,0,108933:0:0:0:40:normal-hitnormal509.wav
320,192,108933,128,0,109133:0:0:0:40:normal-hitnormal510.wav
64,192,109133,128,0,109333:0:0:0:40:normal-hitnormal511.wav
448,192,109333,128,0,109533:0:0:0:40:normal-hitnormal512.wav
64,192,109533,128,0,109733:0:0:0:40:normal-hitnormal513.wav
320,192,109733,128,0,109933:0:0:0:40:normal-hitnormal514.wav
64,192,109933,128,0,110133:0:0:0:40:normal-hitnormal515.wav
320,192,110133,1,0,0:0:0:40:normal-hitnormal516.wav
192,192,110233,1,0,0:0:0:40:normal-hitnormal517.wav
448,192,110333,128,0,110533:0:0:0:40:normal-hitnormal518.wav
192,192,110533,128,0,110733:0:0:0:40:normal-hitnormal519.wav
64,192,110733,128,0,110933:0:0:0:40:normal-hitnormal520.wav
320,192,110933,128,0,111133:0:0:0:40:normal-hitnormal521.wav
64,192,111133,128,0,111333:0:0:0:40:normal-hitnormal522.wav
448,192,111333,128,0,111533:0:0:0:40:normal-hitnormal523.wav
192,192,111533,128,0,111733:0:0:0:40:normal-hitnormal524.wav
448,192,111733,1,0,0:0:0:40:normal-hitnormal525.wav
64,192,111833,1,0,0:0:0:40:normal-hitnormal526.wav
320,192,111933,128,0,112133:0:0:0:40:normal-hitnormal527.wav
64,192,112133,1,0,0:0:0:40:normal-hitnormal529.wav
192,192,112133,1,0,0:0:0:40:normal-hitnormal7.wav
320,192,112333,1,0,0:0:0:40:normal-hitnormal21.wav
448,192,112333,1,0,0:0:0:40:normal-hitnormal530.wav
192,192,112533,1,0,0:0:0:40:normal-hitnormal531.wav
320,192,112533,1,0,0:0:0:40:normal-hitnormal7.wav
448,192,112733,1,0,0:0:0:40:normal-hitnormal532.wav
64,192,112733,1,0,0:0:0:40:normal-hitnormal21.wav
192,192,112933,1,0,0:0:0:40:normal-hitnormal7.wav
448,192,112933,1,0,0:0:0:40:normal-hitnormal533.wav
320,192,113033,1,0,0:0:0:40:normal-hitnormal534.wav
192,192,113133,1,0,0:0:0:40:normal-hitnormal21.wav
64,192,113133,1,0,0:0:0:40:normal-hitnormal535.wav
320,192,113333,1,0,0:0:0:40:normal-hitnormal7.wav
64,192,113333,1,0,0:0:0:40:normal-hitnormal536.wav
192,192,113433,1,0,0:0:0:40:normal-hitnormal537.wav
448,192,113533,1,0,0:0:0:40:normal-hitnormal538.wav
320,192,113533,1,0,0:0:0:40:normal-hitnormal21.wav
64,192,113733,1,0,0:0:0:40:normal-hitnormal539.wav
192,192,113733,1,0,0:0:0:40:normal-hitnormal7.wav
320,192,113933,1,0,0:0:0:40:normal-hitnormal21.wav
448,192,113933,1,0,0:0:0:40:normal-hitnormal540.wav
320,192,114133,1,0,0:0:0:40:normal-hitnormal7.wav
192,192,114133,1,0,0:0:0:40:normal-hitnormal541.wav
64,192,114333,1,0,0:0:0:40:normal-hitnormal21.wav
448,192,114333,1,0,0:0:0:40:normal-hitnormal542.wav
448,192,114533,1,0,0:0:0:40:normal-hitnormal543.wav
192,192,114533,1,0,0:0:0:40:normal-hitnormal7.wav
320,192,114633,1,0,0:0:0:40:normal-hitnormal544.wav
64,192,114733,1,0,0:0:0:40:normal-hitnormal545.wav
192,192,114733,1,0,0:0:0:40:normal-hitnormal21.wav
64,192,114933,1,0,0:0:0:40:normal-hitnormal546.wav
320,192,114933,1,0,0:0:0:40:normal-hitnormal7.wav
192,192,115033,1,0,0:0:0:40:normal-hitnormal547.wav
448,192,115133,1,0,0:0:0:40:normal-hitnormal548.wav
320,192,115133,1,0,0:0:0:40:normal-hitnormal21.wav
64,192,115333,1,0,0:0:0:40:normal-hitnormal549.wav
192,192,115333,1,0,0:0:0:40:normal-hitnormal7.wav
320,192,115533,1,0,0:0:0:40:normal-hitnormal21.wav
448,192,115533,1,0,0:0:0:40:normal-hitnormal550.wav
192,192,115733,1,0,0:0:0:40:normal-hitnormal551.wav
320,192,115733,1,0,0:0:0:40:normal-hitnormal7.wav
448,192,115933,1,0,0:0:0:40:normal-hitnormal552.wav
64,192,115933,1,0,0:0:0:40:normal-hitnormal21.wav
192,192,116133,1,0,0:0:0:40:normal-hitnormal7.wav
448,192,116133,1,0,0:0:0:40:normal-hitnormal553.wav
320,192,116233,1,0,0:0:0:40:normal-hitnormal554.wav
192,192,116333,1,0,0:0:0:40:normal-hitnormal555.wav
64,192,116333,1,0,0:0:0:40:normal-hitnormal21.wav
64,192,116533,1,0,0:0:0:40:normal-hitnormal556.wav
320,192,116533,1,0,0:0:0:40:normal-hitnormal7.wav
192,192,116633,1,0,0:0:0:40:normal-hitnormal557.wav
320,192,116733,1,0,0:0:0:40:normal-hitnormal558.wav
448,192,116733,1,0,0:0:0:40:normal-hitnormal21.wav
64,192,116933,1,0,0:0:0:40:normal-hitnormal559.wav
192,192,116933,1,0,0:0:0:40:normal-hitnormal7.wav
320,192,117133,1,0,0:0:0:40:normal-hitnormal21.wav
448,192,117133,1,0,0:0:0:40:normal-hitnormal560.wav
448,192,117333,1,0,0:0:0:40:normal-hitnormal561.wav
192,192,117333,1,0,0:0:0:40:normal-hitnormal7.wav
320,192,117533,1,0,0:0:0:40:normal-hitnormal562.wav
64,192,117533,1,0,0:0:0:40:normal-hitnormal21.wav
448,192,117733,1,0,0:0:0:40:normal-hitnormal563.wav
320,192,117733,1,0,0:0:0:40:normal-hitnormal7.wav
192,192,117833,1,0,0:0:0:40:normal-hitnormal564.wav
320,192,117933,1,0,0:0:0:40:normal-hitnormal21.wav
64,192,117933,1,0,0:0:0:40:normal-hitnormal565.wav
192,192,118133,1,0,0:0:0:40:normal-hitnormal7.wav
64,192,118133,1,0,0:0:0:40:normal-hitnormal566.wav
320,192,118233,1,0,0:0:0:40:normal-hitnormal567.wav
448,192,118333,1,0,0:0:0:40:normal-hitnormal21.wav
192,192,118333,1,0,0:0:0:40:normal-hitnormal568.wav
64,192,118533,128,0,120133:0:0:0:40:normal-hitnormal8.wav
448,192,118533,128,0,120133:0:0:0:40:normal-hitnormal7.wav
320,192,120133,128,0,123333:0:0:0:40:normal-hitnormal8.wav
192,192,120133,1,0,0:0:0:40:normal-hitnormal7.wav
64,192,120533,128,0,121733:0:0:0:0:
192,192,121733,128,0,123333:0:0:0:0:
448,192,123333,1,0,0:0:0:40:normal-hitnormal7.wav
64,192,123333,1,0,0:0:0:40:normal-hitnormal4.wav
