osu file format v14

[General]
AudioFilename: Identity part III.mp3
AudioLeadIn: 0
PreviewTime: 54403
Countdown: 0
SampleSet: Normal
StackLeniency: 0.7
Mode: 0
LetterboxInBreaks: 0
WidescreenStoryboard: 0

[Editor]
DistanceSpacing: 1
BeatDivisor: 4
GridSize: 4
TimelineZoom: 1

[Metadata]
Title:Identity Part III
TitleUnicode:Identity Part III
Artist:SHK
ArtistUnicode:SHK
Creator:ktgster
Version:SHD
Source:O2Jam
Tags:Sound​Holic​K trancecore
BeatmapID:634351
BeatmapSetID:280329

[Difficulty]
HPDrainRate:6
CircleSize:5
OverallDifficulty:8
ApproachRate:8
SliderMultiplier:1.7
SliderTickRate:1

[Events]
//Background and Video events
0,0,"BG.png",0,0
//Break Periods
//Storyboard Layer 0 (Background)
//Storyboard Layer 1 (Fail)
//Storyboard Layer 2 (Pass)
//Storyboard Layer 3 (Foreground)
//Storyboard Sound Samples

[TimingPoints]
1733,400,4,2,0,20,1,0
9733,-100,4,1,1,70,0,0
22133,-66.6666666666667,4,1,1,100,0,0
22233,-66.6666666666667,4,1,1,30,0,0
22533,-100,4,1,1,70,0,0
35333,-90.9090909090909,4,1,1,70,0,1
48133,-200,4,1,1,70,0,0
49933,-200,4,1,1,40,0,0
51333,-100,4,1,1,70,0,0
53733,-100,4,1,0,50,0,0
54033,-100,4,1,1,70,0,0
54533,-100,4,1,1,70,0,1
80133,-100,4,1,1,70,0,0
105733,-90.9090909090909,4,1,1,70,0,1
118533,-200,4,1,1,70,0,0
121733,-200,4,1,1,40,0,0
122533,-200,4,1,1,15,0,0
122733,-200,4,1,1,20,0,0
122933,-200,4,1,1,25,0,0
123133,-200,4,1,1,30,0,0
123333,-200,4,1,1,70,0,0

[Colours]
Combo1 : 0,234,117
Combo2 : 217,217,0
Combo3 : 113,113,255
Combo4 : 255,81,81

[HitObjects]
129,295,9733,5,4,0:0:0:0:
214,302,9933,1,0,0:0:0:0:
178,226,10133,1,8,0:0:0:0:
183,209,10533,1,8,0:0:0:0:
188,192,10933,1,8,0:0:0:0:
268,163,11133,1,0,0:0:0:0:
280,78,11333,5,8,0:0:0:0:
346,130,11533,1,0,0:0:0:0:
430,119,11733,1,8,0:0:0:0:
435,135,12133,1,8,0:0:0:0:
440,151,12533,1,8,0:0:0:0:
401,227,12733,1,0,0:0:0:0:
444,300,12933,5,8,0:0:0:0:
359,301,13133,1,0,0:0:0:0:
444,300,13333,1,8,0:0:0:0:
449,284,13733,1,8,0:0:0:0:
454,268,14133,1,8,0:0:0:0:
401,201,14333,1,0,0:0:0:0:
485,189,14533,5,8,0:0:0:0:
433,121,14733,1,0,0:0:0:0:
479,49,14933,1,8,0:0:0:0:
464,40,15333,1,8,0:0:0:0:
449,31,15733,1,8,0:0:0:0:
364,35,15933,1,0,0:0:0:0:
295,85,16133,5,8,0:0:0:0:
284,103,16233,1,0,0:0:0:0:
277,123,16333,1,0,0:0:0:0:
273,143,16433,1,0,0:0:0:0:
273,164,16533,1,8,0:0:0:0:
276,184,16633,1,0,0:0:0:0:
282,204,16733,1,0,0:0:0:0:
290,223,16833,1,0,0:0:0:0:
300,241,16933,1,8,0:0:0:0:
313,256,17033,1,0,0:0:0:0:
329,268,17133,1,0,0:0:0:0:
348,277,17233,1,0,0:0:0:0:
368,282,17333,1,8,0:0:0:0:
389,283,17433,1,0,0:0:0:0:
410,282,17533,1,0,0:0:0:0:
430,277,17633,1,0,0:0:0:0:
449,267,17733,5,8,0:0:0:0:
435,250,17833,1,0,0:0:0:0:
416,239,17933,1,0,0:0:0:0:
395,232,18033,1,0,0:0:0:0:
373,232,18133,1,8,0:0:0:0:
351,234,18233,1,0,0:0:0:0:
330,239,18333,1,0,0:0:0:0:
312,251,18433,1,0,0:0:0:0:
296,265,18533,1,8,0:0:0:0:
282,281,18633,1,0,0:0:0:0:
264,293,18733,1,0,0:0:0:0:
243,298,18833,1,0,0:0:0:0:
221,300,18933,1,8,0:0:0:0:
199,300,19033,1,0,0:0:0:0:
178,293,19133,1,0,0:0:0:0:
159,282,19233,1,0,0:0:0:0:
145,265,19333,5,8,0:0:0:0:
159,249,19433,1,0,0:0:0:0:
169,230,19533,1,0,0:0:0:0:
173,209,19633,1,0,0:0:0:0:
169,188,19733,1,8,0:0:0:0:
159,169,19833,1,0,0:0:0:0:
145,152,19933,1,0,0:0:0:0:
126,141,20033,1,0,0:0:0:0:
105,136,20133,1,8,0:0:0:0:
83,136,20233,1,0,0:0:0:0:
62,141,20333,1,0,0:0:0:0:
45,154,20433,1,0,0:0:0:0:
33,171,20533,1,8,0:0:0:0:
27,191,20633,1,0,0:0:0:0:
26,212,20733,1,0,0:0:0:0:
30,232,20833,1,0,0:0:0:0:
40,250,20933,6,0,L|79:257,7,21.25,8|0|0|0|0|0|0|0,0:0|0:0|0:0|0:0|0:0|0:0|0:0|0:0,0:0:0:0:
102,243,21333,2,0,L|141:250,7,21.25,8|0|0|0|0|0|0|0,0:0|0:0|0:0|0:0|0:0|0:0|0:0|0:0,0:0:0:0:
164,235,21733,2,0,L|203:242,7,21.25,8|0|0|0|0|0|0|0,0:0|0:0|0:0|0:0|0:0|0:0|0:0|0:0,0:0:0:0:
231,223,22133,6,0,B|291:232|291:232|358:212,1,127.500004863739,2|8,2:0|1:0,0:0:0:0:
472,60,22533,5,4,0:0:0:0:
271,100,22933,1,8,0:0:0:0:
187,42,23133,1,0,0:0:0:0:
145,34,23233,1,0,0:0:0:0:
103,42,23333,1,2,0:2:0:0:
122,80,23433,1,0,0:0:0:0:
125,122,23533,1,2,0:2:0:0:
116,163,23633,1,2,0:2:0:0:
83,190,23733,1,10,0:0:0:0:
22,272,23933,1,2,0:0:0:0:
31,313,24033,1,2,0:0:0:0:
64,340,24133,5,0,0:0:0:0:
266,315,24533,1,8,0:0:0:0:
177,263,24733,1,2,0:0:0:0:
177,263,24833,1,2,0:0:0:0:
324,220,25133,1,2,0:0:0:0:
127,164,25533,1,2,0:0:0:0:
107,125,25633,1,2,0:0:0:0:
128,88,25733,5,0,0:0:0:0:
328,124,26133,1,8,0:0:0:0:
276,36,26333,1,2,0:0:0:0:
276,36,26433,1,2,0:0:0:0:
250,190,26733,1,2,0:0:0:0:
269,197,26833,1,0,0:0:0:0:
304,239,26933,1,10,0:0:0:0:
323,232,27033,1,0,0:0:0:0:
362,193,27133,1,2,0:0:0:0:
400,312,27333,5,0,0:0:0:0:
232,343,27733,1,8,0:0:0:0:
139,300,27933,1,0,0:0:0:0:
139,300,28033,1,0,0:0:0:0:
139,300,28133,1,2,0:0:0:0:
223,242,28333,1,2,0:0:0:0:
218,221,28433,1,0,0:0:0:0:
167,199,28533,1,10,0:0:0:0:
172,178,28633,1,0,0:0:0:0:
218,147,28733,1,2,0:0:0:0:
213,126,28833,1,0,0:0:0:0:
178,82,28933,5,4,0:0:0:0:
178,82,29333,1,8,0:0:0:0:
267,32,29533,1,2,0:0:0:0:
307,45,29633,1,2,0:0:0:0:
290,83,29733,1,2,0:0:0:0:
296,124,29833,1,2,0:0:0:0:
324,156,29933,1,2,0:0:0:0:
364,168,30033,1,2,0:0:0:0:
404,156,30133,1,10,0:0:0:0:
457,242,30333,1,2,0:0:0:0:
469,282,30433,1,0,0:0:0:0:
456,322,30533,5,0,0:0:0:0:
253,335,30933,1,8,0:0:0:0:
167,279,31133,1,2,0:0:0:0:
167,279,31233,1,2,0:0:0:0:
300,204,31533,1,0,0:0:0:0:
104,146,31933,1,2,0:0:0:0:
86,107,32033,1,2,0:0:0:0:
94,65,32133,5,0,0:0:0:0:
291,117,32533,1,0,0:0:0:0:
346,32,32733,1,2,0:0:0:0:
346,32,32833,1,2,0:0:0:0:
222,122,33133,1,2,0:0:0:0:
227,142,33233,1,0,0:0:0:0:
270,176,33333,1,10,0:0:0:0:
265,196,33433,1,0,0:0:0:0:
228,237,33533,1,2,0:0:0:0:
303,345,33733,6,0,L|402:359,1,85
149,156,34133,2,0,L|50:170,1,85,8|2,0:0|0:0,0:0:0:0:
34,198,34433,1,2,0:0:0:0:
19,237,34533,1,0,0:0:0:0:
21,279,34633,1,0,0:0:0:0:
39,317,34733,1,2,0:0:0:0:
70,346,34833,1,2,0:0:0:0:
110,359,34933,1,8,0:0:0:0:
152,356,35033,1,2,0:0:0:0:
190,337,35133,1,2,0:0:0:0:
217,305,35233,1,2,0:0:0:0:
230,265,35333,5,4,0:0:0:0:
189,130,35533,1,0,0:0:0:0:
230,265,35733,1,10,0:0:0:0:
296,140,35933,1,0,0:0:0:0:
230,265,36133,1,0,0:0:0:0:
365,223,36333,1,0,0:0:0:0:
230,265,36533,1,10,0:0:0:0:
271,286,36633,1,2,0:0:0:0:
312,307,36733,1,2,0:0:0:0:
432,98,36933,5,0,0:0:0:0:
473,233,37133,1,0,0:0:0:0:
432,98,37333,1,10,0:0:0:0:
366,223,37533,1,0,0:0:0:0:
432,98,37733,1,0,0:0:0:0:
297,140,37933,1,0,0:0:0:0:
432,98,38133,1,10,0:0:0:0:
391,77,38233,1,2,0:0:0:0:
350,56,38333,1,2,0:0:0:0:
107,109,38533,5,0,0:0:0:0:
16,216,38733,1,0,0:0:0:0:
107,109,38933,1,10,0:0:0:0:
121,267,39133,1,2,0:0:0:0:
107,109,39333,1,0,0:0:0:0:
214,198,39533,1,0,0:0:0:0:
107,109,39733,1,10,0:0:0:0:
150,93,39833,1,2,0:0:0:0:
194,76,39933,1,2,0:0:0:0:
385,312,40133,5,0,0:0:0:0:
426,177,40333,1,0,0:0:0:0:
385,312,40533,1,2,0:0:0:0:
319,187,40733,1,0,0:0:0:0:
385,312,40933,1,0,0:0:0:0:
250,270,41133,1,0,0:0:0:0:
385,312,41333,1,10,0:0:0:0:
344,333,41433,1,2,0:0:0:0:
303,354,41533,1,2,0:0:0:0:
46,307,41733,6,0,L|38:193,1,93.5000028533936,4|2,0:0|0:0,0:0:0:0:
312,93,42133,2,0,L|319:187,1,93.5000028533936,8|2,0:0|0:0,0:0:0:0:
192,186,42533,1,2,0:0:0:0:
195,139,42633,1,2,0:0:0:0:
198,92,42733,1,2,0:0:0:0:
472,213,42933,1,2,0:0:0:0:
469,260,43033,1,2,0:0:0:0:
466,307,43133,1,2,0:0:0:0:
186,335,43333,6,0,L|283:348,1,93.5000028533936,0|2,0:0|0:0,0:0:0:0:
326,49,43733,2,0,L|229:36,1,93.5000028533936,8|2,0:0|0:0,0:0:0:0:
399,262,44133,1,2,0:0:0:0:
405,215,44233,1,2,0:0:0:0:
411,169,44333,1,2,0:0:0:0:
113,122,44533,1,2,0:0:0:0:
106,168,44633,1,2,0:0:0:0:
100,214,44733,1,2,0:0:0:0:
377,354,44933,6,0,L|465:322,1,93.5000028533936,0|2,0:0|0:0,0:0:0:0:
465,62,45333,2,0,L|377:30,1,93.5000028533936,8|2,0:0|0:0,0:0:0:0:
135,30,45733,1,2,0:0:0:0:
91,45,45833,1,2,0:0:0:0:
47,61,45933,1,2,0:0:0:0:
47,322,46133,1,2,0:0:0:0:
90,337,46233,1,2,0:0:0:0:
134,353,46333,1,2,0:0:0:0:
378,353,46533,5,0,0:0:0:0:
420,219,46733,1,2,0:0:0:0:
134,353,46933,1,8,0:0:0:0:
92,219,47133,1,2,0:0:0:0:
256,32,47333,2,0,L|256:76,6,23.3750007133484,2|2|2|2|2|2|2,0:0|0:0|0:0|0:0|0:0|0:0|0:0,0:0:0:0:
256,128,47733,2,0,L|256:172,6,23.3750007133484,10|0|2|0|2|0|2,0:0|0:0|0:0|0:0|0:0|0:0|0:0,0:0:0:0:
183,192,48133,6,0,P|256:312|328:191,1,340,4|4,0:0|0:0,0:0:0:0:
325,182,50133,1,2,2:0:0:0:
320,174,50533,1,2,2:0:0:0:
315,166,50933,1,2,2:0:0:0:
310,158,51333,5,4,0:0:0:0:
246,101,51533,1,2,0:0:0:0:
204,109,51633,1,2,0:0:0:0:
162,118,51733,1,0,0:0:0:0:
175,201,51933,1,2,0:0:0:0:
133,193,52033,1,2,0:0:0:0:
91,184,52133,1,0,0:0:0:0:
55,106,52333,1,10,0:0:0:0:
8,261,52533,1,10,0:0:0:0:
50,269,52633,1,10,0:0:0:0:
92,278,52733,1,10,0:0:0:0:
133,288,52833,1,10,0:0:0:0:
174,298,52933,5,4,0:0:0:0:
174,298,53333,1,8,0:0:0:0:
491,260,53733,2,2,P|497:220|486:188,1,63.75,2|2,0:0|0:0,0:0:0:0:
405,135,54133,2,0,L|412:101,1,21.25,0|0,0:0|0:0,0:0:0:0:
381,131,54233,2,0,L|388:97,1,21.25,0|0,0:0|0:0,0:0:0:0:
356,125,54333,2,0,L|363:91,1,21.25,0|0,0:0|0:0,0:0:0:0:
332,121,54433,2,0,L|339:87,1,21.25,0|0,0:0|0:0,0:0:0:0:
309,118,54533,5,4,0:0:0:0:
358,280,54933,1,10,0:0:0:0:
309,118,55333,1,0,0:0:0:0:
277,197,55533,1,2,0:0:0:0:
445,175,55933,1,2,0:0:0:0:
341,39,56333,1,2,0:0:0:0:
365,207,56733,1,0,0:0:0:0:
333,286,56933,1,2,0:0:0:0:
291,293,57033,1,2,0:0:0:0:
249,300,57133,1,2,0:0:0:0:
196,233,57333,1,2,0:0:0:0:
280,219,57533,1,2,0:0:0:0:
454,356,57733,6,0,P|503:290|463:219,1,170,2|0,0:0|0:0,0:0:0:0:
383,197,58333,2,0,P|334:131|374:60,1,170,2|0,0:0|0:0,0:0:0:0:
305,7,58933,1,2,0:0:0:0:
262,10,59033,1,2,0:0:0:0:
219,13,59133,1,2,0:0:0:0:
176,16,59233,1,2,0:0:0:0:
133,20,59333,5,2,0:0:0:0:
150,189,59733,1,0,0:0:0:0:
141,104,59933,1,2,0:0:0:0:
161,272,60333,1,0,0:0:0:0:
150,189,60533,1,2,0:0:0:0:
145,146,60633,1,2,0:0:0:0:
141,104,60733,1,2,0:0:0:0:
286,29,60933,5,4,0:0:0:0:
322,194,61333,1,10,0:0:0:0:
448,79,61733,1,0,0:0:0:0:
407,90,61833,1,0,0:0:0:0:
366,102,61933,1,2,0:0:0:0:
202,146,62333,1,2,0:0:0:0:
366,102,62733,1,2,0:0:0:0:
322,266,63133,1,0,0:0:0:0:
343,183,63333,1,10,0:0:0:0:
357,142,63433,1,2,0:0:0:0:
366,102,63533,1,2,0:0:0:0:
203,146,63733,1,2,0:0:0:0:
233,176,63833,1,0,0:0:0:0:
262,207,63933,1,2,0:0:0:0:
58,356,64133,6,0,P|9:290|49:219,1,170,2|10,0:0|0:0,0:0:0:0:
125,188,64733,1,2,0:2:0:0:
159,163,64833,1,2,0:2:0:0:
176,125,64933,1,2,0:2:0:0:
171,83,65033,1,2,0:2:0:0:
147,49,65133,1,2,0:2:0:0:
98,113,65334,1,2,0:0:0:0:
98,113,65433,1,0,0:0:0:0:
98,113,65533,1,0,0:0:0:0:
286,29,65733,5,2,0:0:0:0:
256,108,65933,1,0,0:0:0:0:
275,116,66033,1,0,0:0:0:0:
296,118,66133,1,10,0:0:0:0:
317,116,66233,1,0,0:0:0:0:
337,109,66333,1,2,0:0:0:0:
355,97,66433,1,0,0:0:0:0:
367,79,66533,1,0,0:0:0:0:
384,91,66633,1,0,0:0:0:0:
404,95,66733,1,0,0:0:0:0:
425,92,66833,1,0,0:0:0:0:
444,83,66933,1,10,0:0:0:0:
459,122,67033,1,2,0:0:0:0:
442,161,67133,1,2,0:0:0:0:
434,287,67333,5,6,0:0:0:0:
394,271,67433,1,2,0:0:0:0:
351,274,67533,1,2,0:0:0:0:
312,291,67633,1,2,0:0:0:0:
286,325,67733,1,10,0:0:0:0:
239,206,68033,1,2,0:0:0:0:
286,325,68333,1,2,0:0:0:0:
210,363,68533,1,10,0:0:0:0:
215,278,68733,1,0,0:0:0:0:
139,317,68933,5,2,0:0:0:0:
125,276,69033,1,2,0:0:0:0:
111,235,69133,1,2,0:0:0:0:
97,194,69233,1,2,0:0:0:0:
117,156,69333,1,10,0:0:0:0:
156,175,69433,1,2,0:0:0:0:
195,194,69533,1,2,0:0:0:0:
234,213,69633,1,2,0:0:0:0:
266,185,69733,5,2,0:0:0:0:
259,165,69833,1,2,0:0:0:0:
252,144,69933,1,2,0:0:0:0:
245,124,70033,1,2,0:0:0:0:
298,88,70133,1,10,0:0:0:0:
305,68,70233,1,2,0:0:0:0:
312,47,70333,1,2,0:0:0:0:
319,27,70433,1,2,0:0:0:0:
381,10,70533,5,0,0:0:0:0:
406,91,70733,1,2,0:0:0:0:
331,194,71033,1,2,0:0:0:0:
454,161,71333,1,2,0:0:0:0:
333,117,71633,1,2,0:0:0:0:
407,231,71933,1,2,0:0:0:0:
487,282,72133,5,2,0:0:0:0:
338,319,72333,1,0,0:0:0:0:
487,282,72533,1,8,0:0:0:0:
506,130,72733,1,2,0:0:0:0:
359,86,72933,5,2,0:0:0:0:
338,319,73133,1,2,0:0:0:0:
250,194,73333,1,10,0:0:0:0:
210,179,73433,1,2,0:0:0:0:
167,177,73533,1,2,0:0:0:0:
126,189,73633,1,2,0:0:0:0:
93,216,73733,5,4,0:0:0:0:
30,158,73933,1,2,0:0:0:0:
37,116,74033,1,2,0:0:0:0:
150,278,74333,1,2,0:0:0:0:
143,320,74433,1,2,0:0:0:0:
93,216,74733,1,0,0:0:0:0:
167,177,74933,1,10,0:0:0:0:
198,98,75133,1,2,0:0:0:0:
169,17,75333,5,2,0:0:0:0:
210,6,75433,1,2,0:0:0:0:
252,8,75533,1,2,0:0:0:0:
290,25,75633,1,2,0:0:0:0:
294,67,75733,1,10,0:0:0:0:
335,78,75833,1,2,0:0:0:0:
377,76,75933,1,2,0:0:0:0:
415,59,76033,1,2,0:0:0:0:
447,86,76133,5,2,0:0:0:0:
441,106,76233,1,2,0:0:0:0:
435,126,76333,1,2,0:0:0:0:
429,146,76433,1,2,0:0:0:0:
376,181,76533,1,10,0:0:0:0:
382,201,76633,1,2,0:0:0:0:
388,221,76733,1,2,0:0:0:0:
394,241,76833,1,2,0:0:0:0:
448,274,76933,5,0,0:0:0:0:
438,358,77133,1,2,0:0:0:0:
310,360,77433,1,2,0:0:0:0:
309,232,77733,1,2,0:0:0:0:
372,342,78033,1,2,0:0:0:0:
244,342,78333,1,2,0:0:0:0:
379,243,78533,5,2,0:0:0:0:
396,231,78633,1,0,0:0:0:0:
410,215,78733,1,2,0:0:0:0:
421,196,78833,1,0,0:0:0:0:
428,176,78933,1,10,0:0:0:0:
431,155,79033,1,0,0:0:0:0:
431,133,79133,1,2,0:0:0:0:
425,112,79233,1,0,0:0:0:0:
414,93,79333,1,2,0:0:0:0:
398,77,79433,1,0,0:0:0:0:
380,65,79533,1,2,0:0:0:0:
359,59,79633,1,0,0:0:0:0:
337,56,79733,1,10,0:0:0:0:
303,81,79833,1,2,0:0:0:0:
261,88,79933,1,2,0:0:0:0:
221,72,80033,1,2,0:0:0:0:
199,35,80133,5,4,0:0:0:0:
313,349,80433,1,2,0:0:0:0:
91,162,80733,1,0,0:0:0:0:
420,221,81033,1,2,0:0:0:0:
148,319,81333,1,2,0:0:0:0:
148,319,81533,1,2,0:0:0:0:
256,284,81733,5,4,0:0:0:0:
256,284,81933,1,2,0:0:0:0:
256,100,82233,1,0,0:0:0:0:
335,238,82533,1,2,0:0:0:0:
176,146,82833,1,0,0:0:0:0:
335,145,83133,1,2,0:0:0:0:
91,162,83333,5,4,0:0:0:0:
420,221,83633,1,2,0:0:0:0:
148,319,83933,1,0,0:0:0:0:
363,64,84233,1,2,0:0:0:0:
313,349,84533,1,2,0:0:0:0:
313,349,84733,1,2,0:0:0:0:
335,238,84933,5,4,0:0:0:0:
335,238,85133,1,2,0:0:0:0:
176,146,85433,1,0,0:0:0:0:
335,146,85733,1,2,0:0:0:0:
176,238,86033,1,0,0:0:0:0:
255,100,86333,1,2,0:0:0:0:
256,364,86533,5,4,0:0:0:0:
256,20,86833,1,2,0:0:0:0:
256,364,87133,1,0,0:0:0:0:
256,20,87433,1,2,0:0:0:0:
376,192,87733,1,2,0:0:0:0:
135,192,87933,1,2,0:0:0:0:
256,364,88133,5,4,0:0:0:0:
410,324,88333,2,0,L|326:316,1,85,2|0,0:0|2:0,0:0:0:0:
101,278,88633,2,0,L|186:270,1,85,2|0,0:0|2:0,0:0:0:0:
409,197,88933,2,0,P|368:207|326:205,1,85,2|0,0:0|2:0,0:0:0:0:
102,120,89233,2,0,L|186:137,1,85,2|0,0:0|2:0,0:0:0:0:
366,55,89533,2,0,P|345:59|326:68,1,42.5,2|0,0:0|2:0,0:0:0:0:
256,20,89733,5,4,0:0:0:0:
256,364,90033,1,2,0:0:0:0:
256,20,90333,1,0,0:0:0:0:
256,364,90633,1,2,0:0:0:0:
376,192,90933,1,2,0:0:0:0:
135,192,91133,1,2,0:0:0:0:
256,20,91333,5,4,0:0:0:0:
95,3,91533,1,2,0:0:0:0:
69,162,91733,1,8,1:0:0:0:
101,189,91833,2,0,L|186:170,1,85,2|2,0:0|1:0,0:0:0:0:
219,194,92133,1,8,0:0:0:0:
283,145,92333,1,2,0:0:0:0:
366,163,92533,2,0,L|388:161,1,21.25,8|8,0:0|0:0,0:0:0:0:
374,191,92633,2,0,L|396:189,1,21.25,0|0,0:0|0:0,0:0:0:0:
384,220,92733,2,0,L|406:218,1,21.25,0|0,0:0|0:0,0:0:0:0:
393,249,92833,2,0,L|415:247,1,21.25,0|0,0:0|0:0,0:0:0:0:
399,277,92933,5,2,0:0:0:0:
325,317,93133,1,0,0:0:0:0:
158,350,93533,1,0,0:0:0:0:
158,350,93633,1,0,0:0:0:0:
200,229,93933,1,2,0:0:0:0:
158,350,94333,1,0,0:0:0:0:
127,319,94433,1,0,0:0:0:0:
99,286,94533,5,2,0:0:0:0:
182,268,94733,1,0,0:0:0:0:
334,342,95133,1,0,0:0:0:0:
334,342,95233,1,0,0:0:0:0:
300,219,95533,1,2,0:0:0:0:
441,313,95933,1,0,0:0:0:0:
429,272,96033,1,0,0:0:0:0:
417,231,96133,5,2,0:0:0:0:
469,164,96333,1,0,0:0:0:0:
377,20,96733,1,0,0:0:0:0:
377,20,96833,1,0,0:0:0:0:
298,120,97133,1,2,0:0:0:0:
462,78,97533,1,0,0:0:0:0:
462,78,97633,1,0,0:0:0:0:
462,78,97733,5,4,0:0:0:0:
337,52,97933,1,2,0:0:0:0:
225,114,98133,1,0,2:0:0:0:
216,128,98533,1,0,2:0:0:0:
252,204,98733,1,2,0:0:0:0:
211,278,98933,1,0,0:0:0:0:
169,287,99033,1,0,0:0:0:0:
127,296,99133,1,0,0:0:0:0:
85,305,99233,1,0,0:0:0:0:
43,314,99333,5,4,0:0:0:0:
70,233,99533,1,2,0:0:0:0:
29,67,99933,1,2,0:0:0:0:
29,67,100033,1,2,0:0:0:0:
141,127,100333,1,2,0:0:0:0:
285,36,100733,1,2,0:0:0:0:
247,56,100833,1,0,0:0:0:0:
211,79,100933,5,2,0:0:0:0:
141,127,101133,1,0,0:0:0:0:
307,159,101533,1,2,0:0:0:0:
307,159,101633,1,2,0:0:0:0:
206,237,101933,1,2,0:0:0:0:
374,259,102333,1,0,0:0:0:0:
416,264,102433,1,0,0:0:0:0:
457,270,102533,5,2,0:0:0:0:
433,188,102733,1,0,0:0:0:0:
485,349,103133,1,2,0:0:0:0:
485,349,103233,1,2,0:0:0:0:
357,339,103533,1,2,0:0:0:0:
433,188,103933,1,0,0:0:0:0:
444,147,104033,1,0,0:0:0:0:
455,106,104133,5,2,0:0:0:0:
451,85,104233,1,0,0:0:0:0:
447,64,104333,1,2,0:0:0:0:
372,23,104533,1,8,0:0:0:0:
305,75,104733,1,2,0:0:0:0:
301,95,104833,1,0,0:0:0:0:
298,116,104933,1,2,0:0:0:0:
222,154,105133,1,2,0:0:0:0:
218,133,105233,1,2,0:0:0:0:
213,112,105333,1,10,0:0:0:0:
174,92,105433,1,2,0:0:0:0:
131,93,105533,1,2,0:0:0:0:
92,111,105633,1,2,0:0:0:0:
71,148,105733,5,4,0:0:0:0:
201,257,105933,1,0,0:0:0:0:
41,315,106133,1,10,0:0:0:0:
209,339,106333,1,0,0:0:0:0:
318,209,106533,1,0,0:0:0:0:
376,369,106733,1,0,0:0:0:0:
302,297,106933,1,10,0:0:0:0:
310,253,107033,1,2,0:0:0:0:
318,209,107133,1,2,0:0:0:0:
441,236,107333,5,0,0:0:0:0:
311,127,107533,1,0,0:0:0:0:
471,69,107733,1,10,0:0:0:0:
303,45,107933,1,0,0:0:0:0:
194,175,108133,1,0,0:0:0:0:
136,15,108333,1,0,0:0:0:0:
210,87,108533,1,10,0:0:0:0:
202,131,108633,1,2,0:0:0:0:
194,175,108733,1,2,0:0:0:0:
28,320,108933,5,0,0:0:0:0:
190,271,109133,1,0,0:0:0:0:
108,246,109333,1,10,0:0:0:0:
270,295,109533,1,2,0:0:0:0:
208,353,109733,1,0,0:0:0:0:
370,304,109933,1,0,0:0:0:0:
326,230,110133,1,10,0:0:0:0:
356,200,110233,1,2,0:0:0:0:
386,170,110333,1,2,0:0:0:0:
466,96,110533,5,0,0:0:0:0:
304,145,110733,1,0,0:0:0:0:
386,170,110933,1,2,0:0:0:0:
224,121,111133,1,0,0:0:0:0:
286,63,111333,1,0,0:0:0:0:
124,112,111533,1,0,0:0:0:0:
168,186,111733,1,10,0:0:0:0:
138,216,111833,1,2,0:0:0:0:
108,246,111933,1,2,0:0:0:0:
256,344,112133,6,0,L|377:359,1,93.5000028533936,4|2,0:0|0:0,0:0:0:0:
488,192,112533,1,8,0:0:0:0:
488,192,112733,1,2,0:0:0:0:
256,40,112933,1,2,0:0:0:0:
213,35,113033,1,2,0:0:0:0:
171,31,113133,1,2,0:0:0:0:
24,192,113333,1,2,0:0:0:0:
66,187,113433,1,2,0:0:0:0:
108,183,113533,1,2,0:0:0:0:
309,256,113733,6,0,L|298:356,1,93.5000028533936,0|2,0:0|0:0,0:0:0:0:
203,128,114133,2,0,L|214:28,1,93.5000028533936,8|2,0:0|0:0,0:0:0:0:
203,263,114533,1,2,0:0:0:0:
162,274,114633,1,2,0:0:0:0:
121,285,114733,1,2,0:0:0:0:
308,120,114933,1,2,0:0:0:0:
349,130,115033,1,2,0:0:0:0:
390,141,115133,1,2,0:0:0:0:
464,334,115333,6,0,L|453:233,1,93.5000028533936,0|2,0:0|0:0,0:0:0:0:
48,334,115733,2,0,L|58:241,1,93.5000028533936,8|2,0:0|0:0,0:0:0:0:
414,43,116133,1,2,0:0:0:0:
373,53,116233,1,2,0:0:0:0:
332,64,116333,1,2,0:0:0:0:
98,43,116533,1,10,0:0:0:0:
139,53,116633,1,2,0:0:0:0:
180,64,116733,1,2,0:0:0:0:
332,320,116933,5,0,0:0:0:0:
180,320,117133,1,2,0:0:0:0:
400,192,117333,1,8,0:0:0:0:
112,192,117533,1,2,0:0:0:0:
256,32,117733,2,0,L|256:76,6,23.3750007133484,2|0|0|0|0|0|0,0:0|0:0|0:0|0:0|0:0|0:0|0:0,0:0:0:0:
256,128,118133,2,0,L|256:172,6,23.3750007133484,10|0|0|0|0|0|0,0:0|0:0|0:0|0:0|0:0|0:0|0:0,0:0:0:0:
326,188,118533,6,0,P|257:311|183:192,1,340,4|4,0:0|0:0,0:0:0:0:
256,192,120233,12,0,121733,0:0:0:0:
256,192,122533,6,0,L|256:172,15,10.625,0|0|0|0|0|0|0|0|0|0|0|0|4|0|0|0,0:0|0:0|0:0|0:0|0:0|0:0|0:0|0:0|0:0|0:0|0:0|0:0|0:0|0:0|0:0|0:0,0:0:0:0:
256,172,123333,1,4,0:0:0:0:
