osu file format v14

[General]
AudioFilename: Identity part III.mp3
AudioLeadIn: 0
PreviewTime: 54403
Countdown: 0
SampleSet: Normal
StackLeniency: 0.7
Mode: 0
LetterboxInBreaks: 0
WidescreenStoryboard: 0

[Editor]
DistanceSpacing: 0.5
BeatDivisor: 4
GridSize: 4
TimelineZoom: 1

[Metadata]
Title:Identity Part III
TitleUnicode:Identity Part III
Artist:SHK
ArtistUnicode:SHK
Creator:ktgster
Version:Insane
Source:O2Jam
Tags:Sound​Holic​K trancecore
BeatmapID:666874
BeatmapSetID:280329

[Difficulty]
HPDrainRate:5.5
CircleSize:4.5
OverallDifficulty:7
ApproachRate:7.5
SliderMultiplier:1.5
SliderTickRate:1

[Events]
//Background and Video events
0,0,"BG.png",0,0
//Break Periods
//Storyboard Layer 0 (Background)
//Storyboard Layer 1 (Fail)
//Storyboard Layer 2 (Pass)
//Storyboard Layer 3 (Foreground)
//Storyboard Sound Samples

[TimingPoints]
1733,400,4,2,0,20,1,0
9733,-100,4,1,1,70,0,0
22133,-66.6666666666667,4,1,1,100,0,0
22233,-66.6666666666667,4,1,1,30,0,0
22533,-100,4,1,1,70,0,0
35333,-90.9090909090909,4,1,1,70,0,1
48133,-175.438596491228,4,1,1,70,0,0
49933,-133.333333333333,4,1,1,40,0,0
51333,-100,4,1,1,70,0,0
53733,-100,4,1,0,50,0,0
54033,-100,4,1,1,70,0,0
54533,-100,4,1,1,70,0,1
80133,-100,4,1,1,70,0,0
105733,-90.9090909090909,4,1,1,70,0,1
118533,-175.438596491228,4,1,1,70,0,0
121733,-175.438596491228,4,1,1,40,0,0
122533,-175.438596491228,4,1,1,15,0,0
122733,-175.438596491228,4,1,1,20,0,0
122933,-175.438596491228,4,1,1,25,0,0
123133,-175.438596491228,4,1,1,30,0,0
123333,-175.438596491228,4,1,1,70,0,0

[Colours]
Combo1 : 0,234,117
Combo2 : 217,217,0
Combo3 : 113,113,255
Combo4 : 255,81,81

[HitObjects]
426,73,9733,5,4,0:0:0:0:
363,114,9933,1,0,0:0:0:0:
296,76,10133,2,0,L|128:76,2,150,8|8|8,0:0|0:0|0:0,0:0:0:0:
363,114,11133,1,0,0:0:0:0:
426,73,11333,5,8,0:0:0:0:
467,136,11533,1,0,0:0:0:0:
429,203,11733,2,0,L|429:371,2,150,8|8|8,0:0|0:0|0:0,0:0:0:0:
355,189,12733,1,0,0:0:0:0:
298,238,12933,5,8,0:0:0:0:
232,202,13133,1,0,0:0:0:0:
184,260,13333,2,0,L|4:260,2,150,8|8|8,0:0|0:0|0:0,0:0:0:0:
232,202,14333,1,0,0:0:0:0:
179,148,14533,5,8,0:0:0:0:
229,92,14733,1,0,0:0:0:0:
197,23,14933,2,0,L|353:23,2,150,8|8|8,0:0|0:0|0:0,0:0:0:0:
147,80,15933,1,0,0:0:0:0:
81,44,16133,5,8,0:0:0:0:
43,108,16333,1,0,0:0:0:0:
83,170,16533,2,0,P|110:220|65:323,1,150,8|8,0:0|0:0,0:0:0:0:
228,354,17333,2,0,L|324:344,1,75,8|0,0:0|0:0,0:0:0:0:
377,336,17733,5,8,0:0:0:0:
415,272,17933,1,0,0:0:0:0:
375,210,18133,2,0,P|348:160|393:57,1,150,8|8,0:0|0:0,0:0:0:0:
230,26,18933,2,0,L|134:36,1,75,8|0,0:0|0:0,0:0:0:0:
80,45,19333,6,0,L|74:98,3,37.5,8|0|0|0,0:0|0:0|0:0|0:0,0:0:0:0:
86,97,19733,2,0,L|80:150,3,37.5,8|0|0|0,0:0|0:0|0:0|0:0,0:0:0:0:
97,145,20133,2,0,L|91:198,3,37.5,8|0|0|0,0:0|0:0|0:0|0:0,0:0:0:0:
105,196,20533,2,0,L|99:249,3,37.5,8|0|0|0,0:0|0:0|0:0|0:0,0:0:0:0:
111,248,20933,6,0,L|107:274,24,18.75,8|0|0|0|0|0|0|0|8|0|0|0|0|0|0|0|8|0|0|0|0|0|0|0|2,0:0|0:0|0:0|0:0|0:0|0:0|0:0|0:0|0:0|0:0|0:0|0:0|0:0|0:0|0:0|0:0|0:0|0:0|0:0|0:0|0:0|0:0|0:0|0:0|2:0,0:0:0:0:
228,344,22533,6,0,L|384:344,1,150,4|8,0:0|0:0,0:0:0:0:
430,290,23133,1,0,0:0:0:0:
430,290,23233,1,0,0:0:0:0:
430,290,23333,1,2,0:2:0:0:
375,238,23533,1,2,0:2:0:0:
434,192,23733,1,10,0:0:0:0:
434,192,23933,1,2,0:0:0:0:
379,140,24133,6,0,L|152:140,1,225,0|2,0:0|0:0,0:0:0:0:
250,255,25133,1,2,0:0:0:0:
112,314,25533,1,2,0:0:0:0:
112,314,25633,1,2,0:0:0:0:
112,314,25733,5,0,0:0:0:0:
112,314,26333,1,2,0:0:0:0:
36,184,26733,1,2,0:0:0:0:
82,125,26933,1,10,0:0:0:0:
156,126,27133,1,2,0:0:0:0:
196,189,27333,5,0,0:0:0:0:
196,189,27933,1,0,0:0:0:0:
160,255,28133,2,0,P|255:234|238:127,1,225,2|2,0:0|0:0,0:0:0:0:
164,121,28933,5,4,0:0:0:0:
164,121,29533,1,2,0:0:0:0:
89,132,29733,2,0,P|65:175|105:271,1,150,2|10,0:0|0:0,0:0:0:0:
165,293,30333,1,2,0:0:0:0:
238,309,30533,5,0,0:0:0:0:
238,309,31133,1,2,0:0:0:0:
380,262,31533,1,0,0:0:0:0:
267,162,31933,1,2,0:0:0:0:
267,162,32133,5,0,0:0:0:0:
307,98,32333,1,0,0:0:0:0:
229,226,32733,1,2,0:0:0:0:
307,98,33133,2,0,L|347:29,2,75,2|10|2,0:0|0:0|0:0,0:0:0:0:
267,162,33733,5,0,0:0:0:0:
193,146,33933,1,0,0:0:0:0:
118,155,34133,1,8,0:0:0:0:
69,212,34333,1,2,0:0:0:0:
16,158,34533,1,0,0:0:0:0:
10,140,34633,1,0,0:0:0:0:
10,121,34733,1,2,0:0:0:0:
51,58,34933,2,0,L|101:41,2,37.5,8|2|2,0:0|0:0|0:0,0:0:0:0:
132,183,35333,6,0,L|218:239,1,82.5000025177003,4|0,0:0|0:0,0:0:0:0:
218,147,35733,2,0,L|319:161,1,82.5000025177003,10|0,0:0|0:0,0:0:0:0:
276,79,36133,2,0,L|374:49,1,82.5000025177003,0|0,0:0|0:0,0:0:0:0:
434,31,36533,1,10,0:0:0:0:
434,31,36633,1,2,0:0:0:0:
434,31,36733,1,2,0:0:0:0:
477,100,36933,6,0,L|469:182,1,82.5000025177003,0|0,0:0|0:0,0:0:0:0:
395,146,37332,2,0,L|353:217,1,82.5000025177003,10|0,0:0|0:0,0:0:0:0:
306,149,37733,2,0,L|238:196,1,82.5000025177003
171,244,38133,1,10,0:0:0:0:
171,244,38233,1,2,0:0:0:0:
171,244,38333,1,2,0:0:0:0:
218,311,38533,6,0,P|176:325|117:306,1,82.5000025177003,0|0,0:0|0:0,0:0:0:0:
92,250,38933,2,0,P|100:206|146:165,1,82.5000025177003,10|2,0:0|0:0,0:0:0:0:
206,172,39333,2,0,P|239:201|252:261,1,82.5000025177003,0|0,0:0|0:0,0:0:0:0:
218,311,39733,1,10,0:0:0:0:
220,314,39833,1,2,0:0:0:0:
222,317,39933,1,2,0:0:0:0:
292,360,40133,6,0,L|385:359,1,82.5000025177003
411,285,40533,2,0,L|316:276,1,82.5000025177003,2|0,0:0|0:0,0:0:0:0:
306,197,40933,2,0,L|401:206,1,82.5000025177003,0|0,0:0|0:0,0:0:0:0:
440,141,41333,1,10,0:0:0:0:
440,141,41433,1,2,0:0:0:0:
440,141,41533,1,2,0:0:0:0:
407,65,41733,5,4,0:0:0:0:
334,24,41933,1,2,0:0:0:0:
251,15,42133,1,8,0:0:0:0:
173,42,42333,1,2,0:0:0:0:
110,95,42533,2,0,L|91:154,2,41.2500012588501,2|2|2,0:0|0:0|0:0,0:0:0:0:
27,90,42933,2,0,L|46:31,2,41.2500012588501,2|2|2,0:0|0:0|0:0,0:0:0:0:
25,176,43333,5,0,0:0:0:0:
98,135,43533,1,2,0:0:0:0:
181,126,43733,1,8,0:0:0:0:
259,153,43933,1,2,0:0:0:0:
322,206,44133,2,0,L|341:265,2,41.2500012588501,2|2|2,0:0|0:0|0:0,0:0:0:0:
405,201,44533,2,0,L|386:142,2,41.2500012588501,2|2|2,0:0|0:0|0:0,0:0:0:0:
426,280,44933,6,0,P|408:325|374:360,1,82.5000025177003,0|2,0:0|0:0,0:0:0:0:
306,370,45333,1,8,0:0:0:0:
227,345,45533,1,2,0:0:0:0:
187,272,45733,1,2,0:0:0:0:
187,272,45833,1,2,0:0:0:0:
187,272,45933,1,2,0:0:0:0:
213,193,46133,1,2,0:0:0:0:
213,193,46233,1,2,0:0:0:0:
213,193,46333,1,2,0:0:0:0:
284,151,46533,6,0,L|375:134,1,82.5000025177003,0|2,0:0|0:0,0:0:0:0:
202,102,46933,2,0,L|111:85,1,82.5000025177003,8|2,0:0|0:0,0:0:0:0:
278,38,47333,1,2,0:2:0:0:
298,34,47433,1,2,0:2:0:0:
318,30,47533,1,2,0:2:0:0:
367,95,47733,1,8,0:0:0:0:
387,99,47833,1,2,0:2:0:0:
407,103,47933,1,2,0:2:0:0:
462,37,48133,6,0,B|553:156|394:244|481:362,1,341.999995825195,4|4,0:0|1:0,0:0:0:0:
311,356,50133,2,0,L|175:356,2,112.500004291535,2|2|2,2:0|2:0|2:0,0:0:0:0:
311,356,51333,5,4,0:0:0:0:
382,334,51533,1,2,0:2:0:0:
385,315,51633,1,2,0:2:0:0:
388,296,51733,1,0,0:0:0:0:
327,251,51933,1,2,0:2:0:0:
324,232,52033,1,2,0:2:0:0:
321,213,52133,1,2,0:2:0:0:
366,153,52333,1,10,0:0:0:0:
353,79,52533,1,10,0:0:0:0:
339,65,52633,1,10,0:0:0:0:
322,55,52733,1,10,0:0:0:0:
303,50,52833,1,10,0:0:0:0:
284,48,52933,5,4,0:0:0:0:
228,187,53333,1,8,0:0:0:0:
148,60,53733,2,0,P|112:53|77:53,1,56.25,2|2,0:0|0:0,0:0:0:0:
21,113,54133,1,0,0:0:0:0:
21,113,54533,5,4,0:0:0:0:
57,258,54933,1,10,0:0:0:0:
96,113,55333,1,0,0:0:0:0:
96,113,55533,2,0,P|148:95|237:126,2,150,2|2|2,0:0|0:0|0:0,0:0:0:0:
96,113,56733,1,0,0:0:0:0:
59,178,56933,1,2,0:0:0:0:
65,195,57033,1,2,0:0:0:0:
71,212,57133,1,2,0:0:0:0:
43,281,57333,2,0,P|80:284|125:265,1,75,10|2,0:0|0:0,0:0:0:0:
172,224,57733,6,0,L|172:44,1,150,2|0,0:0|0:0,0:0:0:0:
244,48,58333,2,0,L|244:198,1,150,2|0,0:0|0:0,0:0:0:0:
303,244,58933,2,0,L|339:232,3,37.5,10|2|2|2,0:0|0:0|0:0|0:0,0:0:0:0:
356,227,59333,6,0,P|396:164|348:100,1,150,2|0,0:0|0:0,0:0:0:0:
298,147,59933,2,0,P|258:84|306:20,1,150,2|0,0:0|0:0,0:0:0:0:
368,26,60533,1,2,0:0:0:0:
368,26,60633,1,2,0:0:0:0:
368,26,60733,1,2,0:0:0:0:
436,56,60933,5,4,0:0:0:0:
415,204,61333,1,10,0:0:0:0:
295,112,61733,1,0,0:0:0:0:
295,112,61833,1,0,0:0:0:0:
295,112,61933,2,0,P|241:86|145:110,2,150,2|2|2,0:0|0:0|0:0,0:0:0:0:
295,112,63133,1,0,0:0:0:0:
333,176,63333,1,10,0:0:0:0:
335,194,63433,1,2,0:0:0:0:
337,212,63533,1,2,0:0:0:0:
276,255,63733,1,10,0:0:0:0:
274,273,63833,1,2,0:0:0:0:
272,291,63933,1,2,0:0:0:0:
213,338,64133,6,0,L|57:339,1,150,2|10,0:0|0:0,0:0:0:0:
39,267,64733,1,2,0:0:0:0:
57,267,64833,1,2,0:0:0:0:
76,267,64933,1,2,0:0:0:0:
95,267,65033,1,2,0:0:0:0:
113,267,65133,1,2,0:0:0:0:
132,194,65333,1,10,0:0:0:0:
114,194,65433,1,2,0:0:0:0:
95,194,65533,1,2,0:0:0:0:
51,133,65733,6,0,P|74:51|134:35,1,150,2|10,0:0|0:0,0:0:0:0:
203,47,66333,1,2,0:0:0:0:
264,90,66533,1,0,0:0:0:0:
265,108,66633,1,0,0:0:0:0:
266,126,66733,1,0,0:0:0:0:
320,177,66933,1,10,0:0:0:0:
319,195,67033,1,2,0:0:0:0:
318,213,67133,1,2,0:0:0:0:
254,253,67333,6,0,L|198:260,4,37.5,6|2|2|2|10,0:0|0:0|0:0|0:0|0:0,0:0:0:0:
322,343,68033,1,2,0:0:0:0:
424,295,68333,1,2,0:0:0:0:
380,234,68533,2,0,P|368:193|379:151,1,75,10|0,0:0|0:0,0:0:0:0:
427,109,68933,6,0,L|465:95,3,37.5,2|2|2|2,0:0|0:0|0:0|0:0,0:0:0:0:
407,83,69333,2,0,L|423:46,3,37.5,10|2|2|2,0:0|0:0|0:0|0:0,0:0:0:0:
370,69,69733,2,0,L|356:31,3,37.5,2|2|2|2,0:0|0:0|0:0|0:0,0:0:0:0:
335,85,70133,2,0,L|298:68,3,37.5,10|2|2|2,0:0|0:0|0:0|0:0,0:0:0:0:
314,124,70533,5,0,0:0:0:0:
304,198,70733,2,0,L|440:198,1,112.5,2|2,0:0|0:0,0:0:0:0:
472,296,71333,1,2,0:0:0:0:
360,280,71633,1,2,0:0:0:0:
266,342,71933,1,2,0:0:0:0:
266,342,72133,6,0,L|251:253,1,75,2|0,0:0|0:0,0:0:0:0:
180,252,72533,2,0,L|192:325,1,75,8|2,0:0|0:0,0:0:0:0:
127,364,72933,1,2,0:0:0:0:
127,364,73133,1,2,0:0:0:0:
56,339,73333,1,10,0:0:0:0:
52,320,73433,1,2,0:0:0:0:
49,302,73533,1,2,0:0:0:0:
46,283,73633,1,2,0:0:0:0:
43,265,73733,5,4,0:0:0:0:
29,191,73933,2,0,B|4:136|52:96|20:32,2,150
100,214,74933,1,10,0:0:0:0:
170,187,75133,1,2,0:0:0:0:
197,117,75333,6,0,L|159:103,3,37.5,2|2|2|2,0:0|0:0|0:0|0:0,0:0:0:0:
217,91,75733,2,0,L|201:54,3,37.5,10|2|2|2,0:0|0:0|0:0|0:0,0:0:0:0:
254,77,76133,2,0,L|268:39,3,37.5,2|2|2|2,0:0|0:0|0:0|0:0,0:0:0:0:
289,93,76533,2,0,L|326:76,3,37.5,10|2|2|2,0:0|0:0|0:0|0:0,0:0:0:0:
310,132,76933,5,0,0:0:0:0:
322,206,77133,2,0,L|186:206,1,112.5,2|2,0:0|0:0,0:0:0:0:
150,302,77733,1,2,0:0:0:0:
262,286,78033,1,2,0:0:0:0:
356,348,78333,1,2,0:0:0:0:
356,348,78533,6,0,L|435:354,1,75,2|2,0:0|0:0,0:0:0:0:
406,282,78933,2,0,L|466:230,1,75,10|2,0:0|0:0,0:0:0:0:
394,201,79333,2,0,L|400:122,1,75,2|2,0:0|0:0,0:0:0:0:
328,148,79733,2,0,L|296:111,3,37.5,10|2|2|2,0:0|0:0|0:0|0:0,0:0:0:0:
292,104,80133,6,0,L|144:104,1,112.5,4|2,0:0|0:0,0:0:0:0:
133,206,80733,2,0,L|281:206,1,112.5,0|2,0:0|0:0,0:0:0:0:
292,104,81333,1,2,0:0:0:0:
345,50,81533,1,2,0:0:0:0:
398,103,81733,5,4,0:0:0:0:
398,103,81933,1,2,0:0:0:0:
318,182,82233,1,0,0:0:0:0:
318,294,82533,1,2,0:0:0:0:
397,373,82833,1,0,0:0:0:0:
476,293,83133,1,2,0:0:0:0:
476,293,83333,6,0,L|476:151,1,112.5,4|2,0:0|0:0,0:0:0:0:
389,108,83933,2,0,L|389:250,1,112.5,0|2,0:0|0:0,0:0:0:0:
476,293,84533,1,2,0:0:0:0:
422,346,84733,1,2,0:0:0:0:
368,292,84933,5,4,0:0:0:0:
368,292,85133,1,2,0:0:0:0:
288,212,85433,1,0,0:0:0:0:
175,212,85733,1,2,0:0:0:0:
95,291,86033,1,0,0:0:0:0:
174,370,86333,1,2,0:0:0:0:
174,370,86533,6,0,L|322:370,1,112.5,4|2,0:0|0:0,0:0:0:0:
343,273,87133,2,0,L|195:273,1,112.5,0|2,0:0|0:0,0:0:0:0:
170,177,87733,1,2,0:0:0:0:
170,177,87933,1,2,0:0:0:0:
223,123,88133,5,4,0:0:0:0:
223,123,88333,1,2,0:0:0:0:
318,27,88633,1,2,0:0:0:0:
453,27,88933,1,2,0:0:0:0:
386,144,89233,1,2,0:0:0:0:
318,27,89533,1,2,0:0:0:0:
260,75,89733,6,0,L|260:187,1,112.5,4|2,0:0|0:0,0:0:0:0:
160,239,90333,2,0,L|160:126,1,112.5,0|2,0:0|0:0,0:0:0:0:
57,80,90933,1,2,0:0:0:0:
57,80,91133,1,2,0:0:0:0:
3,133,91333,5,4,0:0:0:0:
56,186,91533,1,2,0:0:0:0:
20,251,91733,2,0,P|15:308|67:362,1,112.5,8|0,1:0|0:0,0:0:0:0:
63,357,92133,1,8,0:0:0:0:
106,295,92333,1,2,0:0:0:0:
179,278,92533,1,8,0:0:0:0:
179,278,92933,6,0,L|273:264,1,75,2|0,0:0|0:0,0:0:0:0:
400,237,93533,1,0,0:0:0:0:
301,124,93933,1,2,0:0:0:0:
400,237,94333,1,0,0:0:0:0:
455,186,94533,6,0,L|441:92,1,75,2|0,0:0|0:0,0:0:0:0:
323,202,95133,1,0,0:0:0:0:
408,325,95533,1,2,0:0:0:0:
258,338,95933,1,0,0:0:0:0:
258,338,96033,1,0,0:0:0:0:
258,338,96133,6,0,L|151:330,1,75,2|0,0:0|0:0,0:0:0:0:
33,318,96733,1,0,0:0:0:0:
120,196,97133,1,2,0:0:0:0:
43,66,97533,1,0,0:0:0:0:
96,13,97733,5,4,0:0:0:0:
167,36,97933,1,2,0:0:0:0:
188,108,98133,2,0,L|188:288,1,150,0|0,2:0|2:0,0:0:0:0:
228,321,98733,1,2,0:0:0:0:
290,279,98933,1,0,0:0:0:0:
308,280,99033,1,0,0:0:0:0:
326,282,99133,1,0,0:0:0:0:
344,284,99233,1,0,0:0:0:0:
362,286,99333,6,0,L|467:270,1,75,4|2,0:0|0:0,0:0:0:0:
345,155,99933,1,2,0:0:0:0:
345,155,100033,1,2,0:0:0:0:
455,135,100333,1,2,0:0:0:0:
374,8,100733,1,2,0:0:0:0:
370,26,100833,1,0,0:0:0:0:
366,44,100933,6,0,L|279:63,1,75,2|0,0:0|0:0,0:0:0:0:
146,94,101533,1,2,0:0:0:0:
146,94,101633,1,2,0:0:0:0:
238,158,101933,1,2,0:0:0:0:
99,216,102333,1,0,0:0:0:0:
94,234,102433,1,0,0:0:0:0:
89,252,102533,6,0,L|104:328,1,75,2|0,0:0|0:0,0:0:0:0:
248,363,103133,1,2,0:0:0:0:
248,363,103233,1,2,0:0:0:0:
224,252,103533,1,2,0:0:0:0:
371,278,103933,1,0,0:0:0:0:
389,282,104033,1,0,0:0:0:0:
407,286,104133,5,2,0:0:0:0:
440,219,104333,1,2,0:0:0:0:
413,148,104533,1,8,0:0:0:0:
350,106,104733,1,2,0:0:0:0:
331,110,104833,1,0,0:0:0:0:
312,114,104933,1,2,0:0:0:0:
257,165,105133,1,2,0:0:0:0:
238,161,105233,1,2,0:0:0:0:
219,157,105333,1,10,0:0:0:0:
200,153,105433,1,2,0:0:0:0:
181,149,105533,1,2,0:0:0:0:
162,145,105633,1,2,0:0:0:0:
143,141,105733,5,4,0:0:0:0:
76,190,105933,1,0,0:0:0:0:
151,223,106133,2,0,P|155:264|137:311,1,82.5000025177003,10|0,0:0|0:0,0:0:0:0:
206,354,106533,1,0,0:0:0:0:
282,322,106733,1,0,0:0:0:0:
354,361,106933,1,10,0:0:0:0:
373,354,107033,1,2,0:0:0:0:
392,347,107133,1,2,0:0:0:0:
432,252,107333,5,0,0:0:0:0:
499,203,107533,1,0,0:0:0:0:
424,170,107733,2,0,P|420:129|438:82,1,82.5000025177003,10|0,0:0|0:0,0:0:0:0:
369,39,108133,1,0,0:0:0:0:
293,71,108333,1,0,0:0:0:0:
221,32,108533,1,10,0:0:0:0:
202,39,108633,1,2,0:0:0:0:
183,46,108733,1,2,0:0:0:0:
133,136,108933,5,0,0:0:0:0:
171,209,109133,1,0,0:0:0:0:
88,205,109333,2,0,P|96:246|130:283,1,82.5000025177003,10|2,0:0|0:0,0:0:0:0:
203,285,109733,1,0,0:0:0:0:
253,219,109933,1,0,0:0:0:0:
329,188,110133,1,10,0:0:0:0:
349,190,110233,1,2,0:0:0:0:
369,192,110333,1,2,0:0:0:0:
441,119,110533,5,0,0:0:0:0:
392,52,110733,1,0,0:0:0:0:
319,91,110933,2,0,P|279:104|223:97,1,82.5000025177003,2|0,0:0|0:0,0:0:0:0:
172,52,111333,1,0,0:0:0:0:
112,108,111533,1,0,0:0:0:0:
150,180,111733,1,10,0:0:0:0:
144,199,111833,1,2,0:2:0:0:
138,218,111933,1,2,0:2:0:0:
38,347,112133,5,4,0:0:0:0:
113,313,112333,1,2,0:0:0:0:
195,312,112533,1,8,0:0:0:0:
268,348,112733,1,2,0:0:0:0:
335,300,112933,1,2,0:2:0:0:
335,300,113033,1,2,0:2:0:0:
335,300,113133,1,2,0:2:0:0:
289,231,113333,2,0,L|232:213,2,41.2500012588501,2|2|2,0:0|0:0|0:0,0:0:0:0:
445,167,113733,5,0,0:0:0:0:
410,92,113933,1,2,0:0:0:0:
335,57,114133,1,8,0:0:0:0:
252,64,114333,1,2,0:0:0:0:
196,125,114533,1,2,0:2:0:0:
196,125,114633,1,2,0:2:0:0:
196,125,114733,1,2,0:2:0:0:
242,194,114933,2,0,L|299:212,2,41.2500012588501,2|2|2,0:0|0:0|0:0,0:0:0:0:
134,328,115333,5,0,0:0:0:0:
59,292,115533,1,2,0:0:0:0:
30,214,115733,1,8,0:0:0:0:
42,132,115933,1,2,0:0:0:0:
94,67,116133,1,2,0:0:0:0:
114,62,116233,1,2,0:0:0:0:
134,57,116333,1,2,0:0:0:0:
194,112,116533,1,10,0:0:0:0:
214,117,116633,1,2,0:0:0:0:
234,122,116733,1,2,0:0:0:0:
291,62,116933,5,0,0:0:0:0:
291,62,117133,1,2,0:0:0:0:
386,88,117333,2,0,L|369:179,1,82.5000025177003,8|2,0:0|0:0,0:0:0:0:
284,216,117733,1,2,0:0:0:0:
286,236,117833,1,0,0:0:0:0:
289,256,117933,1,0,0:0:0:0:
383,285,118133,1,10,0:0:0:0:
381,305,118233,1,0,0:0:0:0:
378,325,118333,1,0,0:0:0:0:
284,358,118533,6,0,P|217:373|172:168,1,341.999995825195,4|4,0:0|0:0,0:0:0:0:
256,192,120233,12,0,121733,0:0:0:0:
256,192,122533,6,0,L|256:178,16,10.6874998695374,0|0|0|0|0|0|0|0|0|0|0|0|4|0|0|4|4,0:0|0:0|0:0|0:0|0:0|0:0|0:0|0:0|0:0|0:0|0:0|0:0|0:0|0:0|0:0|0:0|0:0,0:0:0:0:
