osu file format v9

[General]
AudioFilename: SHKO2SE - Identity pt 2.mp3
AudioLeadIn: 0
PreviewTime: 30340
Countdown: 0
SampleSet: Normal
StackLeniency: 0.7
Mode: 0
LetterboxInBreaks: 0

[Editor]
Bookmarks: 147340,156540
DistanceSpacing: 1
BeatDivisor: 4
GridSize: 8

[Metadata]
Title:Identity Part II
Artist:SHK
Creator:Chacha17
Version:Insane
Source:O2Jam
Tags:NoHItter wanhyrzh id2

[Difficulty]
HPDrainRate:8
CircleSize:5
OverallDifficulty:5
ApproachRate:8
SliderMultiplier:1.8
SliderTickRate:0.5

[Events]
//Background and Video events
0,0,"ID2.png"
//Break Periods
2,75532,77782
2,121941,125792
//Storyboard Layer 0 (Background)
//Storyboard Layer 1 (Fail)
//Storyboard Layer 2 (Pass)
//Storyboard Layer 3 (Foreground)
//Storyboard Sound Samples
//Background Colour Transformations
3,100,0,0,0

[TimingPoints]
14520,400.080016003201,4,1,0,100,1,0
20020,-100,4,2,0,100,0,0
20720,-100,4,1,0,100,0,0
26820,-100,4,2,0,100,0,0
27020,-100,4,1,0,100,0,0
27322,-100,4,2,0,100,0,0
28922,-100,4,1,0,100,0,0
30520,-100,4,1,0,100,0,1
43320,-100,4,1,0,100,0,0
49720,-200,4,1,0,80,0,0
52927,-100,4,1,0,100,0,0
78332,-100,4,1,0,40,0,0
78732,-100,4,1,0,65,0,0
79132,-100,4,1,0,85,0,0
79533,-100,4,1,0,100,0,0
81620,-100,4,1,1,100,0,0
121541,-100,4,1,1,30,0,0
126542,-100,4,1,1,100,0,0
133620,-100,4,2,0,100,0,0
134320,-100,4,1,0,100,0,0
147344,413.793103448276,4,1,0,100,1,0
148999,428.571428571429,4,1,0,100,1,0
150718,487.8,4,1,0,100,1,0
152689,566.038571428571,4,1,0,100,1,0
154948,400.080016003201,4,1,0,100,1,0
158140,-100,4,1,0,100,0,1
170940,-100,4,1,0,100,0,0

[Colours]
Combo1 : 249,199,0
Combo2 : 253,22,11
Combo3 : 0,137,166
Combo4 : 124,36,244

[HitObjects]
72,56,14520,1,8
48,144,14720,1,0
48,232,14920,1,8
104,304,15120,1,0
192,336,15320,1,0
216,344,15420,1,0
240,336,15520,1,8
336,312,15720,1,8
360,304,15820,1,0
384,312,15920,1,0
440,240,16120,5,0
440,152,16320,2,0,B|376:48,1,90,0|8
304,96,16720,2,0,B|224:176,1,90
240,159,17120,1,0
176,216,17320,1,8
112,272,17520,1,0
176,336,17720,5,0
240,272,17920,1,0
304,336,18120,1,8
360,272,18320,1,0
384,264,18420,1,0
408,248,18520,1,0
424,224,18620,1,0
432,200,18720,2,0,B|448:152|400:88,1,90,0|8
248,56,19320,5,0
272,72,19420,1,0
296,56,19521,1,0
320,72,19621,1,0
344,56,19721,1,8
440,328,20121,5,2
80,328,20521,1,2
64,56,20921,6,0,L|72:40|80:56|88:40|96:56|104:40|112:56|120:40|128:56|136:40|144:56|152:40|160:56,1,180,2|10
256,128,21521,1,0
368,200,21721,2,0,L|376:184|384:200|392:184|400:200|408:184|416:200|424:184|432:200|440:184|448:200|456:184|464:200,1,180,2|10
192,104,22521,6,0,C|88:104,1,90,2|0
320,104,22921,2,0,C|416:104,1,90,10|0
256,192,23321,2,0,C|256:296,2,90,2|0|10
416,272,24121,5,2
432,248,24221,1,0
448,224,24321,1,0
464,136,24522,1,8
408,64,24722,1,0
320,72,24922,5,2
296,80,25022,1,0
272,88,25122,1,0
184,112,25322,2,0,B|120:112|120:40,2,90,0|0|2
80,256,26122,6,0,B|40:208|96:168,2,90,8|0|2
256,272,26922,1,4
432,328,27322,6,0,B|480:304,3,45
352,288,27722,2,0,B|296:256,3,45
432,240,28122,2,0,B|472:216,3,45
352,200,28522,2,0,B|296:160,3,45
256,192,28922,12,4,30123
88,72,30523,5,2
40,152,30723,1,0
72,240,30923,1,0
160,264,31123,1,0
160,264,31223,1,2
296,264,31523,2,2,L|304:248|312:264|320:248|328:264|336:248|344:264,2,90
256,184,32123,5,2
184,72,32423,1,2
320,72,32723,1,6
472,168,33023,1,0
456,192,33123,1,2
440,216,33223,1,0
424,240,33323,1,0
368,312,33523,1,4
280,336,33723,6,0,C|280:232,1,90,2|0
176,336,34123,2,0,C|176:232,1,90,0|0
176,246,34423,1,2
88,144,34724,1,2
96,56,34924,1,0
184,72,35124,1,2
184,72,35324,5,2
384,56,35624,1,0
464,240,35924,1,2
464,240,36224,1,2
384,56,36524,1,0
328,128,36724,1,0
240,128,36924,6,0,C|128:128,1,90,2|0
150,128,37324,1,0
80,184,37524,1,0
80,184,37624,1,6
136,304,37924,2,2,L|144:288|152:304|160:288|168:304|176:288|184:304,2,90
256,232,38524,5,2
256,96,38824,1,2
256,232,39124,1,6
368,152,39424,1,0
392,152,39525,1,2
480,152,39725,2,0,C|480:264,1,90,2|0
416,312,40125,5,2
328,280,40325,1,0
240,312,40525,1,0
152,280,40725,1,0
152,280,40825,1,2
32,216,41125,2,2,L|40:200|48:216|56:200|64:216|72:200|80:216,2,90
32,216,41725,5,2
200,96,42025,1,0
368,216,42325,1,0
368,216,42525,1,2
200,96,42825,1,0
32,216,43125,1,0
32,216,43325,1,4
256,192,43525,12,4,44726
88,96,45026,6,0,C|48:120,3,45
112,184,45526,1,0
112,184,45626,1,0
56,248,45826,1,0
56,248,45926,1,0
56,248,46026,1,0
56,248,46126,1,0
264,328,46526,5,0
352,320,46726,1,0
424,272,46926,1,0
448,184,47126,1,0
448,184,47226,1,0
448,184,47326,1,0
448,96,47526,1,0
448,96,47626,1,0
448,96,47726,1,0
448,96,47826,1,0
448,96,47926,1,0
272,96,48226,6,0,C|224:48,3,45
176,128,48726,1,0
176,128,48826,1,0
96,168,49026,1,0
72,192,49126,1,0
56,216,49226,1,0
48,240,49326,1,0
48,264,49426,1,0
56,288,49527,1,0
72,312,49627,1,0
96,328,49727,6,2,C|208:328,1,90
192,240,50327,2,0,B|232:200|280:248,1,90,2|0
360,240,50927,1,2
448,240,51127,2,0,C|448:184,1,45,0|2
288,104,51727,2,0,B|248:64|200:112,2,90,0|2|0
376,104,52727,5,0
376,104,52827,1,0
376,104,52927,2,0,C|496:104,1,90,0|4
432,192,53327,1,0
392,272,53527,1,2
224,328,53927,1,4
80,104,54528,5,0
168,104,54728,1,2
40,232,55128,2,0,B|88:272|168:272|208:224,1,180,0|2
280,272,55728,1,0
280,296,55828,1,0
288,320,55928,1,0
304,336,56028,1,0
328,352,56128,6,0,B|368:392|424:344,1,90,2|0
456,280,56528,1,0
408,208,56728,1,0
456,128,56928,2,0,B|424:88|376:72|328:88|296:144,1,180,2|0
303,131,57528,1,0
303,131,57728,5,2
168,128,58028,1,0
72,224,58328,1,0
120,296,58528,1,2
256,320,58828,1,0
392,296,59128,1,4
256,192,59328,12,4,60529
88,104,60929,5,2
40,184,61129,1,0
40,184,61229,1,2
40,184,61329,1,0
48,272,61529,1,0
128,312,61729,1,2
208,272,61929,1,0
288,312,62129,1,6
456,240,62529,5,4
432,64,62929,1,2
256,104,63329,1,0
256,104,63529,1,2
80,136,63929,1,0
80,136,64129,6,0,B|24:160|24:216|88:240,1,135,2|0
200,296,64730,2,0,B|248:344|304:344|368:288,1,180,2|2
432,240,65330,1,0
432,240,65430,1,0
432,240,65530,1,0
432,240,65630,1,0
432,240,65730,6,0,B|432:56,1,180,2|0
256,56,66530,1,0
168,64,66730,1,2
88,112,66930,1,0
48,192,67130,1,0
48,280,67330,6,2,B|56:328|88:360|136:376|224:328,1,180
256,288,67930,1,0
320,224,68130,2,0,B|328:176|360:144|408:128|496:176,2,180,2|2|6
256,56,69330,5,2
96,136,69731,1,0
72,224,69931,1,2
184,344,70331,5,0
272,352,70531,2,0,B|272:200,2,135,2|0|2
440,280,71531,2,2,B|352:232,1,90,0|0
360,144,71931,1,0
440,192,72131,5,0
440,280,72331,1,0
440,280,72431,1,8
312,312,72731,1,8
272,328,72831,1,0
232,312,72931,5,0
152,312,73131,1,0
112,328,73231,1,8
72,200,73531,6,0,B|8:208,2,45,8|0|0
160,184,73931,2,0,B|224:176,2,45,0|0|8
176,96,74331,6,0,B|288:96,1,90,0|8
448,96,74732,2,0,B|328:96,1,90,0|8
312,272,75132,2,0,B|312:152,1,90,8|4
72,72,78532,5,0
432,112,78932,1,0
72,136,79332,1,0
432,176,79733,1,0
256,328,80133,5,0
256,304,80233,1,0
256,280,80333,1,0
256,256,80433,1,0
256,232,80533,1,0
256,208,80633,1,0
256,184,80733,6,0,B|256:136,5,45
64,264,81733,6,0,B|24:200|88:128,2,135,0|8|0
136,320,82533,1,0
224,336,82733,1,0
312,336,82933,1,8
400,312,83133,1,0
472,264,83333,6,0,B|384:176,1,90
408,112,83733,2,0,B|328:176,1,90,8|0
256,216,84133,1,8
256,216,84233,1,0
256,216,84333,1,0
184,168,84534,1,8
112,120,84734,1,0
40,72,84934,6,0,B|0:136|64:208,2,135,0|8|0
128,40,85734,1,0
208,80,85934,1,0
296,80,86134,1,8
376,40,86334,1,0
456,80,86534,5,0
488,168,86734,1,0
456,248,86934,1,8
376,288,87134,1,0
288,320,87334,2,0,B|224:312,2,45
248,240,87734,1,8
232,216,87834,1,0
216,192,87934,1,8
200,168,88034,1,0
184,144,88134,6,0,B|216:112|264:96|312:112|352:144,1,180,0|0
347,141,88734,1,2
344,320,89134,1,0
168,320,89535,1,0
168,320,89735,6,0,B|104:328|64:304|64:224,2,135,2|0|0
240,272,90535,1,0
312,216,90735,1,0
240,160,90935,1,2
168,104,91135,1,0
224,32,91335,6,0,B|280:8|320:56,1,90,0|2
400,48,91735,1,0
472,104,91935,1,2
512,184,92135,1,0
464,264,92335,1,2
384,304,92535,1,0
296,288,92735,1,6
208,264,92935,5,0
224,248,93035,1,0
208,232,93135,1,0
224,216,93235,1,0
208,200,93335,1,0
224,184,93435,1,0
208,168,93535,1,0
224,152,93635,1,0
208,136,93735,6,0,B|208:96|264:88,6,45
336,56,94536,6,0,B|440:64|488:176,1,180,2|0
480,240,95136,2,0,B|424:360|304:320,1,180,0|2
160,328,95936,1,0
160,328,96136,6,0,B|64:344|32:240,2,135,2|0|2
288,200,97136,1,0
344,136,97336,1,2
408,72,97536,1,0
344,136,97736,6,0,B|248:152|216:48,2,135,2|0|2
480,256,98736,1,0
312,192,99136,1,0
232,224,99336,6,0,B|136:208|104:312,2,135,2|0|2
312,264,100137,1,0
336,280,100237,1,0
360,264,100337,1,8
432,208,100537,1,0
448,184,100637,1,0
432,160,100737,1,8
432,72,100937,6,0,B|280:72,2,135,2|0|2
432,248,101937,1,0
256,248,102337,1,0
168,248,102537,6,0,B|16:248,2,135,2|0|2
168,72,103537,1,0
256,72,103737,1,2
344,72,103937,1,0
432,72,104137,6,0,B|432:216,2,135,2|0|2
344,232,105138,1,0
344,232,105338,1,2
344,232,105538,1,0
256,192,105738,12,4,107338
96,72,107638,6,0,B|136:40|184:40|240:80,1,135,0|2
168,144,108138,1,0
104,208,108338,1,2
40,272,108538,1,0
104,336,108738,1,0
168,272,108938,6,0,B|232:320|304:264,1,135,2|0
408,200,109539,2,0,B|376:152|272:152|248:208,1,180,2|0
248,112,110139,1,2
312,48,110339,1,0
376,112,110539,6,0,B|440:152|520:104,2,135,2|0|2
496,248,111539,1,0
408,248,111739,1,2
320,248,111939,1,0
232,248,112139,6,0,B|168:296|80:232,2,135,2|0|2
152,88,113139,1,0
232,136,113339,1,2
312,88,113539,1,0
392,136,113739,6,0,B|392:280,2,135,2|0|2
272,272,114740,1,0
184,248,114940,1,2
96,224,115140,1,0
96,224,115340,6,0,B|32:160|112:96,2,135,2|0|2
224,96,116340,1,0
296,152,116540,1,2
368,96,116740,1,0
440,152,116940,5,2
256,240,117240,1,0
72,152,117540,1,0
72,152,117740,1,2
256,240,118040,1,0
440,152,118340,1,0
440,152,118540,5,2
256,64,118840,1,0
72,152,119140,1,2
256,352,119541,1,0
256,352,119741,1,0
256,352,119941,1,4
256,192,120541,12,4,121741
56,64,126542,5,0
48,88,126642,1,0
48,112,126742,1,0
56,136,126842,1,0
48,160,126942,1,0
48,184,127042,1,0
48,208,127142,1,0
56,232,127242,1,0
64,256,127342,6,0,B|88:280,16,22.5
184,120,128542,6,0,B|264:168|368:112,1,180,8|0
480,248,129342,2,0,B|392:200|296:256,1,180,8|0
128,240,130143,2,0,B|64:152|136:64,2,180,8|0|8
256,360,131343,5,0
256,272,131543,1,0
256,184,131743,1,8
432,184,132143,5,0
344,184,132343,1,0
256,184,132543,1,8
112,80,132943,5,0
88,96,133043,1,0
64,112,133143,2,0,B|24:160|80:208,1,90,0|8
200,312,133743,5,2
376,312,134143,1,2
440,48,134544,5,2
416,48,134644,1,0
392,48,134744,1,0
368,48,134844,1,0
344,48,134944,1,2
256,152,135144,1,0
168,256,135344,1,2
144,256,135444,1,0
120,256,135544,1,0
96,256,135644,1,0
72,256,135744,1,2
64,80,136144,6,0,L|80:88|64:96|80:104|64:112|80:120|64:128|80:136|64:144|80:152|64:160|80:168|64:176,1,180,2|2
200,160,136744,1,0
336,160,136944,2,0,L|320:152|336:144|320:136|336:128|320:120|336:112|320:104|336:96|320:88|336:80|320:72|336:64,1,180,2|2
464,208,137744,5,2
448,232,137844,1,0
432,256,137944,1,0
368,320,138144,1,2
280,344,138344,1,0
192,344,138544,1,2
56,224,138944,5,2
56,136,139144,1,0
120,72,139344,1,2
296,56,139745,5,2
384,56,139945,1,0
448,112,140145,1,2
448,112,140545,1,4
448,288,140945,6,0,B|304:288,2,135,2|0|2
280,344,141945,1,0
208,296,142145,1,0
136,344,142345,1,0
64,296,142545,5,2
8,176,142845,1,0
64,56,143145,1,2
240,56,143545,2,2,L|232:72|224:56|216:72|208:56|200:72|192:56,2,90,2|2|2
328,56,144145,5,2
328,56,144445,1,0
328,56,144746,1,2
496,128,145146,2,2,B|528:176|496:216,2,90
424,184,145746,5,2
424,184,146046,1,0
424,184,146346,1,2
352,240,146546,1,0
272,288,146746,2,2,B|264:248|216:248|208:296,2,90
80,112,147344,6,0,B|80:264,2,135,2|0|2
264,112,148378,1,0
344,160,148585,1,2
424,112,148792,1,0
496,160,148999,6,0,B|496:312,2,135,2|0|2
376,296,150070,1,0
288,296,150284,1,2
200,296,150499,1,0
112,296,150718,6,0,B|56:240|120:160,2,135,2|0|2
216,152,151937,1,0
288,96,152181,1,2
360,40,152425,1,0
384,120,152689,5,4
456,232,153113,1,0
384,344,153538,2,0,B|280:344,1,90,4|0
168,304,154245,2,0,B|104:240|184:168,1,135,0|4
264,104,154948,5,0
288,96,155048,1,0
312,96,155148,1,0
336,104,155248,1,0
352,120,155348,1,0
368,144,155448,1,0
384,168,155548,1,0
408,184,155648,1,0
432,184,155748,6,0,B|472:192|496:168,7,45
256,192,156548,12,4,157748
424,312,158148,5,2
472,232,158348,1,0
440,144,158548,1,0
352,120,158748,1,0
352,120,158848,1,2
216,120,159148,2,2,L|208:136|200:120|192:136|184:120|176:136|168:120,2,90
256,200,159748,5,2
328,312,160049,1,2
192,312,160349,1,2
40,216,160649,1,0
56,192,160749,1,0
72,168,160849,1,0
88,144,160949,1,2
144,72,161149,1,0
232,48,161349,6,0,C|232:152,1,90,2|0
336,48,161749,2,0,C|336:152,1,90
336,138,162049,1,2
424,240,162349,1,0
416,328,162549,1,2
328,312,162749,1,0
328,312,162949,5,2
128,328,163249,1,0
48,144,163549,1,0
48,144,163849,1,2
128,328,164149,1,0
184,256,164349,1,0
272,256,164549,6,0,C|384:256,1,90,2|0
362,256,164950,1,0
432,200,165150,1,0
432,200,165250,1,2
376,80,165550,2,2,L|368:96|360:80|352:96|344:80|336:96|328:80,2,90
256,152,166150,5,2
256,288,166450,1,2
256,152,166750,1,2
144,232,167050,1,0
120,232,167151,1,0
32,232,167351,2,0,C|32:120,1,90,2|0
96,72,167751,5,2
184,104,167951,1,0
272,72,168151,1,0
360,104,168351,1,0
360,104,168451,1,2
480,168,168751,2,2,L|472:184|464:168|456:184|448:168|440:184|432:168,2,90
480,168,169351,5,2
312,288,169651,1,0
144,168,169951,1,2
144,168,170151,1,2
312,288,170451,1,0
480,168,170751,1,2
480,168,170951,1,4
